  0
SECTION
  2
HEADER
  9
$ACADVER
  1
AC1015
  9
$DWGCODEPAGE
  3
ANSI_932
  9
$HANDSEED
  5
106AB90
  0
ENDSEC
  0
SECTION
  2
CLASSES
  0
CLASS
  1
IMAGEDEF
  2
AcDbRasterImageDef
  3
ISM
  90
0
  91
4
  280
0
  281
0
  0
CLASS
  1
IMAGE
  2
AcDbRasterImage
  3
ISM
  90
127
  91
5
  280
0
  281
1
  0
CLASS
  1
IMAGEDEF_REACTOR
  2
AcDbRasterImageDefReactor
  3
ISM
  90
1
  91
4
  280
0
  281
0
  0
ENDSEC
  0
SECTION
  2
TABLES
  0
TABLE
  2
VPORT
  5
2
  330
0
  100
AcDbSymbolTable
  70
    0
  0
ENDTAB
  0
TABLE
  2
LTYPE
  5
3
  330
0
  100
AcDbSymbolTable
  70
    4
  0
LTYPE
  5
4
  330
3
  100
AcDbSymbolTableRecord
  100
AcDbLinetypeTableRecord
  2
ByBlock
  70
    0
  3

  72
65
  73
    0
  40
0
  0
LTYPE
  5
5
  330
3
  100
AcDbSymbolTableRecord
  100
AcDbLinetypeTableRecord
  2
ByLayer
  70
    0
  3

  72
65
  73
    0
  40
0
  0
LTYPE
  5
6
  330
3
  100
AcDbSymbolTableRecord
  100
AcDbLinetypeTableRecord
  2
CONTINUOUS
  70
    0
  3
Solid Line
  72
65
  73
    0
  40
0
  0
LTYPE
  5
7
  330
3
  100
AcDbSymbolTableRecord
  100
AcDbLinetypeTableRecord
  2
DASH
  70
    0
  3
Hidden
  72
65
  73
2
  40
2.5
  49
1.5
  74
0
  49
-1
  74
0
  0
LTYPE
  5
8
  330
3
  100
AcDbSymbolTableRecord
  100
AcDbLinetypeTableRecord
  2
LONGDASHDASH
  70
    0
  3
__ . __
  72
65
  73
    4
  40
7
  49
4
  74
    0
  49
-1
  74
    0
  49
1
  74
    0
  49
-1
  74
    0
  0
ENDTAB
  0
TABLE
  2
LAYER
  5
9
  330
0
  100
AcDbSymbolTable
  70
    40
  0
LAYER
  5
a
  330
9
  100
AcDbSymbolTableRecord
  100
AcDbLayerTableRecord
  2
0
  70
    0
  62
    0
  6
CONTINUOUS
  390
0
  0
LAYER
  5
c
  330
9
  100
AcDbSymbolTableRecord
  100
AcDbLayerTableRecord
  2
1
  70
    0
  62
    4
  6
CONTINUOUS
  370
50
  390
0
  0
LAYER
  5
d
  330
9
  100
AcDbSymbolTableRecord
  100
AcDbLayerTableRecord
  2
2
  70
    0
  62
    7
  6
CONTINUOUS
  370
25
  390
0
  0
LAYER
  5
f
  330
9
  100
AcDbSymbolTableRecord
  100
AcDbLayerTableRecord
  2
4
  70
    0
  62
    2
  6
LONGDASHDASH
  370
25
  390
0
  0
LAYER
  5
13
  330
9
  100
AcDbSymbolTableRecord
  100
AcDbLayerTableRecord
  2
SK1
  70
    0
  62
    4
  6
CONTINUOUS
  370
50
  390
0
  0
LAYER
  5
14
  330
9
  100
AcDbSymbolTableRecord
  100
AcDbLayerTableRecord
  2
SK2
  70
    0
  62
    7
  6
CONTINUOUS
  370
25
  390
0
  0
LAYER
  5
16
  330
9
  100
AcDbSymbolTableRecord
  100
AcDbLayerTableRecord
  2
SK4
  70
    0
  62
    2
  6
LONGDASHDASH
  370
25
  390
0
  0
LAYER
  5
21
  330
9
  100
AcDbSymbolTableRecord
  100
AcDbLayerTableRecord
  2
NOCUT
  70
    0
  62
    7
  6
CONTINUOUS
  370
25
  390
0
  0
LAYER
  5
22
  330
9
  100
AcDbSymbolTableRecord
  100
AcDbLayerTableRecord
  2
CUT
  70
    0
  62
    1
  6
CONTINUOUS
  370
25
  390
0
  0
LAYER
  5
26
  330
9
  100
AcDbSymbolTableRecord
  100
AcDbLayerTableRecord
  2
INFTOTAL
  70
    0
  62
    9
  6
CONTINUOUS
  370
18
  390
0
  0
ENDTAB
  0
TABLE
  2
STYLE
  5
27
  330
0
  100
AcDbSymbolTable
  70
    1
  0
STYLE
  5
28
  330
27
  100
AcDbSymbolTableRecord
  100
AcDbTextStyleTableRecord
  2
Monospac821 BT
  70
    0
  40
    3.5
  41
1
  50
0
  71
0
  42
3
  3

  4

  1001
ACAD
  1000
Monospac821 BT
  1071
256
  0
ENDTAB
  0
TABLE
  2
VIEW
  5
29
  330
0
  100
AcDbSymbolTable
  70
    0
  0
ENDTAB
  0
TABLE
  2
UCS
  5
2a
  330
0
  100
AcDbSymbolTable
  70
    0
  0
ENDTAB
  0
TABLE
  2
APPID
  5
2b
  330
0
  100
AcDbSymbolTable
  70
    1
  0
APPID
  5
2c
  330
2b
  100
AcDbSymbolTableRecord
  100
AcDbRegAppTableRecord
  2
ACAD
  70
    0
  0
ENDTAB
  0
TABLE
  2
DIMSTYLE
  5
2d
  330
0
  100
AcDbSymbolTable
  70
    1
  100
AcDbDimStyleTable
  0
DIMSTYLE
  105
2e
  330
2d
  100
AcDbSymbolTableRecord
  100
AcDbDimStyleTableRecord
  2
STANDARD
  70
    0
  41
    3
  42
0.5
  44
1
  73
0
  77
1
  78
1
  140
3.5
  141
2.5
  143
0.03937
  147
0.8
  172
1
  174
1
  178
0
  179
1
  271
2
  279
1
  284
1
  340
28
  0
ENDTAB
  0
TABLE
  2
BLOCK_RECORD
  5
2f
  330
0
  100
AcDbSymbolTable
  70
    2
  0
BLOCK_RECORD
  5
30
  330
2f
  100
AcDbSymbolTableRecord
  100
AcDbBlockTableRecord
  2
*Model_Space
  0
BLOCK_RECORD
  5
31
  330
2f
  100
AcDbSymbolTableRecord
  100
AcDbBlockTableRecord
  2
*Paper_Space
  0
BLOCK_RECORD
  5
a9
  330
2f
  100
AcDbSymbolTableRecord
  100
AcDbBlockTableRecord
  2
*Da8
  340
0
  0
BLOCK_RECORD
  5
b7
  330
2f
  100
AcDbSymbolTableRecord
  100
AcDbBlockTableRecord
  2
*Db6
  340
0
  0
BLOCK_RECORD
  5
c5
  330
2f
  100
AcDbSymbolTableRecord
  100
AcDbBlockTableRecord
  2
*Dc4
  340
0
  0
BLOCK_RECORD
  5
d3
  330
2f
  100
AcDbSymbolTableRecord
  100
AcDbBlockTableRecord
  2
*Dd2
  340
0
  0
BLOCK_RECORD
  5
e1
  330
2f
  100
AcDbSymbolTableRecord
  100
AcDbBlockTableRecord
  2
*De0
  340
0
  0
BLOCK_RECORD
  5
eb
  330
2f
  100
AcDbSymbolTableRecord
  100
AcDbBlockTableRecord
  2
*Dea
  340
0
  0
BLOCK_RECORD
  5
f9
  330
2f
  100
AcDbSymbolTableRecord
  100
AcDbBlockTableRecord
  2
*Df8
  340
0
  0
BLOCK_RECORD
  5
107
  330
2f
  100
AcDbSymbolTableRecord
  100
AcDbBlockTableRecord
  2
*D106
  340
0
  0
BLOCK_RECORD
  5
115
  330
2f
  100
AcDbSymbolTableRecord
  100
AcDbBlockTableRecord
  2
*D114
  340
0
  0
ENDTAB
  0
ENDSEC
  0
SECTION
  2
BLOCKS
  0
BLOCK
  5
32
  330
30
  100
AcDbEntity
  8
0
  100
AcDbBlockBegin
  2
*Model_Space
  70
    0
  10
0
  20
0
  30
0
  3
*Model_Space
  1

  0
ENDBLK
  5
33
  330
30
  100
AcDbEntity
  8
0
  100
AcDbBlockEnd
  0
BLOCK
  5
34
  330
31
  100
AcDbEntity
  8
0
  100
AcDbBlockBegin
  2
*Paper_Space
  70
    0
  10
0
  20
0
  30
0
  3
*Paper_Space
  1

  0
ENDBLK
  5
35
  330
31
  100
AcDbEntity
  8
0
  100
AcDbBlockEnd
  0
BLOCK
  5
a7
  330
a9
  100
AcDbEntity
  8
SK2
  100
AcDbBlockBegin
  2
*Da8
  70
1
  10
0
  20
0
  30
0
  3
*Da8
  1

  0
LINE
  5
aa
  330
a9
  100
AcDbEntity
  8
SK2
  100
AcDbLine
  10
0
  20
1.3
  30
0
  11
0
  21
14
  31
0
  0
LINE
  5
ab
  330
a9
  100
AcDbEntity
  8
SK2
  100
AcDbLine
  10
50
  20
0.2
  30
0
  11
50
  21
14
  31
0
  0
LINE
  5
ac
  330
a9
  100
AcDbEntity
  8
SK2
  100
AcDbLine
  10
0
  20
12
  30
0
  11
50
  21
12
  31
0
  0
SOLID
  5
ad
  330
a9
  100
AcDbEntity
  8
SK2
  100
AcDbTrace
  10
0
  20
12
  30
0
  11
2.478612
  21
12.326315
  31
0
  12
2.478612
  22
11.673685
  32
0
  13
2.478612
  23
11.673685
  33
0
  0
SOLID
  5
ae
  330
a9
  100
AcDbEntity
  8
SK2
  100
AcDbTrace
  10
50
  20
12
  30
0
  11
47.521388
  21
11.673685
  31
0
  12
47.521388
  22
12.326315
  32
0
  13
47.521388
  23
12.326315
  33
0
  0
MTEXT
  5
af
  330
a9
  100
AcDbEntity
  8
SK2
  100
AcDbMText
  10
25
  20
12
  30
0
  11
1
  21
0
  31
0
  40
2
  41
0
  71
8
  72
1
  1
50
  0
POINT
  5
b0
  330
a9
  100
AcDbEntity
  8
SK2
  62
0
  100
AcDbPoint
  10
0
  20
1.3
  30
0
  0
POINT
  5
b1
  330
a9
  100
AcDbEntity
  8
SK2
  62
0
  100
AcDbPoint
  10
50
  20
0.2
  30
0
  0
POINT
  5
b2
  330
a9
  100
AcDbEntity
  8
SK2
  62
0
  100
AcDbPoint
  10
50
  20
12
  30
0
  0
ENDBLK
  5
b3
  330
a9
  100
AcDbEntity
  8
SK2
  100
AcDbBlockEnd
  0
BLOCK
  5
b5
  330
b7
  100
AcDbEntity
  8
SK2
  100
AcDbBlockBegin
  2
*Db6
  70
1
  10
0
  20
0
  30
0
  3
*Db6
  1

  0
LINE
  5
b8
  330
b7
  100
AcDbEntity
  8
SK2
  100
AcDbLine
  10
0
  20
1.3
  30
0
  11
0
  21
8.882443
  31
0
  0
LINE
  5
b9
  330
b7
  100
AcDbEntity
  8
SK2
  100
AcDbLine
  10
35.4
  20
2
  30
0
  11
35.4
  21
8.882443
  31
0
  0
LINE
  5
ba
  330
b7
  100
AcDbEntity
  8
SK2
  100
AcDbLine
  10
0
  20
6.882443
  30
0
  11
35.4
  21
6.882443
  31
0
  0
SOLID
  5
bb
  330
b7
  100
AcDbEntity
  8
SK2
  100
AcDbTrace
  10
0
  20
6.882443
  30
0
  11
2.478612
  21
7.208758
  31
0
  12
2.478612
  22
6.556127
  32
0
  13
2.478612
  23
6.556127
  33
0
  0
SOLID
  5
bc
  330
b7
  100
AcDbEntity
  8
SK2
  100
AcDbTrace
  10
35.4
  20
6.882443
  30
0
  11
32.921388
  21
6.556127
  31
0
  12
32.921388
  22
7.208758
  32
0
  13
32.921388
  23
7.208758
  33
0
  0
MTEXT
  5
bd
  330
b7
  100
AcDbEntity
  8
SK2
  100
AcDbMText
  10
17.7
  20
6.882443
  30
0
  11
1
  21
0
  31
0
  40
2
  41
0
  71
8
  72
1
  1
35.4
  0
POINT
  5
be
  330
b7
  100
AcDbEntity
  8
SK2
  62
0
  100
AcDbPoint
  10
0
  20
1.3
  30
0
  0
POINT
  5
bf
  330
b7
  100
AcDbEntity
  8
SK2
  62
0
  100
AcDbPoint
  10
35.4
  20
2
  30
0
  0
POINT
  5
c0
  330
b7
  100
AcDbEntity
  8
SK2
  62
0
  100
AcDbPoint
  10
35.4
  20
6.882443
  30
0
  0
ENDBLK
  5
c1
  330
b7
  100
AcDbEntity
  8
SK2
  100
AcDbBlockEnd
  0
BLOCK
  5
c3
  330
c5
  100
AcDbEntity
  8
SK2
  100
AcDbBlockBegin
  2
*Dc4
  70
1
  10
0
  20
0
  30
0
  3
*Dc4
  1

  0
LINE
  5
c6
  330
c5
  100
AcDbEntity
  8
SK2
  100
AcDbLine
  10
0.7
  20
-2
  30
0
  11
-12
  21
-2
  31
0
  0
LINE
  5
c7
  330
c5
  100
AcDbEntity
  8
SK2
  100
AcDbLine
  10
0.7
  20
2
  30
0
  11
-12
  21
2
  31
0
  0
LINE
  5
c8
  330
c5
  100
AcDbEntity
  8
SK2
  100
AcDbLine
  10
-10
  20
-4.158416
  30
0
  11
-10
  21
2
  31
0
  0
SOLID
  5
c9
  330
c5
  100
AcDbEntity
  8
SK2
  100
AcDbTrace
  10
-10
  20
-2
  30
0
  11
-10.326315
  21
0.478612
  31
0
  12
-9.673685
  22
0.478612
  32
0
  13
-9.673685
  23
0.478612
  33
0
  0
SOLID
  5
ca
  330
c5
  100
AcDbEntity
  8
SK2
  100
AcDbTrace
  10
-10
  20
2
  30
0
  11
-9.673685
  21
-0.478612
  31
0
  12
-10.326315
  22
-0.478612
  32
0
  13
-10.326315
  23
-0.478612
  33
0
  0
MTEXT
  5
cb
  330
c5
  100
AcDbEntity
  8
SK2
  100
AcDbMText
  10
-10
  20
0
  30
0
  11
0
  21
1
  31
0
  40
2
  41
0
  71
8
  72
1
  1
ﾘ4
  0
POINT
  5
cc
  330
c5
  100
AcDbEntity
  8
SK2
  62
0
  100
AcDbPoint
  10
0.7
  20
-2
  30
0
  0
POINT
  5
cd
  330
c5
  100
AcDbEntity
  8
SK2
  62
0
  100
AcDbPoint
  10
0.7
  20
2
  30
0
  0
POINT
  5
ce
  330
c5
  100
AcDbEntity
  8
SK2
  62
0
  100
AcDbPoint
  10
-10
  20
2
  30
0
  0
ENDBLK
  5
cf
  330
c5
  100
AcDbEntity
  8
SK2
  100
AcDbBlockEnd
  0
BLOCK
  5
d1
  330
d3
  100
AcDbEntity
  8
2
  100
AcDbBlockBegin
  2
*Dd2
  70
1
  10
0
  20
0
  30
0
  3
*Dd2
  1

  0
LINE
  5
d4
  330
d3
  100
AcDbEntity
  8
2
  100
AcDbLine
  10
49.8
  20
-0.4
  30
0
  11
62
  21
-0.4
  31
0
  0
LINE
  5
d5
  330
d3
  100
AcDbEntity
  8
2
  100
AcDbLine
  10
49.8
  20
0.4
  30
0
  11
62
  21
0.4
  31
0
  0
LINE
  5
d6
  330
d3
  100
AcDbEntity
  8
2
  100
AcDbLine
  10
60
  20
-6.757426
  30
0
  11
60
  21
0.4
  31
0
  0
SOLID
  5
d7
  330
d3
  100
AcDbEntity
  8
2
  100
AcDbTrace
  10
60
  20
-0.4
  30
0
  11
59.673685
  21
2.078612
  31
0
  12
60.326315
  22
2.078612
  32
0
  13
60.326315
  23
2.078612
  33
0
  0
SOLID
  5
d8
  330
d3
  100
AcDbEntity
  8
2
  100
AcDbTrace
  10
60
  20
0.4
  30
0
  11
60.326315
  21
-2.078612
  31
0
  12
59.673685
  22
-2.078612
  32
0
  13
59.673685
  23
-2.078612
  33
0
  0
MTEXT
  5
d9
  330
d3
  100
AcDbEntity
  8
2
  100
AcDbMText
  10
60
  20
0
  30
0
  11
0
  21
1
  31
0
  40
2
  41
0
  71
8
  72
1
  1
ﾘ0.8
  0
POINT
  5
da
  330
d3
  100
AcDbEntity
  8
2
  62
0
  100
AcDbPoint
  10
49.8
  20
-0.4
  30
0
  0
POINT
  5
db
  330
d3
  100
AcDbEntity
  8
2
  62
0
  100
AcDbPoint
  10
49.8
  20
0.4
  30
0
  0
POINT
  5
dc
  330
d3
  100
AcDbEntity
  8
2
  62
0
  100
AcDbPoint
  10
60
  20
0.4
  30
0
  0
ENDBLK
  5
dd
  330
d3
  100
AcDbEntity
  8
2
  100
AcDbBlockEnd
  0
BLOCK
  5
df
  330
e1
  100
AcDbEntity
  8
2
  100
AcDbBlockBegin
  2
*De0
  70
1
  10
0
  20
0
  30
0
  3
*De0
  1

  0
LINE
  5
e2
  330
e1
  100
AcDbEntity
  8
2
  100
AcDbLine
  10
47.346411
  20
-2.253589
  30
0
  11
57.012489
  21
7.412489
  31
0
  0
MTEXT
  5
e3
  330
e1
  100
AcDbEntity
  8
2
  100
AcDbMText
  10
49.941421
  20
0.341421
  30
0
  11
0.707107
  21
0.707107
  31
0
  40
2
  41
0
  71
8
  72
1
  1
R0.2
  0
SOLID
  5
e4
  330
e1
  100
AcDbEntity
  8
2
  100
AcDbTrace
  10
49.941421
  20
0.341421
  30
0
  11
51.463325
  21
2.324805
  31
0
  12
51.924805
  22
1.863325
  32
0
  13
51.924805
  23
1.863325
  33
0
  0
POINT
  5
e5
  330
e1
  100
AcDbEntity
  8
2
  62
0
  100
AcDbPoint
  10
47.346411
  20
-2.253589
  30
0
  0
POINT
  5
e6
  330
e1
  100
AcDbEntity
  8
2
  62
0
  100
AcDbPoint
  10
49.8
  20
0.2
  30
0
  0
ENDBLK
  5
e7
  330
e1
  100
AcDbEntity
  8
2
  100
AcDbBlockEnd
  0
BLOCK
  5
e9
  330
eb
  100
AcDbEntity
  8
2
  100
AcDbBlockBegin
  2
*Dea
  70
1
  10
0
  20
0
  30
0
  3
*Dea
  1

  0
LINE
  5
ec
  330
eb
  100
AcDbEntity
  8
2
  100
AcDbLine
  10
49.35
  20
-0.375
  30
0
  11
47.35
  21
-0.375
  31
0
  0
LINE
  5
ed
  330
eb
  100
AcDbEntity
  8
2
  100
AcDbLine
  10
49.35
  20
0.375
  30
0
  11
47.35
  21
0.375
  31
0
  0
LINE
  5
ee
  330
eb
  100
AcDbEntity
  8
2
  100
AcDbLine
  10
49.35
  20
-0.375
  30
0
  11
49.35
  21
8.836634
  31
0
  0
SOLID
  5
ef
  330
eb
  100
AcDbEntity
  8
2
  100
AcDbTrace
  10
49.35
  20
-0.375
  30
0
  11
49.023685
  21
2.103612
  31
0
  12
49.676315
  22
2.103612
  32
0
  13
49.676315
  23
2.103612
  33
0
  0
SOLID
  5
f0
  330
eb
  100
AcDbEntity
  8
2
  100
AcDbTrace
  10
49.35
  20
0.375
  30
0
  11
49.676315
  21
-2.103612
  31
0
  12
49.023685
  22
-2.103612
  32
0
  13
49.023685
  23
-2.103612
  33
0
  0
MTEXT
  5
f1
  330
eb
  100
AcDbEntity
  8
2
  100
AcDbMText
  10
49.35
  20
0.375
  30
0
  11
0
  21
1
  31
0
  40
2
  41
0
  71
8
  72
1
  1
ﾘ0.75
  0
POINT
  5
f2
  330
eb
  100
AcDbEntity
  8
2
  62
0
  100
AcDbPoint
  10
47.35
  20
-0.375
  30
0
  0
POINT
  5
f3
  330
eb
  100
AcDbEntity
  8
2
  62
0
  100
AcDbPoint
  10
47.35
  20
0.375
  30
0
  0
POINT
  5
f4
  330
eb
  100
AcDbEntity
  8
2
  62
0
  100
AcDbPoint
  10
49.35
  20
8.836634
  30
0
  0
ENDBLK
  5
f5
  330
eb
  100
AcDbEntity
  8
2
  100
AcDbBlockEnd
  0
BLOCK
  5
f7
  330
f9
  100
AcDbEntity
  8
2
  100
AcDbBlockBegin
  2
*Df8
  70
1
  10
0
  20
0
  30
0
  3
*Df8
  1

  0
LINE
  5
fa
  330
f9
  100
AcDbEntity
  8
2
  100
AcDbLine
  10
49.35
  20
0.375
  30
0
  11
49.35
  21
9
  31
0
  0
LINE
  5
fb
  330
f9
  100
AcDbEntity
  8
2
  100
AcDbLine
  10
42.25
  20
0.375
  30
0
  11
42.25
  21
9
  31
0
  0
LINE
  5
fc
  330
f9
  100
AcDbEntity
  8
2
  100
AcDbLine
  10
49.35
  20
7
  30
0
  11
42.25
  21
7
  31
0
  0
SOLID
  5
fd
  330
f9
  100
AcDbEntity
  8
2
  100
AcDbTrace
  10
49.35
  20
7
  30
0
  11
51.828612
  21
7.326315
  31
0
  12
51.828612
  22
6.673685
  32
0
  13
51.828612
  23
6.673685
  33
0
  0
SOLID
  5
fe
  330
f9
  100
AcDbEntity
  8
2
  100
AcDbTrace
  10
42.25
  20
7
  30
0
  11
39.771388
  21
6.673685
  31
0
  12
39.771388
  22
7.326315
  32
0
  13
39.771388
  23
7.326315
  33
0
  0
MTEXT
  5
ff
  330
f9
  100
AcDbEntity
  8
2
  100
AcDbMText
  10
45.8
  20
7
  30
0
  11
1
  21
-0
  31
0
  40
2
  41
0
  71
8
  72
1
  1
7.1
  0
POINT
  5
100
  330
f9
  100
AcDbEntity
  8
2
  62
0
  100
AcDbPoint
  10
49.35
  20
0.375
  30
0
  0
POINT
  5
101
  330
f9
  100
AcDbEntity
  8
2
  62
0
  100
AcDbPoint
  10
42.25
  20
0.375
  30
0
  0
POINT
  5
102
  330
f9
  100
AcDbEntity
  8
2
  62
0
  100
AcDbPoint
  10
42.25
  20
7
  30
0
  0
ENDBLK
  5
103
  330
f9
  100
AcDbEntity
  8
2
  100
AcDbBlockEnd
  0
BLOCK
  5
105
  330
107
  100
AcDbEntity
  8
2
  100
AcDbBlockBegin
  2
*D106
  70
1
  10
0
  20
0
  30
0
  3
*D106
  1

  0
LINE
  5
108
  330
107
  100
AcDbEntity
  8
2
  100
AcDbLine
  10
50
  20
0.2
  30
0
  11
50
  21
14
  31
0
  0
LINE
  5
109
  330
107
  100
AcDbEntity
  8
2
  100
AcDbLine
  10
35.4
  20
2
  30
0
  11
35.4
  21
9
  31
0
  0
LINE
  5
10a
  330
107
  100
AcDbEntity
  8
2
  100
AcDbLine
  10
50
  20
7
  30
0
  11
35.4
  21
7
  31
0
  0
SOLID
  5
10b
  330
107
  100
AcDbEntity
  8
2
  100
AcDbTrace
  10
50
  20
7
  30
0
  11
52.478612
  21
7.326315
  31
0
  12
52.478612
  22
6.673685
  32
0
  13
52.478612
  23
6.673685
  33
0
  0
SOLID
  5
10c
  330
107
  100
AcDbEntity
  8
2
  100
AcDbTrace
  10
35.4
  20
7
  30
0
  11
32.921388
  21
6.673685
  31
0
  12
32.921388
  22
7.326315
  32
0
  13
32.921388
  23
7.326315
  33
0
  0
MTEXT
  5
10d
  330
107
  100
AcDbEntity
  8
2
  100
AcDbMText
  10
42.7
  20
7
  30
0
  11
1
  21
-0
  31
0
  40
2
  41
0
  71
8
  72
1
  1
14.6
  0
POINT
  5
10e
  330
107
  100
AcDbEntity
  8
2
  62
0
  100
AcDbPoint
  10
50
  20
14
  30
0
  0
POINT
  5
10f
  330
107
  100
AcDbEntity
  8
2
  62
0
  100
AcDbPoint
  10
35.4
  20
2
  30
0
  0
POINT
  5
110
  330
107
  100
AcDbEntity
  8
2
  62
0
  100
AcDbPoint
  10
35.4
  20
7
  30
0
  0
ENDBLK
  5
111
  330
107
  100
AcDbEntity
  8
2
  100
AcDbBlockEnd
  0
BLOCK
  5
113
  330
115
  100
AcDbEntity
  8
2
  100
AcDbBlockBegin
  2
*D114
  70
1
  10
0
  20
0
  30
0
  3
*D114
  1

  0
LINE
  5
116
  330
115
  100
AcDbEntity
  8
2
  100
AcDbLine
  10
50
  20
-7.448267
  30
0
  11
50
  21
0
  31
0
  0
LINE
  5
117
  330
115
  100
AcDbEntity
  8
2
  100
AcDbLine
  10
49.35
  20
-7.448267
  30
0
  11
49.35
  21
-0.375
  31
0
  0
LINE
  5
118
  330
115
  100
AcDbEntity
  8
2
  100
AcDbLine
  10
50
  20
-5.448267
  30
0
  11
43.273515
  21
-5.448267
  31
0
  0
SOLID
  5
119
  330
115
  100
AcDbEntity
  8
2
  100
AcDbTrace
  10
50
  20
-5.448267
  30
0
  11
52.478612
  21
-5.121952
  31
0
  12
52.478612
  22
-5.774583
  32
0
  13
52.478612
  23
-5.774583
  33
0
  0
SOLID
  5
11a
  330
115
  100
AcDbEntity
  8
2
  100
AcDbTrace
  10
49.35
  20
-5.448267
  30
0
  11
46.871388
  21
-5.774583
  31
0
  12
46.871388
  22
-5.121952
  32
0
  13
46.871388
  23
-5.121952
  33
0
  0
MTEXT
  5
11b
  330
115
  100
AcDbEntity
  8
2
  100
AcDbMText
  10
49.675
  20
-5.448267
  30
0
  11
1
  21
-0
  31
0
  40
2
  41
0
  71
8
  72
1
  1
0.65
  0
POINT
  5
11c
  330
115
  100
AcDbEntity
  8
2
  62
0
  100
AcDbPoint
  10
50
  20
0
  30
0
  0
POINT
  5
11d
  330
115
  100
AcDbEntity
  8
2
  62
0
  100
AcDbPoint
  10
49.35
  20
-0.375
  30
0
  0
POINT
  5
11e
  330
115
  100
AcDbEntity
  8
2
  62
0
  100
AcDbPoint
  10
43.273515
  20
-5.448267
  30
0
  0
ENDBLK
  5
11f
  330
115
  100
AcDbEntity
  8
2
  100
AcDbBlockEnd
  0
ENDSEC
  0
SECTION
  2
ENTITIES
  0
DIMENSION
  5
b4
  100
AcDbEntity
  8
SK2
  100
AcDbDimension
  2
*Da8
  10
50
  20
12
  30
0
  11
25
  21
12
  31
0
  70
160
  1
<>
  71
5
  3
STANDARD
  42
50
  100
AcDbAlignedDimension
  13
0
  23
1.3
  33
0
  14
50
  24
0.2
  34
0
  50
0
  100
AcDbRotatedDimension
  0
DIMENSION
  5
c2
  100
AcDbEntity
  8
SK2
  100
AcDbDimension
  2
*Db6
  10
35.4
  20
6.882443
  30
0
  11
17.7
  21
6.882443
  31
0
  70
160
  1
<>
  71
5
  3
STANDARD
  42
35.4
  100
AcDbAlignedDimension
  13
0
  23
1.3
  33
0
  14
35.4
  24
2
  34
0
  50
0
  100
AcDbRotatedDimension
  0
DIMENSION
  5
d0
  100
AcDbEntity
  8
SK2
  100
AcDbDimension
  2
*Dc4
  10
-10
  20
2
  30
0
  11
-10
  21
0
  31
0
  70
160
  1
%%c<>
  71
5
  3
STANDARD
  42
4
  100
AcDbAlignedDimension
  13
0.7
  23
-2
  33
0
  14
0.7
  24
2
  34
0
  50
-90
  100
AcDbRotatedDimension
  0
DIMENSION
  5
de
  100
AcDbEntity
  8
2
  100
AcDbDimension
  2
*Dd2
  10
60
  20
0.4
  30
0
  11
60
  21
0
  31
0
  70
160
  1
%%c<>
  71
5
  3
STANDARD
  42
0.8
  100
AcDbAlignedDimension
  13
49.8
  23
-0.4
  33
0
  14
49.8
  24
0.4
  34
0
  50
-90
  100
AcDbRotatedDimension
  0
DIMENSION
  5
e8
  100
AcDbEntity
  8
2
  100
AcDbDimension
  2
*De0
  10
49.8
  20
0.2
  30
0
  11
49.941421
  21
0.341421
  31
0
  70
164
  1
R0.2
  71
5
  3
STANDARD
  100
AcDbRadialDimension
  15
49.941421
  25
0.341421
  35
0
  50
45
  0
DIMENSION
  5
f6
  100
AcDbEntity
  8
2
  100
AcDbDimension
  2
*Dea
  10
49.35
  20
8.836634
  30
0
  11
49.35
  21
0.375
  31
0
  70
160
  1
%%c<>
  71
5
  3
STANDARD
  42
0.75
  100
AcDbAlignedDimension
  13
47.35
  23
-0.375
  33
0
  14
47.35
  24
0.375
  34
0
  50
-90
  100
AcDbRotatedDimension
  0
DIMENSION
  5
104
  100
AcDbEntity
  8
2
  100
AcDbDimension
  2
*Df8
  10
42.25
  20
7
  30
0
  11
45.8
  21
7
  31
0
  70
160
  1
<>
  71
5
  3
STANDARD
  42
7.1
  100
AcDbAlignedDimension
  13
49.35
  23
0.375
  33
0
  14
42.25
  24
0.375
  34
0
  50
0
  100
AcDbRotatedDimension
  0
DIMENSION
  5
112
  100
AcDbEntity
  8
2
  100
AcDbDimension
  2
*D106
  10
35.4
  20
7
  30
0
  11
42.7
  21
7
  31
0
  70
160
  1
<>
  71
5
  3
STANDARD
  42
14.6
  100
AcDbAlignedDimension
  13
50
  23
14
  33
0
  14
35.4
  24
2
  34
0
  50
0
  100
AcDbRotatedDimension
  0
DIMENSION
  5
120
  100
AcDbEntity
  8
2
  100
AcDbDimension
  2
*D114
  10
43.273515
  20
-5.448267
  30
0
  11
49.675
  21
-5.448267
  31
0
  70
160
  1
<>
  71
5
  3
STANDARD
  42
0.65
  100
AcDbAlignedDimension
  13
50
  23
0
  33
0
  14
49.35
  24
-0.375
  34
0
  50
0
  100
AcDbRotatedDimension
  0
ARC
  5
36
  100
AcDbEntity
  8
1
  100
AcDbCircle
  10
43.121557
  20
-10.336947
  30
0
  40
10
  100
AcDbArc
  50
95
  51
105
  0
LINE
  5
37
  100
AcDbEntity
  8
1
  100
AcDbLine
  10
42.25
  20
-0.375
  30
0
  11
49.35
  21
-0.375
  31
0
  0
LINE
  5
38
  100
AcDbEntity
  8
1
  100
AcDbLine
  10
49.35
  20
-0.375
  30
0
  11
49.35
  21
-0.4
  31
0
  0
LINE
  5
39
  100
AcDbEntity
  8
1
  100
AcDbLine
  10
49.35
  20
-0.4
  30
0
  11
49.8
  21
-0.4
  31
0
  0
ARC
  5
3a
  100
AcDbEntity
  8
1
  100
AcDbCircle
  10
49.8
  20
-0.2
  30
0
  40
0.2
  100
AcDbArc
  50
270
  51
0
  0
LINE
  5
3b
  100
AcDbEntity
  8
1
  100
AcDbLine
  10
50
  20
-0.2
  30
0
  11
50
  21
0
  31
0
  0
LINE
  5
3c
  100
AcDbEntity
  8
1
  100
AcDbLine
  10
50
  20
0
  30
0
  11
50
  21
0.2
  31
0
  0
ARC
  5
3d
  100
AcDbEntity
  8
1
  100
AcDbCircle
  10
49.8
  20
0.2
  30
0
  40
0.2
  100
AcDbArc
  50
0
  51
90
  0
LINE
  5
3e
  100
AcDbEntity
  8
1
  100
AcDbLine
  10
49.8
  20
0.4
  30
0
  11
49.35
  21
0.4
  31
0
  0
LINE
  5
3f
  100
AcDbEntity
  8
1
  100
AcDbLine
  10
49.35
  20
0.4
  30
0
  11
49.35
  21
0.375
  31
0
  0
LINE
  5
40
  100
AcDbEntity
  8
1
  100
AcDbLine
  10
49.35
  20
0.375
  30
0
  11
42.25
  21
0.375
  31
0
  0
ARC
  5
41
  100
AcDbEntity
  8
1
  100
AcDbCircle
  10
43.121557
  20
10.336947
  30
0
  40
10
  100
AcDbArc
  50
255
  51
265
  0
LINE
  5
42
  100
AcDbEntity
  8
1
  100
AcDbLine
  10
40.533367
  20
0.677689
  30
0
  11
35.598434
  21
2
  31
0
  0
LINE
  5
43
  100
AcDbEntity
  8
1
  100
AcDbLine
  10
35.598434
  20
2
  30
0
  11
35.4
  21
2
  31
0
  0
LINE
  5
44
  100
AcDbEntity
  8
1
  100
AcDbLine
  10
35.4
  20
2
  30
0
  11
35.4
  21
-2
  31
0
  0
LINE
  5
45
  100
AcDbEntity
  8
1
  100
AcDbLine
  10
35.4
  20
-2
  30
0
  11
35.598434
  21
-2
  31
0
  0
LINE
  5
46
  100
AcDbEntity
  8
1
  100
AcDbLine
  10
35.598434
  20
-2
  30
0
  11
40.533367
  21
-0.677689
  31
0
  0
LINE
  5
47
  100
AcDbEntity
  8
1
  100
AcDbLine
  10
35.4
  20
-2
  30
0
  11
35.4
  21
2
  31
0
  0
LINE
  5
48
  100
AcDbEntity
  8
1
  100
AcDbLine
  10
35.4
  20
2
  30
0
  11
35.4
  21
-2
  31
0
  0
LINE
  5
49
  100
AcDbEntity
  8
1
  100
AcDbLine
  10
35.598434
  20
2
  30
0
  11
35.598434
  21
-2
  31
0
  0
LINE
  5
4a
  100
AcDbEntity
  8
1
  100
AcDbLine
  10
40.533367
  20
-0.677689
  30
0
  11
40.533367
  21
0.677689
  31
0
  0
LINE
  5
4b
  100
AcDbEntity
  8
1
  100
AcDbLine
  10
42.25
  20
0.375
  30
0
  11
42.25
  21
-0.375
  31
0
  0
LINE
  5
4c
  100
AcDbEntity
  8
1
  100
AcDbLine
  10
49.4
  20
-0.224636
  30
0
  11
49.5
  21
-0.269038
  31
0
  0
LINE
  5
4d
  100
AcDbEntity
  8
1
  100
AcDbLine
  10
49.5
  20
-0.269038
  30
0
  11
49.6
  21
-0.307844
  31
0
  0
LINE
  5
4e
  100
AcDbEntity
  8
1
  100
AcDbLine
  10
49.6
  20
-0.307844
  30
0
  11
49.7
  21
-0.340248
  31
0
  0
LINE
  5
4f
  100
AcDbEntity
  8
1
  100
AcDbLine
  10
49.7
  20
-0.340248
  30
0
  11
49.8
  21
-0.365576
  31
0
  0
LINE
  5
50
  100
AcDbEntity
  8
1
  100
AcDbLine
  10
49.8
  20
-0.365576
  30
0
  11
49.9
  21
-0.355841
  31
0
  0
LINE
  5
51
  100
AcDbEntity
  8
1
  100
AcDbLine
  10
49.9
  20
-0.355841
  30
0
  11
49.999531
  21
-0.186306
  31
0
  0
LINE
  5
52
  100
AcDbEntity
  8
1
  100
AcDbLine
  10
49.999531
  20
-0.186306
  30
0
  11
50
  21
-0.185506
  31
0
  0
LINE
  5
53
  100
AcDbEntity
  8
1
  100
AcDbLine
  10
50
  20
-0.197974
  30
0
  11
49.99999
  21
-0.197992
  31
0
  0
LINE
  5
54
  100
AcDbEntity
  8
1
  100
AcDbLine
  10
49.99999
  20
-0.197992
  30
0
  11
49.9
  21
-0.368763
  31
0
  0
LINE
  5
55
  100
AcDbEntity
  8
1
  100
AcDbLine
  10
49.9
  20
-0.368763
  30
0
  11
49.8
  21
-0.383449
  31
0
  0
LINE
  5
56
  100
AcDbEntity
  8
1
  100
AcDbLine
  10
49.8
  20
-0.383449
  30
0
  11
49.7
  21
-0.363082
  31
0
  0
LINE
  5
57
  100
AcDbEntity
  8
1
  100
AcDbLine
  10
49.7
  20
-0.363082
  30
0
  11
49.6
  21
-0.335165
  31
0
  0
LINE
  5
58
  100
AcDbEntity
  8
1
  100
AcDbLine
  10
49.6
  20
-0.335165
  30
0
  11
49.5
  21
-0.300277
  31
0
  0
LINE
  5
59
  100
AcDbEntity
  8
1
  100
AcDbLine
  10
49.5
  20
-0.300277
  30
0
  11
49.4
  21
-0.259144
  31
0
  0
LINE
  5
5a
  100
AcDbEntity
  8
1
  100
AcDbLine
  10
49.4
  20
-0.259144
  30
0
  11
49.3
  21
-0.197371
  31
0
  0
LINE
  5
5b
  100
AcDbEntity
  8
1
  100
AcDbLine
  10
49.3
  20
-0.197371
  30
0
  11
49.3
  21
-0.375
  31
0
  0
LINE
  5
5c
  100
AcDbEntity
  8
1
  100
AcDbLine
  10
49.35
  20
-0.375
  30
0
  11
49.35
  21
0.375
  31
0
  0
LINE
  5
5d
  100
AcDbEntity
  8
1
  100
AcDbLine
  10
49.35
  20
0.4
  30
0
  11
49.35
  21
-0.4
  31
0
  0
LINE
  5
5e
  100
AcDbEntity
  8
1
  100
AcDbLine
  10
49.3
  20
0.375
  30
0
  11
49.3
  21
-0.043099
  31
0
  0
LINE
  5
5f
  100
AcDbEntity
  8
1
  100
AcDbLine
  10
49.3
  20
-0.043099
  30
0
  11
49.4
  21
-0.139301
  31
0
  0
LINE
  5
60
  100
AcDbEntity
  8
1
  100
AcDbLine
  10
49.4
  20
-0.139301
  30
0
  11
49.5
  21
-0.191785
  31
0
  0
LINE
  5
61
  100
AcDbEntity
  8
1
  100
AcDbLine
  10
49.5
  20
-0.191785
  30
0
  11
49.6
  21
-0.240281
  31
0
  0
LINE
  5
62
  100
AcDbEntity
  8
1
  100
AcDbLine
  10
49.6
  20
-0.240281
  30
0
  11
49.7
  21
-0.28378
  31
0
  0
LINE
  5
63
  100
AcDbEntity
  8
1
  100
AcDbLine
  10
49.7
  20
-0.28378
  30
0
  11
49.8
  21
-0.321377
  31
0
  0
LINE
  5
64
  100
AcDbEntity
  8
1
  100
AcDbLine
  10
49.8
  20
-0.321377
  30
0
  11
49.9
  21
-0.327407
  31
0
  0
LINE
  5
65
  100
AcDbEntity
  8
1
  100
AcDbLine
  10
49.9
  20
-0.327407
  30
0
  11
49.999129
  21
-0.181351
  31
0
  0
LINE
  5
66
  100
AcDbEntity
  8
1
  100
AcDbLine
  10
49.999129
  20
-0.181351
  30
0
  11
50
  21
-0.180067
  31
0
  0
LINE
  5
67
  100
AcDbEntity
  8
1
  100
AcDbLine
  10
49.8
  20
0.4
  30
0
  11
49.8
  21
-0.4
  31
0
  0
LINE
  5
68
  100
AcDbEntity
  8
1
  100
AcDbLine
  10
49.8
  20
-0.4
  30
0
  11
49.8
  21
0.4
  31
0
  0
LINE
  5
69
  100
AcDbEntity
  8
SK1
  100
AcDbLine
  10
35.4
  20
2
  30
0
  11
0.7
  21
2
  31
0
  0
LINE
  5
6a
  100
AcDbEntity
  8
SK1
  100
AcDbLine
  10
0.7
  20
2
  30
0
  11
0
  21
1.3
  31
0
  0
LINE
  5
6b
  100
AcDbEntity
  8
SK1
  100
AcDbLine
  10
35.4
  20
-2
  30
0
  11
0.7
  21
-2
  31
0
  0
LINE
  5
6c
  100
AcDbEntity
  8
SK1
  100
AcDbLine
  10
0.7
  20
-2
  30
0
  11
0
  21
-1.3
  31
0
  0
LINE
  5
6d
  100
AcDbEntity
  8
SK1
  100
AcDbLine
  10
0.7
  20
2
  30
0
  11
0.7
  21
-2
  31
0
  0
LINE
  5
6e
  100
AcDbEntity
  8
SK1
  100
AcDbLine
  10
0
  20
1.3
  30
0
  11
0
  21
-1.3
  31
0
  0
LINE
  5
6f
  100
AcDbEntity
  8
SK1
  100
AcDbLine
  10
36.4401
  20
1.40688
  30
0
  11
36.8069
  21
1.0401
  31
0
  0
LINE
  5
70
  100
AcDbEntity
  8
SK1
  100
AcDbLine
  10
35.9328
  20
1.66666
  30
0
  11
37.0667
  21
0.532833
  31
0
  0
LINE
  5
71
  100
AcDbEntity
  8
SK1
  100
AcDbLine
  10
35.6154
  20
1.73657
  30
0
  11
37.1366
  21
0.215434
  31
0
  0
LINE
  5
72
  100
AcDbEntity
  8
SK1
  100
AcDbLine
  10
35.4
  20
1.70452
  30
0
  11
37.1045
  21
0
  31
0
  0
LINE
  5
73
  100
AcDbEntity
  8
SK1
  100
AcDbLine
  10
35.4
  20
1.45703
  30
0
  11
36.857
  21
0
  31
0
  0
LINE
  5
74
  100
AcDbEntity
  8
SK1
  100
AcDbLine
  10
35.4
  20
1.20954
  30
0
  11
36.6095
  21
0
  31
0
  0
LINE
  5
75
  100
AcDbEntity
  8
SK1
  100
AcDbLine
  10
35.4
  20
0.962054
  30
0
  11
36.3621
  21
0
  31
0
  0
LINE
  5
76
  100
AcDbEntity
  8
SK1
  100
AcDbLine
  10
35.4
  20
0.714566
  30
0
  11
36.1146
  21
0
  31
0
  0
LINE
  5
77
  100
AcDbEntity
  8
SK1
  100
AcDbLine
  10
35.4
  20
0.467079
  30
0
  11
35.8671
  21
0
  31
0
  0
LINE
  5
78
  100
AcDbEntity
  8
SK1
  100
AcDbLine
  10
35.4
  20
0.219592
  30
0
  11
35.6196
  21
0
  31
0
  0
LINE
  5
79
  100
AcDbEntity
  8
SK1
  100
AcDbLine
  10
35.4
  20
1.70452
  30
0
  11
35.4441
  21
1.74861
  31
0
  0
LINE
  5
7a
  100
AcDbEntity
  8
SK1
  100
AcDbLine
  10
35.4
  20
1.45703
  30
0
  11
35.671
  21
1.72802
  31
0
  0
LINE
  5
7b
  100
AcDbEntity
  8
SK1
  100
AcDbLine
  10
35.4
  20
1.20954
  30
0
  11
35.8742
  21
1.6837
  31
0
  0
LINE
  5
7c
  100
AcDbEntity
  8
SK1
  100
AcDbLine
  10
35.4
  20
0.962054
  30
0
  11
36.0588
  21
1.62082
  31
0
  0
LINE
  5
7d
  100
AcDbEntity
  8
SK1
  100
AcDbLine
  10
35.4
  20
0.714566
  30
0
  11
36.2271
  21
1.54167
  31
0
  0
LINE
  5
7e
  100
AcDbEntity
  8
SK1
  100
AcDbLine
  10
35.4
  20
0.467079
  30
0
  11
36.381
  21
1.44812
  31
0
  0
LINE
  5
7f
  100
AcDbEntity
  8
SK1
  100
AcDbLine
  10
35.4
  20
0.219592
  30
0
  11
36.5226
  21
1.34216
  31
0
  0
LINE
  5
80
  100
AcDbEntity
  8
SK1
  100
AcDbLine
  10
35.4279
  20
0
  30
0
  11
36.6508
  21
1.22288
  31
0
  0
LINE
  5
81
  100
AcDbEntity
  8
SK1
  100
AcDbLine
  10
35.6754
  20
0
  30
0
  11
36.767
  21
1.09157
  31
0
  0
LINE
  5
82
  100
AcDbEntity
  8
SK1
  100
AcDbLine
  10
35.9229
  20
0
  30
0
  11
36.8707
  21
0.947822
  31
0
  0
LINE
  5
83
  100
AcDbEntity
  8
SK1
  100
AcDbLine
  10
36.1704
  20
0
  30
0
  11
36.9605
  21
0.790145
  31
0
  0
LINE
  5
84
  100
AcDbEntity
  8
SK1
  100
AcDbLine
  10
36.4178
  20
0
  30
0
  11
37.0364
  21
0.618517
  31
0
  0
LINE
  5
85
  100
AcDbEntity
  8
SK1
  100
AcDbLine
  10
36.6653
  20
0
  30
0
  11
37.096
  21
0.430696
  31
0
  0
LINE
  5
86
  100
AcDbEntity
  8
SK1
  100
AcDbLine
  10
36.9128
  20
0
  30
0
  11
37.1356
  21
0.222827
  31
0
  0
LINE
  5
87
  100
AcDbEntity
  8
SK1
  100
AcDbLine
  10
35.4
  20
0
  30
0
  11
35.4
  21
1.75
  31
0
  0
LINE
  5
88
  100
AcDbEntity
  8
SK1
  100
AcDbLine
  10
35.4
  20
0
  30
0
  11
37.15
  21
0
  31
0
  0
ARC
  5
89
  100
AcDbEntity
  8
SK1
  100
AcDbCircle
  10
35.4
  20
0
  30
0
  40
1.75
  100
AcDbArc
  50
0
  51
90
  0
ARC
  5
8a
  100
AcDbEntity
  8
SK1
  100
AcDbCircle
  10
35.4
  20
0
  30
0
  40
1.75
  100
AcDbArc
  50
90
  51
180
  0
LINE
  5
8b
  100
AcDbEntity
  8
SK1
  100
AcDbLine
  10
35.3721
  20
0
  30
0
  11
35.4
  21
-0.027896
  31
0
  0
LINE
  5
8c
  100
AcDbEntity
  8
SK1
  100
AcDbLine
  10
35.1246
  20
0
  30
0
  11
35.4
  21
-0.275383
  31
0
  0
LINE
  5
8d
  100
AcDbEntity
  8
SK1
  100
AcDbLine
  10
34.8771
  20
0
  30
0
  11
35.4
  21
-0.522871
  31
0
  0
LINE
  5
8e
  100
AcDbEntity
  8
SK1
  100
AcDbLine
  10
34.6296
  20
0
  30
0
  11
35.4
  21
-0.770358
  31
0
  0
LINE
  5
8f
  100
AcDbEntity
  8
SK1
  100
AcDbLine
  10
34.3822
  20
0
  30
0
  11
35.4
  21
-1.01785
  31
0
  0
LINE
  5
90
  100
AcDbEntity
  8
SK1
  100
AcDbLine
  10
34.1347
  20
0
  30
0
  11
35.4
  21
-1.26533
  31
0
  0
LINE
  5
91
  100
AcDbEntity
  8
SK1
  100
AcDbLine
  10
33.8872
  20
0
  30
0
  11
35.4
  21
-1.51282
  31
0
  0
LINE
  5
92
  100
AcDbEntity
  8
SK1
  100
AcDbLine
  10
33.6503
  20
-0.010642
  30
0
  11
35.3894
  21
-1.74967
  31
0
  0
LINE
  5
93
  100
AcDbEntity
  8
SK1
  100
AcDbLine
  10
33.6736
  20
-0.281429
  30
0
  11
35.1186
  21
-1.72637
  31
0
  0
LINE
  5
94
  100
AcDbEntity
  8
SK1
  100
AcDbLine
  10
33.7639
  20
-0.619147
  30
0
  11
34.7809
  21
-1.63613
  31
0
  0
LINE
  5
95
  100
AcDbEntity
  8
SK1
  100
AcDbLine
  10
33.6514
  20
-0.044098
  30
0
  11
33.6955
  21
0
  31
0
  0
LINE
  5
96
  100
AcDbEntity
  8
SK1
  100
AcDbLine
  10
33.672
  20
-0.270991
  30
0
  11
33.943
  21
0
  31
0
  0
LINE
  5
97
  100
AcDbEntity
  8
SK1
  100
AcDbLine
  10
33.7163
  20
-0.474162
  30
0
  11
34.1905
  21
0
  31
0
  0
LINE
  5
98
  100
AcDbEntity
  8
SK1
  100
AcDbLine
  10
33.7792
  20
-0.658762
  30
0
  11
34.4379
  21
0
  31
0
  0
LINE
  5
99
  100
AcDbEntity
  8
SK1
  100
AcDbLine
  10
33.8583
  20
-0.827105
  30
0
  11
34.6854
  21
0
  31
0
  0
LINE
  5
9a
  100
AcDbEntity
  8
SK1
  100
AcDbLine
  10
33.9519
  20
-0.981039
  30
0
  11
34.9329
  21
0
  31
0
  0
LINE
  5
9b
  100
AcDbEntity
  8
SK1
  100
AcDbLine
  10
34.0578
  20
-1.12257
  30
0
  11
35.1804
  21
0
  31
0
  0
LINE
  5
9c
  100
AcDbEntity
  8
SK1
  100
AcDbLine
  10
34.1771
  20
-1.25077
  30
0
  11
35.4
  21
-0.027896
  31
0
  0
LINE
  5
9d
  100
AcDbEntity
  8
SK1
  100
AcDbLine
  10
34.3084
  20
-1.36695
  30
0
  11
35.4
  21
-0.275383
  31
0
  0
LINE
  5
9e
  100
AcDbEntity
  8
SK1
  100
AcDbLine
  10
34.4522
  20
-1.47069
  30
0
  11
35.4
  21
-0.522871
  31
0
  0
LINE
  5
9f
  100
AcDbEntity
  8
SK1
  100
AcDbLine
  10
34.6099
  20
-1.5605
  30
0
  11
35.4
  21
-0.770358
  31
0
  0
LINE
  5
a0
  100
AcDbEntity
  8
SK1
  100
AcDbLine
  10
34.7815
  20
-1.63636
  30
0
  11
35.4
  21
-1.01785
  31
0
  0
LINE
  5
a1
  100
AcDbEntity
  8
SK1
  100
AcDbLine
  10
34.9693
  20
-1.69603
  30
0
  11
35.4
  21
-1.26533
  31
0
  0
LINE
  5
a2
  100
AcDbEntity
  8
SK1
  100
AcDbLine
  10
35.1772
  20
-1.73565
  30
0
  11
35.4
  21
-1.51282
  31
0
  0
LINE
  5
a3
  100
AcDbEntity
  8
SK1
  100
AcDbLine
  10
35.4
  20
0
  30
0
  11
33.65
  21
0
  31
0
  0
LINE
  5
a4
  100
AcDbEntity
  8
SK1
  100
AcDbLine
  10
35.4
  20
-1.75
  30
0
  11
35.4
  21
0
  31
0
  0
ARC
  5
a5
  100
AcDbEntity
  8
SK1
  100
AcDbCircle
  10
35.4
  20
0
  30
0
  40
1.75
  100
AcDbArc
  50
180
  51
270
  0
ARC
  5
a6
  100
AcDbEntity
  8
SK1
  100
AcDbCircle
  10
35.4
  20
0
  30
0
  40
1.75
  100
AcDbArc
  50
270
  51
0
  0
LINE
  5
121
  100
AcDbEntity
  8
NOCUT
  100
AcDbLine
  10
49.35
  20
0
  30
0
  11
49.35
  21
0.375
  31
0
  0
LINE
  5
122
  100
AcDbEntity
  8
NOCUT
  100
AcDbLine
  10
49.35
  20
0.375
  30
0
  11
42.25
  21
0.375
  31
0
  0
ARC
  5
123
  100
AcDbEntity
  8
NOCUT
  100
AcDbCircle
  10
43.121557
  20
10.336947
  30
0
  40
10
  100
AcDbArc
  50
255
  51
265
  0
LINE
  5
124
  100
AcDbEntity
  8
NOCUT
  100
AcDbLine
  10
40.533367
  20
0.677689
  30
0
  11
35.598434
  21
2
  31
0
  0
LINE
  5
125
  100
AcDbEntity
  8
NOCUT
  100
AcDbLine
  10
35.598434
  20
2
  30
0
  11
35.4
  21
2
  31
0
  0
LINE
  5
126
  100
AcDbEntity
  8
NOCUT
  100
AcDbLine
  10
35.4
  20
2
  30
0
  11
35.4
  21
0
  31
0
  0
LINE
  5
127
  100
AcDbEntity
  8
NOCUT
  100
AcDbLine
  10
35.4
  20
0
  30
0
  11
49.35
  21
0
  31
0
  0
LINE
  5
128
  100
AcDbEntity
  8
CUT
  100
AcDbLine
  10
50
  20
0
  30
0
  11
50
  21
0.2
  31
0
  0
ARC
  5
129
  100
AcDbEntity
  8
CUT
  100
AcDbCircle
  10
49.8
  20
0.2
  30
0
  40
0.2
  100
AcDbArc
  50
0
  51
90
  0
LINE
  5
12a
  100
AcDbEntity
  8
CUT
  100
AcDbLine
  10
49.8
  20
0.4
  30
0
  11
49.35
  21
0.4
  31
0
  0
LINE
  5
12b
  100
AcDbEntity
  8
CUT
  100
AcDbLine
  10
49.35
  20
0.4
  30
0
  11
49.35
  21
0
  31
0
  0
LINE
  5
12c
  100
AcDbEntity
  8
CUT
  100
AcDbLine
  10
49.35
  20
0
  30
0
  11
50
  21
0
  31
0
  0
LINE
  5
12d
  100
AcDbEntity
  8
4
  100
AcDbLine
  10
35.4
  20
0
  30
0
  11
50
  21
0
  31
0
  0
LINE
  5
12e
  100
AcDbEntity
  8
SK4
  100
AcDbLine
  10
-1
  20
0
  30
0
  11
51
  21
0
  31
0
  0
LINE
  5
12f
  100
AcDbEntity
  8
INFTOTAL
  100
AcDbLine
  10
-15.7
  20
17.7
  30
0
  11
65.7
  21
17.7
  31
0
  0
LINE
  5
130
  100
AcDbEntity
  8
INFTOTAL
  100
AcDbLine
  10
65.7
  20
17.7
  30
0
  11
65.7
  21
-14.036947
  31
0
  0
LINE
  5
131
  100
AcDbEntity
  8
INFTOTAL
  100
AcDbLine
  10
65.7
  20
-14.036947
  30
0
  11
-15.7
  21
-14.036947
  31
0
  0
LINE
  5
132
  100
AcDbEntity
  8
INFTOTAL
  100
AcDbLine
  10
-15.7
  20
-14.036947
  30
0
  11
-15.7
  21
17.7
  31
0
  0
ENDSEC
  0
SECTION
  2
OBJECTS
  0
DICTIONARY
  5
133
  330
0
100
AcDbDictionary
281
    1
  3
ACAD_GROUP
  350
134
  0
DICTIONARY
  5
134
102
{ACAD_REACTORS
  330
133
102
}
  330
133
100
AcDbDictionary
281
    1
  0
ENDSEC
  0
EOF
