  0
SECTION
  2
HEADER
  9
$ACADVER
  1
AC1021
  9
$DWGCODEPAGE
  3
ANSI_932
  9
$HANDSEED
  5
106AB90
  0
ENDSEC
  0
SECTION
  2
CLASSES
  0
CLASS
  1
IMAGEDEF
  2
AcDbRasterImageDef
  3
ISM
  90
0
  91
4
  280
0
  281
0
  0
CLASS
  1
IMAGE
  2
AcDbRasterImage
  3
ISM
  90
127
  91
5
  280
0
  281
1
  0
CLASS
  1
IMAGEDEF_REACTOR
  2
AcDbRasterImageDefReactor
  3
ISM
  90
1
  91
4
  280
0
  281
0
  0
ENDSEC
  0
SECTION
  2
TABLES
  0
TABLE
  2
VPORT
  5
2
  330
0
  100
AcDbSymbolTable
  70
    0
  0
ENDTAB
  0
TABLE
  2
LTYPE
  5
3
  330
0
  100
AcDbSymbolTable
  70
    4
  0
LTYPE
  5
4
  330
3
  100
AcDbSymbolTableRecord
  100
AcDbLinetypeTableRecord
  2
ByBlock
  70
    0
  3

  72
65
  73
    0
  40
0
  0
LTYPE
  5
5
  330
3
  100
AcDbSymbolTableRecord
  100
AcDbLinetypeTableRecord
  2
ByLayer
  70
    0
  3

  72
65
  73
    0
  40
0
  0
LTYPE
  5
6
  330
3
  100
AcDbSymbolTableRecord
  100
AcDbLinetypeTableRecord
  2
CONTINUOUS
  70
    0
  3
Solid Line
  72
65
  73
    0
  40
0
  0
LTYPE
  5
7
  330
3
  100
AcDbSymbolTableRecord
  100
AcDbLinetypeTableRecord
  2
DASH
  70
    0
  3
Hidden
  72
65
  73
2
  40
2.5
  49
1.5
  74
0
  49
-1
  74
0
  0
LTYPE
  5
8
  330
3
  100
AcDbSymbolTableRecord
  100
AcDbLinetypeTableRecord
  2
LONGDASHDASH
  70
    0
  3
__ . __
  72
65
  73
    4
  40
7
  49
4
  74
    0
  49
-1
  74
    0
  49
1
  74
    0
  49
-1
  74
    0
  0
ENDTAB
  0
TABLE
  2
LAYER
  5
9
  330
0
  100
AcDbSymbolTable
  70
    40
  0
LAYER
  5
a
  330
9
  100
AcDbSymbolTableRecord
  100
AcDbLayerTableRecord
  2
0
  70
    0
  62
    0
  6
CONTINUOUS
  390
0
  0
LAYER
  5
c
  330
9
  100
AcDbSymbolTableRecord
  100
AcDbLayerTableRecord
  2
1
  70
    0
  62
    4
  6
CONTINUOUS
  370
50
  390
0
  0
LAYER
  5
d
  330
9
  100
AcDbSymbolTableRecord
  100
AcDbLayerTableRecord
  2
2
  70
    0
  62
    7
  6
CONTINUOUS
  370
25
  390
0
  0
LAYER
  5
f
  330
9
  100
AcDbSymbolTableRecord
  100
AcDbLayerTableRecord
  2
4
  70
    0
  62
    2
  6
LONGDASHDASH
  370
25
  390
0
  0
LAYER
  5
13
  330
9
  100
AcDbSymbolTableRecord
  100
AcDbLayerTableRecord
  2
SK1
  70
    0
  62
    4
  6
CONTINUOUS
  370
50
  390
0
  0
LAYER
  5
14
  330
9
  100
AcDbSymbolTableRecord
  100
AcDbLayerTableRecord
  2
SK2
  70
    0
  62
    7
  6
CONTINUOUS
  370
25
  390
0
  0
LAYER
  5
16
  330
9
  100
AcDbSymbolTableRecord
  100
AcDbLayerTableRecord
  2
SK4
  70
    0
  62
    2
  6
LONGDASHDASH
  370
25
  390
0
  0
LAYER
  5
21
  330
9
  100
AcDbSymbolTableRecord
  100
AcDbLayerTableRecord
  2
NOCUT
  70
    0
  62
    7
  6
CONTINUOUS
  370
25
  390
0
  0
LAYER
  5
22
  330
9
  100
AcDbSymbolTableRecord
  100
AcDbLayerTableRecord
  2
CUT
  70
    0
  62
    1
  6
CONTINUOUS
  370
25
  390
0
  0
LAYER
  5
26
  330
9
  100
AcDbSymbolTableRecord
  100
AcDbLayerTableRecord
  2
INFTOTAL
  70
    0
  62
    9
  6
CONTINUOUS
  370
18
  390
0
  0
ENDTAB
  0
TABLE
  2
STYLE
  5
27
  330
0
  100
AcDbSymbolTable
  70
    1
  0
STYLE
  5
28
  330
27
  100
AcDbSymbolTableRecord
  100
AcDbTextStyleTableRecord
  2
Monospac821 BT
  70
    0
  40
    3.5
  41
1
  50
0
  71
0
  42
3
  3

  4

  1001
ACAD
  1000
Monospac821 BT
  1071
256
  0
ENDTAB
  0
TABLE
  2
VIEW
  5
29
  330
0
  100
AcDbSymbolTable
  70
    0
  0
ENDTAB
  0
TABLE
  2
UCS
  5
2a
  330
0
  100
AcDbSymbolTable
  70
    0
  0
ENDTAB
  0
TABLE
  2
APPID
  5
2b
  330
0
  100
AcDbSymbolTable
  70
    1
  0
APPID
  5
2c
  330
2b
  100
AcDbSymbolTableRecord
  100
AcDbRegAppTableRecord
  2
ACAD
  70
    0
  0
ENDTAB
  0
TABLE
  2
DIMSTYLE
  5
2d
  330
0
  100
AcDbSymbolTable
  70
    1
  100
AcDbDimStyleTable
  0
DIMSTYLE
  105
2e
  330
2d
  100
AcDbSymbolTableRecord
  100
AcDbDimStyleTableRecord
  2
STANDARD
  70
    0
  41
    3
  42
0.5
  44
1
  73
0
  77
1
  78
1
  140
3.5
  141
2.5
  143
0.03937007874
  147
0.8
  172
1
  174
1
  178
0
  179
1
  271
2
  279
1
  284
1
  340
28
  0
ENDTAB
  0
TABLE
  2
BLOCK_RECORD
  5
2f
  330
0
  100
AcDbSymbolTable
  70
    2
  0
BLOCK_RECORD
  5
30
  330
2f
  100
AcDbSymbolTableRecord
  100
AcDbBlockTableRecord
  2
*Model_Space
  0
BLOCK_RECORD
  5
31
  330
2f
  100
AcDbSymbolTableRecord
  100
AcDbBlockTableRecord
  2
*Paper_Space
  0
BLOCK_RECORD
  5
379
  330
2f
  100
AcDbSymbolTableRecord
  100
AcDbBlockTableRecord
  2
*D378
  340
0
  0
BLOCK_RECORD
  5
387
  330
2f
  100
AcDbSymbolTableRecord
  100
AcDbBlockTableRecord
  2
*D386
  340
0
  0
BLOCK_RECORD
  5
397
  330
2f
  100
AcDbSymbolTableRecord
  100
AcDbBlockTableRecord
  2
*D396
  340
0
  0
BLOCK_RECORD
  5
3a5
  330
2f
  100
AcDbSymbolTableRecord
  100
AcDbBlockTableRecord
  2
*D3a4
  340
0
  0
BLOCK_RECORD
  5
3b3
  330
2f
  100
AcDbSymbolTableRecord
  100
AcDbBlockTableRecord
  2
*D3b2
  340
0
  0
BLOCK_RECORD
  5
3bd
  330
2f
  100
AcDbSymbolTableRecord
  100
AcDbBlockTableRecord
  2
*D3bc
  340
0
  0
BLOCK_RECORD
  5
3cb
  330
2f
  100
AcDbSymbolTableRecord
  100
AcDbBlockTableRecord
  2
*D3ca
  340
0
  0
BLOCK_RECORD
  5
3d9
  330
2f
  100
AcDbSymbolTableRecord
  100
AcDbBlockTableRecord
  2
*D3d8
  340
0
  0
BLOCK_RECORD
  5
3e7
  330
2f
  100
AcDbSymbolTableRecord
  100
AcDbBlockTableRecord
  2
*D3e6
  340
0
  0
BLOCK_RECORD
  5
3f5
  330
2f
  100
AcDbSymbolTableRecord
  100
AcDbBlockTableRecord
  2
*D3f4
  340
0
  0
BLOCK_RECORD
  5
403
  330
2f
  100
AcDbSymbolTableRecord
  100
AcDbBlockTableRecord
  2
*D402
  340
0
  0
BLOCK_RECORD
  5
411
  330
2f
  100
AcDbSymbolTableRecord
  100
AcDbBlockTableRecord
  2
*D410
  340
0
  0
ENDTAB
  0
ENDSEC
  0
SECTION
  2
BLOCKS
  0
BLOCK
  5
32
  330
30
  100
AcDbEntity
  8
0
  100
AcDbBlockBegin
  2
*Model_Space
  70
    0
  10
0
  20
0
  30
0
  3
*Model_Space
  1

  0
ENDBLK
  5
33
  330
30
  100
AcDbEntity
  8
0
  100
AcDbBlockEnd
  0
BLOCK
  5
34
  330
31
  100
AcDbEntity
  8
0
  100
AcDbBlockBegin
  2
*Paper_Space
  70
    0
  10
0
  20
0
  30
0
  3
*Paper_Space
  1

  0
ENDBLK
  5
35
  330
31
  100
AcDbEntity
  8
0
  100
AcDbBlockEnd
  0
BLOCK
  5
377
  330
379
  100
AcDbEntity
  8
SK2
  100
AcDbBlockBegin
  2
*D378
  70
1
  10
0
  20
0
  30
0
  3
*D378
  1

  0
LINE
  5
37a
  330
379
  100
AcDbEntity
  8
SK2
  100
AcDbLine
  10
0
  20
-40
  30
0
  11
0
  21
-7
  31
0
  0
LINE
  5
37b
  330
379
  100
AcDbEntity
  8
SK2
  100
AcDbLine
  10
160
  20
-40
  30
0
  11
160
  21
0
  31
0
  0
LINE
  5
37c
  330
379
  100
AcDbEntity
  8
SK2
  100
AcDbLine
  10
0
  20
-38
  30
0
  11
160
  21
-38
  31
0
  0
SOLID
  5
37d
  330
379
  100
AcDbEntity
  8
SK2
  100
AcDbTrace
  10
0
  20
-38
  30
0
  11
2.478612153435
  21
-37.67368451945
  31
0
  12
2.478612153435
  22
-38.32631548055
  32
0
  13
2.478612153435
  23
-38.32631548055
  33
0
  0
SOLID
  5
37e
  330
379
  100
AcDbEntity
  8
SK2
  100
AcDbTrace
  10
160
  20
-38
  30
0
  11
157.521387846565
  21
-38.32631548055
  31
0
  12
157.521387846565
  22
-37.67368451945
  32
0
  13
157.521387846565
  23
-37.67368451945
  33
0
  0
MTEXT
  5
37f
  330
379
  100
AcDbEntity
  8
SK2
  100
AcDbMText
  10
80
  20
-38
  30
0
  11
1
  21
0
  31
0
  40
3.5
  41
0
  71
8
  72
1
  1
160
  0
POINT
  5
380
  330
379
  100
AcDbEntity
  8
SK2
  62
0
  100
AcDbPoint
  10
0
  20
-7
  30
0
  0
POINT
  5
381
  330
379
  100
AcDbEntity
  8
SK2
  62
0
  100
AcDbPoint
  10
160
  20
0
  30
0
  0
POINT
  5
382
  330
379
  100
AcDbEntity
  8
SK2
  62
0
  100
AcDbPoint
  10
160
  20
-38
  30
0
  0
ENDBLK
  5
383
  330
379
  100
AcDbEntity
  8
SK2
  100
AcDbBlockEnd
  0
BLOCK
  5
385
  330
387
  100
AcDbEntity
  8
SK2
  100
AcDbBlockBegin
  2
*D386
  70
1
  10
0
  20
0
  30
0
  3
*D386
  1

  0
LINE
  5
388
  330
387
  100
AcDbEntity
  8
SK2
  100
AcDbLine
  10
70.033362905146
  20
10.07055236082
  30
0
  11
77.760769515459
  21
8
  31
0
  0
LINE
  5
389
  330
387
  100
AcDbEntity
  8
SK2
  100
AcDbLine
  10
76.960769515459
  20
8
  30
0
  11
69.760769515459
  21
8
  31
0
  0
ARC
  5
38a
  330
387
  100
AcDbEntity
  8
SK2
  100
AcDbCircle
  10
77.760769515459
  20
8
  30
0
  40
6
  100
AcDbArc
  50
102.56250231906
  51
180
  0
SOLID
  5
38b
  330
387
  100
AcDbEntity
  8
SK2
  100
AcDbTrace
  10
71.965214557724
  20
9.552914270615
  30
0
  11
71.638899077174
  21
7.074302117181
  31
0
  12
71.008505976812
  22
7.243215439337
  32
0
  13
71.008505976812
  23
7.243215439337
  33
0
  0
SOLID
  5
38c
  330
387
  100
AcDbEntity
  8
SK2
  100
AcDbTrace
  10
71.760769515459
  20
8
  30
0
  11
71.434454034909
  21
10.478612153435
  31
0
  12
72.087084996009
  22
10.478612153435
  32
0
  13
72.087084996009
  23
10.478612153435
  33
0
  0
MTEXT
  5
38d
  330
387
  100
AcDbEntity
  8
SK2
  100
AcDbMText
  10
71.965214557724
  20
9.552914270615
  30
0
  11
0.258819045103
  21
0.965925826289
  31
0
  40
3.5
  41
0
  71
8
  72
1
  1
15°
  0
POINT
  5
38e
  330
387
  100
AcDbEntity
  8
SK2
  62
0
  100
AcDbPoint
  10
71.861240070075
  20
9.093413152953
  30
0
  0
POINT
  5
38f
  330
387
  100
AcDbEntity
  8
SK2
  62
0
  100
AcDbPoint
  10
77.760769515459
  20
8
  30
0
  0
POINT
  5
390
  330
387
  100
AcDbEntity
  8
SK2
  62
0
  100
AcDbPoint
  10
70.033362905146
  20
10.07055236082
  30
0
  0
POINT
  5
391
  330
387
  100
AcDbEntity
  8
SK2
  62
0
  100
AcDbPoint
  10
77.760769515459
  20
8
  30
0
  0
POINT
  5
392
  330
387
  100
AcDbEntity
  8
SK2
  62
0
  100
AcDbPoint
  10
76.960769515459
  20
8
  30
0
  0
ENDBLK
  5
393
  330
387
  100
AcDbEntity
  8
SK2
  100
AcDbBlockEnd
  0
BLOCK
  5
395
  330
397
  100
AcDbEntity
  8
SK2
  100
AcDbBlockBegin
  2
*D396
  70
1
  10
0
  20
0
  30
0
  3
*D396
  1

  0
LINE
  5
398
  330
397
  100
AcDbEntity
  8
SK2
  100
AcDbLine
  10
1
  20
-8
  30
0
  11
-14
  21
-8
  31
0
  0
LINE
  5
399
  330
397
  100
AcDbEntity
  8
SK2
  100
AcDbLine
  10
1
  20
8
  30
0
  11
-14
  21
8
  31
0
  0
LINE
  5
39a
  330
397
  100
AcDbEntity
  8
SK2
  100
AcDbLine
  10
-12
  20
-8
  30
0
  11
-12
  21
27.029702970297
  31
0
  0
SOLID
  5
39b
  330
397
  100
AcDbEntity
  8
SK2
  100
AcDbTrace
  10
-12
  20
-8
  30
0
  11
-12.32631548055
  21
-5.521387846565
  31
0
  12
-11.67368451945
  22
-5.521387846565
  32
0
  13
-11.67368451945
  23
-5.521387846565
  33
0
  0
SOLID
  5
39c
  330
397
  100
AcDbEntity
  8
SK2
  100
AcDbTrace
  10
-12
  20
8
  30
0
  11
-11.67368451945
  21
5.521387846565
  31
0
  12
-12.32631548055
  22
5.521387846565
  32
0
  13
-12.32631548055
  23
5.521387846565
  33
0
  0
MTEXT
  5
39d
  330
397
  100
AcDbEntity
  8
SK2
  100
AcDbMText
  10
-12
  20
8
  30
0
  11
0
  21
1
  31
0
  40
3.5
  41
0
  71
8
  72
1
  1
Ø16{\S  0^  -0.011;}
  0
POINT
  5
39e
  330
397
  100
AcDbEntity
  8
SK2
  62
0
  100
AcDbPoint
  10
1
  20
-8
  30
0
  0
POINT
  5
39f
  330
397
  100
AcDbEntity
  8
SK2
  62
0
  100
AcDbPoint
  10
1
  20
8
  30
0
  0
POINT
  5
3a0
  330
397
  100
AcDbEntity
  8
SK2
  62
0
  100
AcDbPoint
  10
-12
  20
27.029702970297
  30
0
  0
ENDBLK
  5
3a1
  330
397
  100
AcDbEntity
  8
SK2
  100
AcDbBlockEnd
  0
BLOCK
  5
3a3
  330
3a5
  100
AcDbEntity
  8
SK2
  100
AcDbBlockBegin
  2
*D3a4
  70
1
  10
0
  20
0
  30
0
  3
*D3a4
  1

  0
LINE
  5
3a6
  330
3a5
  100
AcDbEntity
  8
SK2
  100
AcDbLine
  10
77.760769515459
  20
8
  30
0
  11
77.760769515459
  21
-28
  31
0
  0
LINE
  5
3a7
  330
3a5
  100
AcDbEntity
  8
SK2
  100
AcDbLine
  10
0
  20
7
  30
0
  11
0
  21
-28
  31
0
  0
LINE
  5
3a8
  330
3a5
  100
AcDbEntity
  8
SK2
  100
AcDbLine
  10
77.760769515459
  20
-26
  30
0
  11
0
  21
-26
  31
0
  0
SOLID
  5
3a9
  330
3a5
  100
AcDbEntity
  8
SK2
  100
AcDbTrace
  10
77.760769515459
  20
-26
  30
0
  11
80.239381668893
  21
-25.67368451945
  31
0
  12
80.239381668893
  22
-26.32631548055
  32
0
  13
80.239381668893
  23
-26.32631548055
  33
0
  0
SOLID
  5
3aa
  330
3a5
  100
AcDbEntity
  8
SK2
  100
AcDbTrace
  10
0
  20
-26
  30
0
  11
-2.478612153435
  21
-26.32631548055
  31
0
  12
-2.478612153435
  22
-25.67368451945
  32
0
  13
-2.478612153435
  23
-25.67368451945
  33
0
  0
MTEXT
  5
3ab
  330
3a5
  100
AcDbEntity
  8
SK2
  100
AcDbMText
  10
38.880384757729
  20
-26
  30
0
  11
1
  21
-0
  31
0
  40
3.5
  41
0
  71
8
  72
1
  1
77.8
  0
POINT
  5
3ac
  330
3a5
  100
AcDbEntity
  8
SK2
  62
0
  100
AcDbPoint
  10
77.760769515459
  20
8
  30
0
  0
POINT
  5
3ad
  330
3a5
  100
AcDbEntity
  8
SK2
  62
0
  100
AcDbPoint
  10
0
  20
7
  30
0
  0
POINT
  5
3ae
  330
3a5
  100
AcDbEntity
  8
SK2
  62
0
  100
AcDbPoint
  10
0
  20
-26
  30
0
  0
ENDBLK
  5
3af
  330
3a5
  100
AcDbEntity
  8
SK2
  100
AcDbBlockEnd
  0
BLOCK
  5
3b1
  330
3b3
  100
AcDbEntity
  8
2
  100
AcDbBlockBegin
  2
*D3b2
  70
1
  10
0
  20
0
  30
0
  3
*D3b2
  1

  0
LINE
  5
3b4
  330
3b3
  100
AcDbEntity
  8
2
  100
AcDbLine
  10
158.242640687119
  20
4.242640687119
  30
0
  11
172.635143564356
  21
18.635143564357
  31
0
  0
MTEXT
  5
3b5
  330
3b3
  100
AcDbEntity
  8
2
  100
AcDbMText
  10
160.363961030679
  20
6.363961030679
  30
0
  11
0.707106781187
  21
0.707106781187
  31
0
  40
3.5
  41
0
  71
8
  72
1
  1
R6±0.005
  0
SOLID
  5
3b6
  330
3b3
  100
AcDbEntity
  8
2
  100
AcDbTrace
  10
158.242640687119
  20
4.242640687119
  30
0
  11
159.764544259641
  21
6.226024037847
  31
0
  12
160.226024037847
  22
5.764544259641
  32
0
  13
160.226024037847
  23
5.764544259641
  33
0
  0
POINT
  5
3b7
  330
3b3
  100
AcDbEntity
  8
2
  62
0
  100
AcDbPoint
  10
158.242640687119
  20
4.242640687119
  30
0
  0
POINT
  5
3b8
  330
3b3
  100
AcDbEntity
  8
2
  62
0
  100
AcDbPoint
  10
154
  20
0
  30
0
  0
ENDBLK
  5
3b9
  330
3b3
  100
AcDbEntity
  8
2
  100
AcDbBlockEnd
  0
BLOCK
  5
3bb
  330
3bd
  100
AcDbEntity
  8
2
  100
AcDbBlockBegin
  2
*D3bc
  70
1
  10
0
  20
0
  30
0
  3
*D3bc
  1

  0
LINE
  5
3be
  330
3bd
  100
AcDbEntity
  8
2
  100
AcDbLine
  10
154
  20
6
  30
0
  11
192
  21
6
  31
0
  0
LINE
  5
3bf
  330
3bd
  100
AcDbEntity
  8
2
  100
AcDbLine
  10
154
  20
-6
  30
0
  11
192
  21
-6
  31
0
  0
LINE
  5
3c0
  330
3bd
  100
AcDbEntity
  8
2
  100
AcDbLine
  10
190
  20
6
  30
0
  11
190
  21
-6
  31
0
  0
SOLID
  5
3c1
  330
3bd
  100
AcDbEntity
  8
2
  100
AcDbTrace
  10
190
  20
6
  30
0
  11
189.67368451945
  21
8.478612153435
  31
0
  12
190.32631548055
  22
8.478612153435
  32
0
  13
190.32631548055
  23
8.478612153435
  33
0
  0
SOLID
  5
3c2
  330
3bd
  100
AcDbEntity
  8
2
  100
AcDbTrace
  10
190
  20
-6
  30
0
  11
190.32631548055
  21
-8.478612153435
  31
0
  12
189.67368451945
  22
-8.478612153435
  32
0
  13
189.67368451945
  23
-8.478612153435
  33
0
  0
MTEXT
  5
3c3
  330
3bd
  100
AcDbEntity
  8
2
  100
AcDbMText
  10
190
  20
0
  30
0
  11
-0
  21
1
  31
0
  40
3.5
  41
0
  71
8
  72
1
  1
Ø12
  0
POINT
  5
3c4
  330
3bd
  100
AcDbEntity
  8
2
  62
0
  100
AcDbPoint
  10
154
  20
6
  30
0
  0
POINT
  5
3c5
  330
3bd
  100
AcDbEntity
  8
2
  62
0
  100
AcDbPoint
  10
154
  20
-6
  30
0
  0
POINT
  5
3c6
  330
3bd
  100
AcDbEntity
  8
2
  62
0
  100
AcDbPoint
  10
190
  20
-6
  30
0
  0
ENDBLK
  5
3c7
  330
3bd
  100
AcDbEntity
  8
2
  100
AcDbBlockEnd
  0
BLOCK
  5
3c9
  330
3cb
  100
AcDbEntity
  8
2
  100
AcDbBlockBegin
  2
*D3ca
  70
1
  10
0
  20
0
  30
0
  3
*D3ca
  1

  0
LINE
  5
3cc
  330
3cb
  100
AcDbEntity
  8
2
  100
AcDbLine
  10
160
  20
-40
  30
0
  11
160
  21
0
  31
0
  0
LINE
  5
3cd
  330
3cb
  100
AcDbEntity
  8
2
  100
AcDbLine
  10
148
  20
-22
  30
0
  11
148
  21
-5.95
  31
0
  0
LINE
  5
3ce
  330
3cb
  100
AcDbEntity
  8
2
  100
AcDbLine
  10
160
  20
-20
  30
0
  11
148
  21
-20
  31
0
  0
SOLID
  5
3cf
  330
3cb
  100
AcDbEntity
  8
2
  100
AcDbTrace
  10
160
  20
-20
  30
0
  11
162.478612153435
  21
-19.67368451945
  31
0
  12
162.478612153435
  22
-20.32631548055
  32
0
  13
162.478612153435
  23
-20.32631548055
  33
0
  0
SOLID
  5
3d0
  330
3cb
  100
AcDbEntity
  8
2
  100
AcDbTrace
  10
148
  20
-20
  30
0
  11
145.521387846565
  21
-20.32631548055
  31
0
  12
145.521387846565
  22
-19.67368451945
  32
0
  13
145.521387846565
  23
-19.67368451945
  33
0
  0
MTEXT
  5
3d1
  330
3cb
  100
AcDbEntity
  8
2
  100
AcDbMText
  10
154
  20
-20
  30
0
  11
1
  21
-0
  31
0
  40
3.5
  41
0
  71
8
  72
1
  1
12
  0
POINT
  5
3d2
  330
3cb
  100
AcDbEntity
  8
2
  62
0
  100
AcDbPoint
  10
160
  20
0
  30
0
  0
POINT
  5
3d3
  330
3cb
  100
AcDbEntity
  8
2
  62
0
  100
AcDbPoint
  10
148
  20
-5.95
  30
0
  0
POINT
  5
3d4
  330
3cb
  100
AcDbEntity
  8
2
  62
0
  100
AcDbPoint
  10
148
  20
-20
  30
0
  0
ENDBLK
  5
3d5
  330
3cb
  100
AcDbEntity
  8
2
  100
AcDbBlockEnd
  0
BLOCK
  5
3d7
  330
3d9
  100
AcDbEntity
  8
2
  100
AcDbBlockBegin
  2
*D3d8
  70
1
  10
0
  20
0
  30
0
  3
*D3d8
  1

  0
LINE
  5
3da
  330
3d9
  100
AcDbEntity
  8
2
  100
AcDbLine
  10
141.5
  20
-5.95
  30
0
  11
139.5
  21
-5.95
  31
0
  0
LINE
  5
3db
  330
3d9
  100
AcDbEntity
  8
2
  100
AcDbLine
  10
141.5
  20
5.95
  30
0
  11
139.5
  21
5.95
  31
0
  0
LINE
  5
3dc
  330
3d9
  100
AcDbEntity
  8
2
  100
AcDbLine
  10
141.5
  20
-5.95
  30
0
  11
141.5
  21
20.940594059406
  31
0
  0
SOLID
  5
3dd
  330
3d9
  100
AcDbEntity
  8
2
  100
AcDbTrace
  10
141.5
  20
-5.95
  30
0
  11
141.17368451945
  21
-3.471387846565
  31
0
  12
141.82631548055
  22
-3.471387846565
  32
0
  13
141.82631548055
  23
-3.471387846565
  33
0
  0
SOLID
  5
3de
  330
3d9
  100
AcDbEntity
  8
2
  100
AcDbTrace
  10
141.5
  20
5.95
  30
0
  11
141.82631548055
  21
3.471387846565
  31
0
  12
141.17368451945
  22
3.471387846565
  32
0
  13
141.17368451945
  23
3.471387846565
  33
0
  0
MTEXT
  5
3df
  330
3d9
  100
AcDbEntity
  8
2
  100
AcDbMText
  10
141.5
  20
6.95
  30
0
  11
0
  21
1
  31
0
  40
3.5
  41
0
  71
8
  72
1
  1
Ø11.9
  0
POINT
  5
3e0
  330
3d9
  100
AcDbEntity
  8
2
  62
0
  100
AcDbPoint
  10
139.5
  20
-5.95
  30
0
  0
POINT
  5
3e1
  330
3d9
  100
AcDbEntity
  8
2
  62
0
  100
AcDbPoint
  10
139.5
  20
5.95
  30
0
  0
POINT
  5
3e2
  330
3d9
  100
AcDbEntity
  8
2
  62
0
  100
AcDbPoint
  10
141.5
  20
20.940594059406
  30
0
  0
ENDBLK
  5
3e3
  330
3d9
  100
AcDbEntity
  8
2
  100
AcDbBlockEnd
  0
BLOCK
  5
3e5
  330
3e7
  100
AcDbEntity
  8
2
  100
AcDbBlockBegin
  2
*D3e6
  70
1
  10
0
  20
0
  30
0
  3
*D3e6
  1

  0
LINE
  5
3e8
  330
3e7
  100
AcDbEntity
  8
2
  100
AcDbLine
  10
160
  20
-5.95
  30
0
  11
160
  21
-28
  31
0
  0
LINE
  5
3e9
  330
3e7
  100
AcDbEntity
  8
2
  100
AcDbLine
  10
135
  20
-5.95
  30
0
  11
135
  21
-28
  31
0
  0
LINE
  5
3ea
  330
3e7
  100
AcDbEntity
  8
2
  100
AcDbLine
  10
160
  20
-26
  30
0
  11
135
  21
-26
  31
0
  0
SOLID
  5
3eb
  330
3e7
  100
AcDbEntity
  8
2
  100
AcDbTrace
  10
160
  20
-26
  30
0
  11
162.478612153435
  21
-25.67368451945
  31
0
  12
162.478612153435
  22
-26.32631548055
  32
0
  13
162.478612153435
  23
-26.32631548055
  33
0
  0
SOLID
  5
3ec
  330
3e7
  100
AcDbEntity
  8
2
  100
AcDbTrace
  10
135
  20
-26
  30
0
  11
132.521387846565
  21
-26.32631548055
  31
0
  12
132.521387846565
  22
-25.67368451945
  32
0
  13
132.521387846565
  23
-25.67368451945
  33
0
  0
MTEXT
  5
3ed
  330
3e7
  100
AcDbEntity
  8
2
  100
AcDbMText
  10
147.5
  20
-26
  30
0
  11
1
  21
-0
  31
0
  40
3.5
  41
0
  71
8
  72
1
  1
25
  0
POINT
  5
3ee
  330
3e7
  100
AcDbEntity
  8
2
  62
0
  100
AcDbPoint
  10
160
  20
-5.95
  30
0
  0
POINT
  5
3ef
  330
3e7
  100
AcDbEntity
  8
2
  62
0
  100
AcDbPoint
  10
135
  20
-5.95
  30
0
  0
POINT
  5
3f0
  330
3e7
  100
AcDbEntity
  8
2
  62
0
  100
AcDbPoint
  10
135
  20
-26
  30
0
  0
ENDBLK
  5
3f1
  330
3e7
  100
AcDbEntity
  8
2
  100
AcDbBlockEnd
  0
BLOCK
  5
3f3
  330
3f5
  100
AcDbEntity
  8
2
  100
AcDbBlockBegin
  2
*D3f4
  70
1
  10
0
  20
0
  30
0
  3
*D3f4
  1

  0
LINE
  5
3f6
  330
3f5
  100
AcDbEntity
  8
2
  100
AcDbLine
  10
160
  20
-7.4
  30
0
  11
160
  21
-34
  31
0
  0
LINE
  5
3f7
  330
3f5
  100
AcDbEntity
  8
2
  100
AcDbLine
  10
80
  20
-7.4
  30
0
  11
80
  21
-34
  31
0
  0
LINE
  5
3f8
  330
3f5
  100
AcDbEntity
  8
2
  100
AcDbLine
  10
160
  20
-32
  30
0
  11
80
  21
-32
  31
0
  0
SOLID
  5
3f9
  330
3f5
  100
AcDbEntity
  8
2
  100
AcDbTrace
  10
160
  20
-32
  30
0
  11
162.478612153435
  21
-31.67368451945
  31
0
  12
162.478612153435
  22
-32.32631548055
  32
0
  13
162.478612153435
  23
-32.32631548055
  33
0
  0
SOLID
  5
3fa
  330
3f5
  100
AcDbEntity
  8
2
  100
AcDbTrace
  10
80
  20
-32
  30
0
  11
77.521387846565
  21
-32.32631548055
  31
0
  12
77.521387846565
  22
-31.67368451945
  32
0
  13
77.521387846565
  23
-31.67368451945
  33
0
  0
MTEXT
  5
3fb
  330
3f5
  100
AcDbEntity
  8
2
  100
AcDbMText
  10
120
  20
-32
  30
0
  11
1
  21
-0
  31
0
  40
3.5
  41
0
  71
8
  72
1
  1
80
  0
POINT
  5
3fc
  330
3f5
  100
AcDbEntity
  8
2
  62
0
  100
AcDbPoint
  10
160
  20
-7.4
  30
0
  0
POINT
  5
3fd
  330
3f5
  100
AcDbEntity
  8
2
  62
0
  100
AcDbPoint
  10
80
  20
-7.4
  30
0
  0
POINT
  5
3fe
  330
3f5
  100
AcDbEntity
  8
2
  62
0
  100
AcDbPoint
  10
80
  20
-32
  30
0
  0
ENDBLK
  5
3ff
  330
3f5
  100
AcDbEntity
  8
2
  100
AcDbBlockEnd
  0
BLOCK
  5
401
  330
403
  100
AcDbEntity
  8
2
  100
AcDbBlockBegin
  2
*D402
  70
1
  10
0
  20
0
  30
0
  3
*D402
  1

  0
LINE
  5
404
  330
403
  100
AcDbEntity
  8
2
  100
AcDbLine
  10
80
  20
-7.4
  30
0
  11
78
  21
-7.4
  31
0
  0
LINE
  5
405
  330
403
  100
AcDbEntity
  8
2
  100
AcDbLine
  10
80
  20
7.4
  30
0
  11
78
  21
7.4
  31
0
  0
LINE
  5
406
  330
403
  100
AcDbEntity
  8
2
  100
AcDbLine
  10
80
  20
-7.4
  30
0
  11
80
  21
35.49504950495
  31
0
  0
SOLID
  5
407
  330
403
  100
AcDbEntity
  8
2
  100
AcDbTrace
  10
80
  20
-7.4
  30
0
  11
79.67368451945
  21
-4.921387846565
  31
0
  12
80.32631548055
  22
-4.921387846565
  32
0
  13
80.32631548055
  23
-4.921387846565
  33
0
  0
SOLID
  5
408
  330
403
  100
AcDbEntity
  8
2
  100
AcDbTrace
  10
80
  20
7.4
  30
0
  11
80.32631548055
  21
4.921387846565
  31
0
  12
79.67368451945
  22
4.921387846565
  32
0
  13
79.67368451945
  23
4.921387846565
  33
0
  0
MTEXT
  5
409
  330
403
  100
AcDbEntity
  8
2
  100
AcDbMText
  10
80
  20
21.4
  30
0
  11
0
  21
1
  31
0
  40
3.5
  41
0
  71
8
  72
1
  1
Ø14.8
  0
POINT
  5
40a
  330
403
  100
AcDbEntity
  8
2
  62
0
  100
AcDbPoint
  10
78
  20
-7.4
  30
0
  0
POINT
  5
40b
  330
403
  100
AcDbEntity
  8
2
  62
0
  100
AcDbPoint
  10
78
  20
7.4
  30
0
  0
POINT
  5
40c
  330
403
  100
AcDbEntity
  8
2
  62
0
  100
AcDbPoint
  10
80
  20
35.49504950495
  30
0
  0
ENDBLK
  5
40d
  330
403
  100
AcDbEntity
  8
2
  100
AcDbBlockEnd
  0
BLOCK
  5
40f
  330
411
  100
AcDbEntity
  8
2
  100
AcDbBlockBegin
  2
*D410
  70
1
  10
0
  20
0
  30
0
  3
*D410
  1

  0
LINE
  5
412
  330
411
  100
AcDbEntity
  8
2
  100
AcDbLine
  10
125.003473396101
  20
6.213544792285
  30
0
  11
135
  21
5.95
  31
0
  0
LINE
  5
413
  330
411
  100
AcDbEntity
  8
2
  100
AcDbLine
  10
134
  20
5.95
  30
0
  11
125
  21
5.95
  31
0
  0
ARC
  5
414
  330
411
  100
AcDbEntity
  8
2
  100
AcDbCircle
  10
135
  20
5.95
  30
0
  40
8
  100
AcDbArc
  50
120.35534469321
  51
180
  0
SOLID
  5
415
  330
411
  100
AcDbEntity
  8
2
  100
AcDbTrace
  10
127.002778716881
  20
6.160835833828
  30
0
  11
127.263658322626
  21
3.674484726018
  31
0
  12
126.611254046109
  22
3.691684475126
  32
0
  13
126.611254046109
  23
3.691684475126
  33
0
  0
SOLID
  5
416
  330
411
  100
AcDbEntity
  8
2
  100
AcDbTrace
  10
127
  20
5.95
  30
0
  11
126.67368451945
  21
8.428612153435
  31
0
  12
127.32631548055
  22
8.428612153435
  32
0
  13
127.32631548055
  23
8.428612153435
  33
0
  0
MTEXT
  5
417
  330
411
  100
AcDbEntity
  8
2
  100
AcDbMText
  10
127.002778716881
  20
6.160835833828
  30
0
  11
0.026354479228
  21
0.99965266039
  31
0
  40
3.5
  41
0
  71
8
  72
1
  1
1.5°
  0
POINT
  5
418
  330
411
  100
AcDbEntity
  8
2
  62
0
  100
AcDbPoint
  10
127.001361611474
  20
6.097593799307
  30
0
  0
POINT
  5
419
  330
411
  100
AcDbEntity
  8
2
  62
0
  100
AcDbPoint
  10
135
  20
5.95
  30
0
  0
POINT
  5
41a
  330
411
  100
AcDbEntity
  8
2
  62
0
  100
AcDbPoint
  10
125.003473396101
  20
6.213544792285
  30
0
  0
POINT
  5
41b
  330
411
  100
AcDbEntity
  8
2
  62
0
  100
AcDbPoint
  10
135
  20
5.95
  30
0
  0
POINT
  5
41c
  330
411
  100
AcDbEntity
  8
2
  62
0
  100
AcDbPoint
  10
134
  20
5.95
  30
0
  0
ENDBLK
  5
41d
  330
411
  100
AcDbEntity
  8
2
  100
AcDbBlockEnd
  0
ENDSEC
  0
SECTION
  2
ENTITIES
  0
DIMENSION
  5
384
  100
AcDbEntity
  8
SK2
  100
AcDbDimension
  2
*D378
  10
160
  20
-38
  30
0
  11
80
  21
-38
  31
0
  70
160
  1
<>
  71
5
  3
STANDARD
  42
160
  100
AcDbAlignedDimension
  13
0
  23
-7
  33
0
  14
160
  24
0
  34
0
  50
0
  100
AcDbRotatedDimension
  0
DIMENSION
  5
394
  100
AcDbEntity
  8
SK2
  100
AcDbDimension
  2
*D386
  10
76.960769515459
  20
8
  30
0
  11
71.965214557724
  21
9.552914270615
  31
0
  70
162
  1
<>
  71
5
  53
75
  3
STANDARD
  100
AcDb2LineAngularDimension
  13
70.033362905146
  23
10.07055236082
  33
0
  14
77.760769515459
  24
8
  34
0
  15
77.760769515459
  25
8
  35
0
  16
71.861240070075
  26
9.093413152953
  36
0
  0
DIMENSION
  5
3a2
  100
AcDbEntity
  8
SK2
  100
AcDbDimension
  2
*D396
  10
-12
  20
27.029702970297
  30
0
  11
-12
  21
8
  31
0
  70
160
  1
%%c<>{\S  0^  -0.011;}
  71
5
  3
STANDARD
  42
16
  100
AcDbAlignedDimension
  13
1
  23
-8
  33
0
  14
1
  24
8
  34
0
  50
-90
  100
AcDbRotatedDimension
  0
DIMENSION
  5
3b0
  100
AcDbEntity
  8
SK2
  100
AcDbDimension
  2
*D3a4
  10
0
  20
-26
  30
0
  11
38.880384757729
  21
-26
  31
0
  70
160
  1
<>
  71
5
  3
STANDARD
  42
77.760769515459
  100
AcDbAlignedDimension
  13
77.760769515459
  23
8
  33
0
  14
0
  24
7
  34
0
  50
0
  100
AcDbRotatedDimension
  0
DIMENSION
  5
3ba
  100
AcDbEntity
  8
2
  100
AcDbDimension
  2
*D3b2
  10
154
  20
0
  30
0
  11
160.363961030679
  21
6.363961030679
  31
0
  70
164
  1
R6±0.005
  71
5
  3
STANDARD
  100
AcDbRadialDimension
  15
158.242640687119
  25
4.242640687119
  35
0
  50
45
  0
DIMENSION
  5
3c8
  100
AcDbEntity
  8
2
  100
AcDbDimension
  2
*D3bc
  10
190
  20
-6
  30
0
  11
190
  21
0
  31
0
  70
160
  1
%%c<>
  71
5
  3
STANDARD
  42
12
  100
AcDbAlignedDimension
  13
154
  23
6
  33
0
  14
154
  24
-6
  34
0
  50
90
  100
AcDbRotatedDimension
  0
DIMENSION
  5
3d6
  100
AcDbEntity
  8
2
  100
AcDbDimension
  2
*D3ca
  10
148
  20
-20
  30
0
  11
154
  21
-20
  31
0
  70
160
  1
<>
  71
5
  3
STANDARD
  42
12
  100
AcDbAlignedDimension
  13
160
  23
0
  33
0
  14
148
  24
-5.95
  34
0
  50
0
  100
AcDbRotatedDimension
  0
DIMENSION
  5
3e4
  100
AcDbEntity
  8
2
  100
AcDbDimension
  2
*D3d8
  10
141.5
  20
20.940594059406
  30
0
  11
141.5
  21
6.95
  31
0
  70
160
  1
%%c<>
  71
5
  3
STANDARD
  42
11.9
  100
AcDbAlignedDimension
  13
139.5
  23
-5.95
  33
0
  14
139.5
  24
5.95
  34
0
  50
-90
  100
AcDbRotatedDimension
  0
DIMENSION
  5
3f2
  100
AcDbEntity
  8
2
  100
AcDbDimension
  2
*D3e6
  10
135
  20
-26
  30
0
  11
147.5
  21
-26
  31
0
  70
160
  1
<>
  71
5
  3
STANDARD
  42
25
  100
AcDbAlignedDimension
  13
160
  23
-5.95
  33
0
  14
135
  24
-5.95
  34
0
  50
0
  100
AcDbRotatedDimension
  0
DIMENSION
  5
400
  100
AcDbEntity
  8
2
  100
AcDbDimension
  2
*D3f4
  10
80
  20
-32
  30
0
  11
120
  21
-32
  31
0
  70
160
  1
<>
  71
5
  3
STANDARD
  42
80
  100
AcDbAlignedDimension
  13
160
  23
-7.4
  33
0
  14
80
  24
-7.4
  34
0
  50
0
  100
AcDbRotatedDimension
  0
DIMENSION
  5
40e
  100
AcDbEntity
  8
2
  100
AcDbDimension
  2
*D402
  10
80
  20
35.49504950495
  30
0
  11
80
  21
21.4
  31
0
  70
160
  1
%%c<>
  71
5
  3
STANDARD
  42
14.8
  100
AcDbAlignedDimension
  13
78
  23
-7.4
  33
0
  14
78
  24
7.4
  34
0
  50
-90
  100
AcDbRotatedDimension
  0
DIMENSION
  5
41e
  100
AcDbEntity
  8
2
  100
AcDbDimension
  2
*D410
  10
134
  20
5.95
  30
0
  11
127.002778716881
  21
6.160835833828
  31
0
  70
162
  1
<>
  71
5
  53
88.489824716997
  3
STANDARD
  100
AcDb2LineAngularDimension
  13
125.003473396101
  23
6.213544792285
  33
0
  14
135
  24
5.95
  34
0
  15
135
  25
5.95
  35
0
  16
127.001361611474
  26
6.097593799307
  36
0
  0
LINE
  5
36
  100
AcDbEntity
  8
1
  100
AcDbLine
  10
77.761
  20
-7.999938241853
  30
0
  11
80
  21
-7.4
  31
0
  0
LINE
  5
37
  100
AcDbEntity
  8
1
  100
AcDbLine
  10
80
  20
-7.4
  30
0
  11
135
  21
-5.95
  31
0
  0
LINE
  5
38
  100
AcDbEntity
  8
1
  100
AcDbLine
  10
135
  20
-5.95
  30
0
  11
148
  21
-5.95
  31
0
  0
LINE
  5
39
  100
AcDbEntity
  8
1
  100
AcDbLine
  10
148
  20
-5.95
  30
0
  11
148
  21
-6
  31
0
  0
LINE
  5
3a
  100
AcDbEntity
  8
1
  100
AcDbLine
  10
148
  20
-6
  30
0
  11
154
  21
-6
  31
0
  0
ARC
  5
3b
  100
AcDbEntity
  8
1
  100
AcDbCircle
  10
154
  20
0
  30
0
  40
6
  100
AcDbArc
  50
270
  51
0
  0
ARC
  5
3c
  100
AcDbEntity
  8
1
  100
AcDbCircle
  10
154
  20
0
  30
0
  40
6
  100
AcDbArc
  50
0
  51
90
  0
LINE
  5
3d
  100
AcDbEntity
  8
1
  100
AcDbLine
  10
154
  20
6
  30
0
  11
148
  21
6
  31
0
  0
LINE
  5
3e
  100
AcDbEntity
  8
1
  100
AcDbLine
  10
148
  20
6
  30
0
  11
148
  21
5.95
  31
0
  0
LINE
  5
3f
  100
AcDbEntity
  8
1
  100
AcDbLine
  10
148
  20
5.95
  30
0
  11
135
  21
5.95
  31
0
  0
LINE
  5
40
  100
AcDbEntity
  8
1
  100
AcDbLine
  10
135
  20
5.95
  30
0
  11
80
  21
7.4
  31
0
  0
LINE
  5
41
  100
AcDbEntity
  8
1
  100
AcDbLine
  10
80
  20
7.4
  30
0
  11
77.761
  21
7.999938241853
  31
0
  0
LINE
  5
42
  100
AcDbEntity
  8
1
  100
AcDbLine
  10
77.761
  20
7.999938241853
  30
0
  11
77.761
  21
-7.999938241853
  31
0
  0
LINE
  5
43
  100
AcDbEntity
  8
1
  100
AcDbLine
  10
80
  20
-7.4
  30
0
  11
80
  21
7.4
  31
0
  0
LINE
  5
44
  100
AcDbEntity
  8
1
  100
AcDbLine
  10
154
  20
6
  30
0
  11
154
  21
-6
  31
0
  0
LINE
  5
45
  100
AcDbEntity
  8
1
  100
AcDbLine
  10
148
  20
-6
  30
0
  11
148
  21
6
  31
0
  0
LINE
  5
46
  100
AcDbEntity
  8
1
  100
AcDbLine
  10
148
  20
5.95
  30
0
  11
148
  21
-5.95
  31
0
  0
LINE
  5
47
  100
AcDbEntity
  8
1
  100
AcDbLine
  10
148.08
  20
-1.885872466231
  30
0
  11
148.16
  21
-1.929057580943
  31
0
  0
LINE
  5
48
  100
AcDbEntity
  8
1
  100
AcDbLine
  10
148.16
  20
-1.929057580943
  30
0
  11
148.24
  21
-1.972128381695
  31
0
  0
LINE
  5
49
  100
AcDbEntity
  8
1
  100
AcDbLine
  10
148.24
  20
-1.972128381695
  30
0
  11
148.32
  21
-2.015082316158
  31
0
  0
LINE
  5
4a
  100
AcDbEntity
  8
1
  100
AcDbLine
  10
148.32
  20
-2.015082316158
  30
0
  11
148.4
  21
-2.057916838925
  31
0
  0
LINE
  5
4b
  100
AcDbEntity
  8
1
  100
AcDbLine
  10
148.4
  20
-2.057916838925
  30
0
  11
148.48
  21
-2.100629411667
  31
0
  0
LINE
  5
4c
  100
AcDbEntity
  8
1
  100
AcDbLine
  10
148.48
  20
-2.100629411667
  30
0
  11
148.56
  21
-2.14321750328
  31
0
  0
LINE
  5
4d
  100
AcDbEntity
  8
1
  100
AcDbLine
  10
148.56
  20
-2.14321750328
  30
0
  11
148.64
  21
-2.185678590039
  31
0
  0
LINE
  5
4e
  100
AcDbEntity
  8
1
  100
AcDbLine
  10
148.64
  20
-2.185678590039
  30
0
  11
148.72
  21
-2.228010155743
  31
0
  0
LINE
  5
4f
  100
AcDbEntity
  8
1
  100
AcDbLine
  10
148.72
  20
-2.228010155743
  30
0
  11
148.8
  21
-2.270209691868
  31
0
  0
LINE
  5
50
  100
AcDbEntity
  8
1
  100
AcDbLine
  10
148.8
  20
-2.270209691868
  30
0
  11
148.88
  21
-2.312274697713
  31
0
  0
LINE
  5
51
  100
AcDbEntity
  8
1
  100
AcDbLine
  10
148.88
  20
-2.312274697713
  30
0
  11
148.96
  21
-2.354202680548
  31
0
  0
LINE
  5
52
  100
AcDbEntity
  8
1
  100
AcDbLine
  10
148.96
  20
-2.354202680548
  30
0
  11
149.04
  21
-2.395991155765
  31
0
  0
LINE
  5
53
  100
AcDbEntity
  8
1
  100
AcDbLine
  10
149.04
  20
-2.395991155765
  30
0
  11
149.12
  21
-2.437637647023
  31
0
  0
LINE
  5
54
  100
AcDbEntity
  8
1
  100
AcDbLine
  10
149.12
  20
-2.437637647023
  30
0
  11
149.2
  21
-2.479139686392
  31
0
  0
LINE
  5
55
  100
AcDbEntity
  8
1
  100
AcDbLine
  10
149.2
  20
-2.479139686392
  30
0
  11
149.28
  21
-2.520494814506
  31
0
  0
LINE
  5
56
  100
AcDbEntity
  8
1
  100
AcDbLine
  10
149.28
  20
-2.520494814506
  30
0
  11
149.36
  21
-2.561700580701
  31
0
  0
LINE
  5
57
  100
AcDbEntity
  8
1
  100
AcDbLine
  10
149.36
  20
-2.561700580701
  30
0
  11
149.44
  21
-2.602754543168
  31
0
  0
LINE
  5
58
  100
AcDbEntity
  8
1
  100
AcDbLine
  10
149.44
  20
-2.602754543168
  30
0
  11
149.52
  21
-2.643654269089
  31
0
  0
LINE
  5
59
  100
AcDbEntity
  8
1
  100
AcDbLine
  10
149.52
  20
-2.643654269089
  30
0
  11
149.6
  21
-2.684397334791
  31
0
  0
LINE
  5
5a
  100
AcDbEntity
  8
1
  100
AcDbLine
  10
149.6
  20
-2.684397334791
  30
0
  11
149.68
  21
-2.72498132588
  31
0
  0
LINE
  5
5b
  100
AcDbEntity
  8
1
  100
AcDbLine
  10
149.68
  20
-2.72498132588
  30
0
  11
149.76
  21
-2.765403837392
  31
0
  0
LINE
  5
5c
  100
AcDbEntity
  8
1
  100
AcDbLine
  10
149.76
  20
-2.765403837392
  30
0
  11
149.84
  21
-2.805662473931
  31
0
  0
LINE
  5
5d
  100
AcDbEntity
  8
1
  100
AcDbLine
  10
149.84
  20
-2.805662473931
  30
0
  11
149.92
  21
-2.84575484981
  31
0
  0
LINE
  5
5e
  100
AcDbEntity
  8
1
  100
AcDbLine
  10
149.92
  20
-2.84575484981
  30
0
  11
150
  21
-2.885678589198
  31
0
  0
LINE
  5
5f
  100
AcDbEntity
  8
1
  100
AcDbLine
  10
150
  20
-2.885678589198
  30
0
  11
150.08
  21
-2.925431326255
  31
0
  0
LINE
  5
60
  100
AcDbEntity
  8
1
  100
AcDbLine
  10
150.08
  20
-2.925431326255
  30
0
  11
150.16
  21
-2.965010705274
  31
0
  0
LINE
  5
61
  100
AcDbEntity
  8
1
  100
AcDbLine
  10
150.16
  20
-2.965010705274
  30
0
  11
150.24
  21
-3.004414380823
  31
0
  0
LINE
  5
62
  100
AcDbEntity
  8
1
  100
AcDbLine
  10
150.24
  20
-3.004414380823
  30
0
  11
150.32
  21
-3.04364001788
  31
0
  0
LINE
  5
63
  100
AcDbEntity
  8
1
  100
AcDbLine
  10
150.32
  20
-3.04364001788
  30
0
  11
150.4
  21
-3.082685291975
  31
0
  0
LINE
  5
64
  100
AcDbEntity
  8
1
  100
AcDbLine
  10
150.4
  20
-3.082685291975
  30
0
  11
150.48
  21
-3.121547889326
  31
0
  0
LINE
  5
65
  100
AcDbEntity
  8
1
  100
AcDbLine
  10
150.48
  20
-3.121547889326
  30
0
  11
150.56
  21
-3.160225506974
  31
0
  0
LINE
  5
66
  100
AcDbEntity
  8
1
  100
AcDbLine
  10
150.56
  20
-3.160225506974
  30
0
  11
150.64
  21
-3.198715852924
  31
0
  0
LINE
  5
67
  100
AcDbEntity
  8
1
  100
AcDbLine
  10
150.64
  20
-3.198715852924
  30
0
  11
150.72
  21
-3.237016646278
  31
0
  0
LINE
  5
68
  100
AcDbEntity
  8
1
  100
AcDbLine
  10
150.72
  20
-3.237016646278
  30
0
  11
150.8
  21
-3.275125617371
  31
0
  0
LINE
  5
69
  100
AcDbEntity
  8
1
  100
AcDbLine
  10
150.8
  20
-3.275125617371
  30
0
  11
150.88
  21
-3.313040507905
  31
0
  0
LINE
  5
6a
  100
AcDbEntity
  8
1
  100
AcDbLine
  10
150.88
  20
-3.313040507905
  30
0
  11
150.96
  21
-3.350759071081
  31
0
  0
LINE
  5
6b
  100
AcDbEntity
  8
1
  100
AcDbLine
  10
150.96
  20
-3.350759071081
  30
0
  11
151.04
  21
-3.388279071738
  31
0
  0
LINE
  5
6c
  100
AcDbEntity
  8
1
  100
AcDbLine
  10
151.04
  20
-3.388279071738
  30
0
  11
151.12
  21
-3.425598286478
  31
0
  0
LINE
  5
6d
  100
AcDbEntity
  8
1
  100
AcDbLine
  10
151.12
  20
-3.425598286478
  30
0
  11
151.2
  21
-3.462714503803
  31
0
  0
LINE
  5
6e
  100
AcDbEntity
  8
1
  100
AcDbLine
  10
151.2
  20
-3.462714503803
  30
0
  11
151.28
  21
-3.499625524246
  31
0
  0
LINE
  5
6f
  100
AcDbEntity
  8
1
  100
AcDbLine
  10
151.28
  20
-3.499625524246
  30
0
  11
151.36
  21
-3.536329160496
  31
0
  0
LINE
  5
70
  100
AcDbEntity
  8
1
  100
AcDbLine
  10
151.36
  20
-3.536329160496
  30
0
  11
151.44
  21
-3.572823237534
  31
0
  0
LINE
  5
71
  100
AcDbEntity
  8
1
  100
AcDbLine
  10
151.44
  20
-3.572823237534
  30
0
  11
151.52
  21
-3.60910559276
  31
0
  0
LINE
  5
72
  100
AcDbEntity
  8
1
  100
AcDbLine
  10
151.52
  20
-3.60910559276
  30
0
  11
151.6
  21
-3.645174076118
  31
0
  0
LINE
  5
73
  100
AcDbEntity
  8
1
  100
AcDbLine
  10
151.6
  20
-3.645174076118
  30
0
  11
151.68
  21
-3.681026550226
  31
0
  0
LINE
  5
74
  100
AcDbEntity
  8
1
  100
AcDbLine
  10
151.68
  20
-3.681026550226
  30
0
  11
151.76
  21
-3.716660890506
  31
0
  0
LINE
  5
75
  100
AcDbEntity
  8
1
  100
AcDbLine
  10
151.76
  20
-3.716660890506
  30
0
  11
151.84
  21
-3.752074985301
  31
0
  0
LINE
  5
76
  100
AcDbEntity
  8
1
  100
AcDbLine
  10
151.84
  20
-3.752074985301
  30
0
  11
151.92
  21
-3.787266736011
  31
0
  0
LINE
  5
77
  100
AcDbEntity
  8
1
  100
AcDbLine
  10
151.92
  20
-3.787266736011
  30
0
  11
152
  21
-3.822234057207
  31
0
  0
LINE
  5
78
  100
AcDbEntity
  8
1
  100
AcDbLine
  10
152
  20
-3.822234057207
  30
0
  11
152.08
  21
-3.856974876763
  31
0
  0
LINE
  5
79
  100
AcDbEntity
  8
1
  100
AcDbLine
  10
152.08
  20
-3.856974876763
  30
0
  11
152.16
  21
-3.891487135973
  31
0
  0
LINE
  5
7a
  100
AcDbEntity
  8
1
  100
AcDbLine
  10
152.16
  20
-3.891487135973
  30
0
  11
152.24
  21
-3.925768789677
  31
0
  0
LINE
  5
7b
  100
AcDbEntity
  8
1
  100
AcDbLine
  10
152.24
  20
-3.925768789677
  30
0
  11
152.32
  21
-3.95981780638
  31
0
  0
LINE
  5
7c
  100
AcDbEntity
  8
1
  100
AcDbLine
  10
152.32
  20
-3.95981780638
  30
0
  11
152.4
  21
-3.993632168371
  31
0
  0
LINE
  5
7d
  100
AcDbEntity
  8
1
  100
AcDbLine
  10
152.4
  20
-3.993632168371
  30
0
  11
152.48
  21
-4.027209871847
  31
0
  0
LINE
  5
7e
  100
AcDbEntity
  8
1
  100
AcDbLine
  10
152.48
  20
-4.027209871847
  30
0
  11
152.56
  21
-4.060548927027
  31
0
  0
LINE
  5
7f
  100
AcDbEntity
  8
1
  100
AcDbLine
  10
152.56
  20
-4.060548927027
  30
0
  11
152.64
  21
-4.093647358274
  31
0
  0
LINE
  5
80
  100
AcDbEntity
  8
1
  100
AcDbLine
  10
152.64
  20
-4.093647358274
  30
0
  11
152.72
  21
-4.126503204209
  31
0
  0
LINE
  5
81
  100
AcDbEntity
  8
1
  100
AcDbLine
  10
152.72
  20
-4.126503204209
  30
0
  11
152.8
  21
-4.159114517828
  31
0
  0
LINE
  5
82
  100
AcDbEntity
  8
1
  100
AcDbLine
  10
152.8
  20
-4.159114517828
  30
0
  11
152.88
  21
-4.191479366619
  31
0
  0
LINE
  5
83
  100
AcDbEntity
  8
1
  100
AcDbLine
  10
152.88
  20
-4.191479366619
  30
0
  11
152.96
  21
-4.223595832674
  31
0
  0
LINE
  5
84
  100
AcDbEntity
  8
1
  100
AcDbLine
  10
152.96
  20
-4.223595832674
  30
0
  11
153.04
  21
-4.255462012805
  31
0
  0
LINE
  5
85
  100
AcDbEntity
  8
1
  100
AcDbLine
  10
153.04
  20
-4.255462012805
  30
0
  11
153.12
  21
-4.287076018654
  31
0
  0
LINE
  5
86
  100
AcDbEntity
  8
1
  100
AcDbLine
  10
153.12
  20
-4.287076018654
  30
0
  11
153.2
  21
-4.318435976809
  31
0
  0
LINE
  5
87
  100
AcDbEntity
  8
1
  100
AcDbLine
  10
153.2
  20
-4.318435976809
  30
0
  11
153.28
  21
-4.34954002891
  31
0
  0
LINE
  5
88
  100
AcDbEntity
  8
1
  100
AcDbLine
  10
153.28
  20
-4.34954002891
  30
0
  11
153.36
  21
-4.380386331763
  31
0
  0
LINE
  5
89
  100
AcDbEntity
  8
1
  100
AcDbLine
  10
153.36
  20
-4.380386331763
  30
0
  11
153.44
  21
-4.41097305745
  31
0
  0
LINE
  5
8a
  100
AcDbEntity
  8
1
  100
AcDbLine
  10
153.44
  20
-4.41097305745
  30
0
  11
153.52
  21
-4.441298393431
  31
0
  0
LINE
  5
8b
  100
AcDbEntity
  8
1
  100
AcDbLine
  10
153.52
  20
-4.441298393431
  30
0
  11
153.6
  21
-4.471360542659
  31
0
  0
LINE
  5
8c
  100
AcDbEntity
  8
1
  100
AcDbLine
  10
153.6
  20
-4.471360542659
  30
0
  11
153.68
  21
-4.501157723681
  31
0
  0
LINE
  5
8d
  100
AcDbEntity
  8
1
  100
AcDbLine
  10
153.68
  20
-4.501157723681
  30
0
  11
153.76
  21
-4.530688170749
  31
0
  0
LINE
  5
8e
  100
AcDbEntity
  8
1
  100
AcDbLine
  10
153.76
  20
-4.530688170749
  30
0
  11
153.84
  21
-4.559950133917
  31
0
  0
LINE
  5
8f
  100
AcDbEntity
  8
1
  100
AcDbLine
  10
153.84
  20
-4.559950133917
  30
0
  11
153.92
  21
-4.588941879153
  31
0
  0
LINE
  5
90
  100
AcDbEntity
  8
1
  100
AcDbLine
  10
153.92
  20
-4.588941879153
  30
0
  11
154
  21
-4.617661688434
  31
0
  0
LINE
  5
91
  100
AcDbEntity
  8
1
  100
AcDbLine
  10
154
  20
-4.617661688434
  30
0
  11
154.08
  21
-4.645612782821
  31
0
  0
LINE
  5
92
  100
AcDbEntity
  8
1
  100
AcDbLine
  10
154.08
  20
-4.645612782821
  30
0
  11
154.16
  21
-4.672291112092
  31
0
  0
LINE
  5
93
  100
AcDbEntity
  8
1
  100
AcDbLine
  10
154.16
  20
-4.672291112092
  30
0
  11
154.24
  21
-4.697683920145
  31
0
  0
LINE
  5
94
  100
AcDbEntity
  8
1
  100
AcDbLine
  10
154.24
  20
-4.697683920145
  30
0
  11
154.32
  21
-4.721778251999
  31
0
  0
LINE
  5
95
  100
AcDbEntity
  8
1
  100
AcDbLine
  10
154.32
  20
-4.721778251999
  30
0
  11
154.4
  21
-4.744560942953
  31
0
  0
LINE
  5
96
  100
AcDbEntity
  8
1
  100
AcDbLine
  10
154.4
  20
-4.744560942953
  30
0
  11
154.48
  21
-4.766018606512
  31
0
  0
LINE
  5
97
  100
AcDbEntity
  8
1
  100
AcDbLine
  10
154.48
  20
-4.766018606512
  30
0
  11
154.56
  21
-4.786137621015
  31
0
  0
LINE
  5
98
  100
AcDbEntity
  8
1
  100
AcDbLine
  10
154.56
  20
-4.786137621015
  30
0
  11
154.64
  21
-4.804904114902
  31
0
  0
LINE
  5
99
  100
AcDbEntity
  8
1
  100
AcDbLine
  10
154.64
  20
-4.804904114902
  30
0
  11
154.72
  21
-4.822303950517
  31
0
  0
LINE
  5
9a
  100
AcDbEntity
  8
1
  100
AcDbLine
  10
154.72
  20
-4.822303950517
  30
0
  11
154.8
  21
-4.838322706363
  31
0
  0
LINE
  5
9b
  100
AcDbEntity
  8
1
  100
AcDbLine
  10
154.8
  20
-4.838322706363
  30
0
  11
154.88
  21
-4.852945657704
  31
0
  0
LINE
  5
9c
  100
AcDbEntity
  8
1
  100
AcDbLine
  10
154.88
  20
-4.852945657704
  30
0
  11
154.96
  21
-4.866157755374
  31
0
  0
LINE
  5
9d
  100
AcDbEntity
  8
1
  100
AcDbLine
  10
154.96
  20
-4.866157755374
  30
0
  11
155.04
  21
-4.877943602678
  31
0
  0
LINE
  5
9e
  100
AcDbEntity
  8
1
  100
AcDbLine
  10
155.04
  20
-4.877943602678
  30
0
  11
155.12
  21
-4.888287430211
  31
0
  0
LINE
  5
9f
  100
AcDbEntity
  8
1
  100
AcDbLine
  10
155.12
  20
-4.888287430211
  30
0
  11
155.2
  21
-4.897173068436
  31
0
  0
LINE
  5
a0
  100
AcDbEntity
  8
1
  100
AcDbLine
  10
155.2
  20
-4.897173068436
  30
0
  11
155.28
  21
-4.904583917823
  31
0
  0
LINE
  5
a1
  100
AcDbEntity
  8
1
  100
AcDbLine
  10
155.28
  20
-4.904583917823
  30
0
  11
155.36
  21
-4.910502916336
  31
0
  0
LINE
  5
a2
  100
AcDbEntity
  8
1
  100
AcDbLine
  10
155.36
  20
-4.910502916336
  30
0
  11
155.44
  21
-4.91491250401
  31
0
  0
LINE
  5
a3
  100
AcDbEntity
  8
1
  100
AcDbLine
  10
155.44
  20
-4.91491250401
  30
0
  11
155.52
  21
-4.917794584366
  31
0
  0
LINE
  5
a4
  100
AcDbEntity
  8
1
  100
AcDbLine
  10
155.52
  20
-4.917794584366
  30
0
  11
155.6
  21
-4.919130482347
  31
0
  0
LINE
  5
a5
  100
AcDbEntity
  8
1
  100
AcDbLine
  10
155.6
  20
-4.919130482347
  30
0
  11
155.68
  21
-4.918900898416
  31
0
  0
LINE
  5
a6
  100
AcDbEntity
  8
1
  100
AcDbLine
  10
155.68
  20
-4.918900898416
  30
0
  11
155.76
  21
-4.917085858456
  31
0
  0
LINE
  5
a7
  100
AcDbEntity
  8
1
  100
AcDbLine
  10
155.76
  20
-4.917085858456
  30
0
  11
155.84
  21
-4.913664659001
  31
0
  0
LINE
  5
a8
  100
AcDbEntity
  8
1
  100
AcDbLine
  10
155.84
  20
-4.913664659001
  30
0
  11
155.92
  21
-4.908615807319
  31
0
  0
LINE
  5
a9
  100
AcDbEntity
  8
1
  100
AcDbLine
  10
155.92
  20
-4.908615807319
  30
0
  11
156
  21
-4.901916955774
  31
0
  0
LINE
  5
aa
  100
AcDbEntity
  8
1
  100
AcDbLine
  10
156
  20
-4.901916955774
  30
0
  11
156.08
  21
-4.893544829828
  31
0
  0
LINE
  5
ab
  100
AcDbEntity
  8
1
  100
AcDbLine
  10
156.08
  20
-4.893544829828
  30
0
  11
156.16
  21
-4.883475148953
  31
0
  0
LINE
  5
ac
  100
AcDbEntity
  8
1
  100
AcDbLine
  10
156.16
  20
-4.883475148953
  30
0
  11
156.24
  21
-4.871682539614
  31
0
  0
LINE
  5
ad
  100
AcDbEntity
  8
1
  100
AcDbLine
  10
156.24
  20
-4.871682539614
  30
0
  11
156.32
  21
-4.858140439372
  31
0
  0
LINE
  5
ae
  100
AcDbEntity
  8
1
  100
AcDbLine
  10
156.32
  20
-4.858140439372
  30
0
  11
156.4
  21
-4.842820991019
  31
0
  0
LINE
  5
af
  100
AcDbEntity
  8
1
  100
AcDbLine
  10
156.4
  20
-4.842820991019
  30
0
  11
156.48
  21
-4.825694925467
  31
0
  0
LINE
  5
b0
  100
AcDbEntity
  8
1
  100
AcDbLine
  10
156.48
  20
-4.825694925467
  30
0
  11
156.56
  21
-4.806731431954
  31
0
  0
LINE
  5
b1
  100
AcDbEntity
  8
1
  100
AcDbLine
  10
156.56
  20
-4.806731431954
  30
0
  11
156.64
  21
-4.785898013876
  31
0
  0
LINE
  5
b2
  100
AcDbEntity
  8
1
  100
AcDbLine
  10
156.64
  20
-4.785898013876
  30
0
  11
156.72
  21
-4.763160328289
  31
0
  0
LINE
  5
b3
  100
AcDbEntity
  8
1
  100
AcDbLine
  10
156.72
  20
-4.763160328289
  30
0
  11
156.8
  21
-4.738482006804
  31
0
  0
LINE
  5
b4
  100
AcDbEntity
  8
1
  100
AcDbLine
  10
156.8
  20
-4.738482006804
  30
0
  11
156.88
  21
-4.711824455207
  31
0
  0
LINE
  5
b5
  100
AcDbEntity
  8
1
  100
AcDbLine
  10
156.88
  20
-4.711824455207
  30
0
  11
156.96
  21
-4.68314662868
  31
0
  0
LINE
  5
b6
  100
AcDbEntity
  8
1
  100
AcDbLine
  10
156.96
  20
-4.68314662868
  30
0
  11
157.04
  21
-4.652404778921
  31
0
  0
LINE
  5
b7
  100
AcDbEntity
  8
1
  100
AcDbLine
  10
157.04
  20
-4.652404778921
  30
0
  11
157.12
  21
-4.61955216881
  31
0
  0
LINE
  5
b8
  100
AcDbEntity
  8
1
  100
AcDbLine
  10
157.12
  20
-4.61955216881
  30
0
  11
157.2
  21
-4.58453874941
  31
0
  0
LINE
  5
b9
  100
AcDbEntity
  8
1
  100
AcDbLine
  10
157.2
  20
-4.58453874941
  30
0
  11
157.28
  21
-4.54731079311
  31
0
  0
LINE
  5
ba
  100
AcDbEntity
  8
1
  100
AcDbLine
  10
157.28
  20
-4.54731079311
  30
0
  11
157.36
  21
-4.507810475441
  31
0
  0
LINE
  5
bb
  100
AcDbEntity
  8
1
  100
AcDbLine
  10
157.36
  20
-4.507810475441
  30
0
  11
157.44
  21
-4.465975396588
  31
0
  0
LINE
  5
bc
  100
AcDbEntity
  8
1
  100
AcDbLine
  10
157.44
  20
-4.465975396588
  30
0
  11
157.52
  21
-4.42173803166
  31
0
  0
LINE
  5
bd
  100
AcDbEntity
  8
1
  100
AcDbLine
  10
157.52
  20
-4.42173803166
  30
0
  11
157.6
  21
-4.375025096394
  31
0
  0
LINE
  5
be
  100
AcDbEntity
  8
1
  100
AcDbLine
  10
157.6
  20
-4.375025096394
  30
0
  11
157.68
  21
-4.325756811906
  31
0
  0
LINE
  5
bf
  100
AcDbEntity
  8
1
  100
AcDbLine
  10
157.68
  20
-4.325756811906
  30
0
  11
157.76
  21
-4.27384604822
  31
0
  0
LINE
  5
c0
  100
AcDbEntity
  8
1
  100
AcDbLine
  10
157.76
  20
-4.27384604822
  30
0
  11
157.84
  21
-4.219197321337
  31
0
  0
LINE
  5
c1
  100
AcDbEntity
  8
1
  100
AcDbLine
  10
157.84
  20
-4.219197321337
  30
0
  11
157.92
  21
-4.161705612119
  31
0
  0
LINE
  5
c2
  100
AcDbEntity
  8
1
  100
AcDbLine
  10
157.92
  20
-4.161705612119
  30
0
  11
158
  21
-4.101254966893
  31
0
  0
LINE
  5
c3
  100
AcDbEntity
  8
1
  100
AcDbLine
  10
158
  20
-4.101254966893
  30
0
  11
158.08
  21
-4.037716828507
  31
0
  0
LINE
  5
c4
  100
AcDbEntity
  8
1
  100
AcDbLine
  10
158.08
  20
-4.037716828507
  30
0
  11
158.16
  21
-3.970948031786
  31
0
  0
LINE
  5
c5
  100
AcDbEntity
  8
1
  100
AcDbLine
  10
158.16
  20
-3.970948031786
  30
0
  11
158.24
  21
-3.90078837734
  31
0
  0
LINE
  5
c6
  100
AcDbEntity
  8
1
  100
AcDbLine
  10
158.24
  20
-3.90078837734
  30
0
  11
158.32
  21
-3.827057670376
  31
0
  0
LINE
  5
c7
  100
AcDbEntity
  8
1
  100
AcDbLine
  10
158.32
  20
-3.827057670376
  30
0
  11
158.4
  21
-3.749552073412
  31
0
  0
LINE
  5
c8
  100
AcDbEntity
  8
1
  100
AcDbLine
  10
158.4
  20
-3.749552073412
  30
0
  11
158.48
  21
-3.668039568748
  31
0
  0
LINE
  5
c9
  100
AcDbEntity
  8
1
  100
AcDbLine
  10
158.48
  20
-3.668039568748
  30
0
  11
158.56
  21
-3.582254250844
  31
0
  0
LINE
  5
ca
  100
AcDbEntity
  8
1
  100
AcDbLine
  10
158.56
  20
-3.582254250844
  30
0
  11
158.64
  21
-3.491889058856
  31
0
  0
LINE
  5
cb
  100
AcDbEntity
  8
1
  100
AcDbLine
  10
158.64
  20
-3.491889058856
  30
0
  11
158.72
  21
-3.396586396696
  31
0
  0
LINE
  5
cc
  100
AcDbEntity
  8
1
  100
AcDbLine
  10
158.72
  20
-3.396586396696
  30
0
  11
158.8
  21
-3.295925841579
  31
0
  0
LINE
  5
cd
  100
AcDbEntity
  8
1
  100
AcDbLine
  10
158.8
  20
-3.295925841579
  30
0
  11
158.88
  21
-3.189407759809
  31
0
  0
LINE
  5
ce
  100
AcDbEntity
  8
1
  100
AcDbLine
  10
158.88
  20
-3.189407759809
  30
0
  11
158.96
  21
-3.076431039582
  31
0
  0
LINE
  5
cf
  100
AcDbEntity
  8
1
  100
AcDbLine
  10
158.96
  20
-3.076431039582
  30
0
  11
159.04
  21
-2.956262149683
  31
0
  0
LINE
  5
d0
  100
AcDbEntity
  8
1
  100
AcDbLine
  10
159.04
  20
-2.956262149683
  30
0
  11
159.12
  21
-2.827991028695
  31
0
  0
LINE
  5
d1
  100
AcDbEntity
  8
1
  100
AcDbLine
  10
159.12
  20
-2.827991028695
  30
0
  11
159.2
  21
-2.690466286467
  31
0
  0
LINE
  5
d2
  100
AcDbEntity
  8
1
  100
AcDbLine
  10
159.2
  20
-2.690466286467
  30
0
  11
159.28
  21
-2.542196574825
  31
0
  0
LINE
  5
d3
  100
AcDbEntity
  8
1
  100
AcDbLine
  10
159.28
  20
-2.542196574825
  30
0
  11
159.36
  21
-2.381193906479
  31
0
  0
LINE
  5
d4
  100
AcDbEntity
  8
1
  100
AcDbLine
  10
159.36
  20
-2.381193906479
  30
0
  11
159.44
  21
-2.204711329118
  31
0
  0
LINE
  5
d5
  100
AcDbEntity
  8
1
  100
AcDbLine
  10
159.44
  20
-2.204711329118
  30
0
  11
159.52
  21
-2.015146503495
  31
0
  0
LINE
  5
d6
  100
AcDbEntity
  8
1
  100
AcDbLine
  10
159.52
  20
-2.015146503495
  30
0
  11
159.6
  21
-1.819491137011
  31
0
  0
LINE
  5
d7
  100
AcDbEntity
  8
1
  100
AcDbLine
  10
159.6
  20
-1.819491137011
  30
0
  11
159.68
  21
-1.618338205575
  31
0
  0
LINE
  5
d8
  100
AcDbEntity
  8
1
  100
AcDbLine
  10
159.84
  20
-1.373076534379
  30
0
  11
159.84
  21
-1.376372042727
  31
0
  0
LINE
  5
d9
  100
AcDbEntity
  8
1
  100
AcDbLine
  10
159.84
  20
-1.376372042727
  30
0
  11
159.84
  21
-1.373076534379
  31
0
  0
LINE
  5
da
  100
AcDbEntity
  8
1
  100
AcDbLine
  10
159.84
  20
-1.373076534379
  30
0
  11
159.76
  21
-1.641870342322
  31
0
  0
LINE
  5
db
  100
AcDbEntity
  8
1
  100
AcDbLine
  10
159.76
  20
-1.641870342322
  30
0
  11
159.68
  21
-1.869556974185
  31
0
  0
LINE
  5
dc
  100
AcDbEntity
  8
1
  100
AcDbLine
  10
159.68
  20
-1.869556974185
  30
0
  11
159.6
  21
-2.076790342957
  31
0
  0
LINE
  5
dd
  100
AcDbEntity
  8
1
  100
AcDbLine
  10
159.6
  20
-2.076790342957
  30
0
  11
159.52
  21
-2.269972691296
  31
0
  0
LINE
  5
de
  100
AcDbEntity
  8
1
  100
AcDbLine
  10
159.52
  20
-2.269972691296
  30
0
  11
159.44
  21
-2.452106041582
  31
0
  0
LINE
  5
df
  100
AcDbEntity
  8
1
  100
AcDbLine
  10
159.44
  20
-2.452106041582
  30
0
  11
159.36
  21
-2.62110642346
  31
0
  0
LINE
  5
e0
  100
AcDbEntity
  8
1
  100
AcDbLine
  10
159.36
  20
-2.62110642346
  30
0
  11
159.28
  21
-2.776711870077
  31
0
  0
LINE
  5
e1
  100
AcDbEntity
  8
1
  100
AcDbLine
  10
159.28
  20
-2.776711870077
  30
0
  11
159.2
  21
-2.921132247719
  31
0
  0
LINE
  5
e2
  100
AcDbEntity
  8
1
  100
AcDbLine
  10
159.2
  20
-2.921132247719
  30
0
  11
159.12
  21
-3.055993363904
  31
0
  0
LINE
  5
e3
  100
AcDbEntity
  8
1
  100
AcDbLine
  10
159.12
  20
-3.055993363904
  30
0
  11
159.04
  21
-3.182532271602
  31
0
  0
LINE
  5
e4
  100
AcDbEntity
  8
1
  100
AcDbLine
  10
159.04
  20
-3.182532271602
  30
0
  11
158.96
  21
-3.301715856747
  31
0
  0
LINE
  5
e5
  100
AcDbEntity
  8
1
  100
AcDbLine
  10
158.96
  20
-3.301715856747
  30
0
  11
158.88
  21
-3.414316617868
  31
0
  0
LINE
  5
e6
  100
AcDbEntity
  8
1
  100
AcDbLine
  10
158.88
  20
-3.414316617868
  30
0
  11
158.8
  21
-3.520963137978
  31
0
  0
LINE
  5
e7
  100
AcDbEntity
  8
1
  100
AcDbLine
  10
158.8
  20
-3.520963137978
  30
0
  11
158.72
  21
-3.62217487304
  31
0
  0
LINE
  5
e8
  100
AcDbEntity
  8
1
  100
AcDbLine
  10
158.72
  20
-3.62217487304
  30
0
  11
158.64
  21
-3.718386832767
  31
0
  0
LINE
  5
e9
  100
AcDbEntity
  8
1
  100
AcDbLine
  10
158.64
  20
-3.718386832767
  30
0
  11
158.56
  21
-3.809967527661
  31
0
  0
LINE
  5
ea
  100
AcDbEntity
  8
1
  100
AcDbLine
  10
158.56
  20
-3.809967527661
  30
0
  11
158.48
  21
-3.897232300638
  31
0
  0
LINE
  5
eb
  100
AcDbEntity
  8
1
  100
AcDbLine
  10
158.48
  20
-3.897232300638
  30
0
  11
158.4
  21
-3.980453416233
  31
0
  0
LINE
  5
ec
  100
AcDbEntity
  8
1
  100
AcDbLine
  10
158.4
  20
-3.980453416233
  30
0
  11
158.32
  21
-4.059867822197
  31
0
  0
LINE
  5
ed
  100
AcDbEntity
  8
1
  100
AcDbLine
  10
158.32
  20
-4.059867822197
  30
0
  11
158.24
  21
-4.135683208019
  31
0
  0
LINE
  5
ee
  100
AcDbEntity
  8
1
  100
AcDbLine
  10
158.24
  20
-4.135683208019
  30
0
  11
158.16
  21
-4.208082795988
  31
0
  0
LINE
  5
ef
  100
AcDbEntity
  8
1
  100
AcDbLine
  10
158.16
  20
-4.208082795988
  30
0
  11
158.08
  21
-4.277229174535
  31
0
  0
LINE
  5
f0
  100
AcDbEntity
  8
1
  100
AcDbLine
  10
158.08
  20
-4.277229174535
  30
0
  11
158
  21
-4.343267397893
  31
0
  0
LINE
  5
f1
  100
AcDbEntity
  8
1
  100
AcDbLine
  10
158
  20
-4.343267397893
  30
0
  11
157.92
  21
-4.406327516713
  31
0
  0
LINE
  5
f2
  100
AcDbEntity
  8
1
  100
AcDbLine
  10
157.92
  20
-4.406327516713
  30
0
  11
157.84
  21
-4.466526662264
  31
0
  0
LINE
  5
f3
  100
AcDbEntity
  8
1
  100
AcDbLine
  10
157.84
  20
-4.466526662264
  30
0
  11
157.76
  21
-4.523970776829
  31
0
  0
LINE
  5
f4
  100
AcDbEntity
  8
1
  100
AcDbLine
  10
157.76
  20
-4.523970776829
  30
0
  11
157.68
  21
-4.578756060983
  31
0
  0
LINE
  5
f5
  100
AcDbEntity
  8
1
  100
AcDbLine
  10
157.68
  20
-4.578756060983
  30
0
  11
157.6
  21
-4.630970192361
  31
0
  0
LINE
  5
f6
  100
AcDbEntity
  8
1
  100
AcDbLine
  10
157.6
  20
-4.630970192361
  30
0
  11
157.52
  21
-4.680693358463
  31
0
  0
LINE
  5
f7
  100
AcDbEntity
  8
1
  100
AcDbLine
  10
157.52
  20
-4.680693358463
  30
0
  11
157.44
  21
-4.727999137019
  31
0
  0
LINE
  5
f8
  100
AcDbEntity
  8
1
  100
AcDbLine
  10
157.44
  20
-4.727999137019
  30
0
  11
157.36
  21
-4.772955250491
  31
0
  0
LINE
  5
f9
  100
AcDbEntity
  8
1
  100
AcDbLine
  10
157.36
  20
-4.772955250491
  30
0
  11
157.28
  21
-4.815624215997
  31
0
  0
LINE
  5
fa
  100
AcDbEntity
  8
1
  100
AcDbLine
  10
157.28
  20
-4.815624215997
  30
0
  11
157.2
  21
-4.856063907809
  31
0
  0
LINE
  5
fb
  100
AcDbEntity
  8
1
  100
AcDbLine
  10
157.2
  20
-4.856063907809
  30
0
  11
157.12
  21
-4.894328046345
  31
0
  0
LINE
  5
fc
  100
AcDbEntity
  8
1
  100
AcDbLine
  10
157.12
  20
-4.894328046345
  30
0
  11
157.04
  21
-4.930466625036
  31
0
  0
LINE
  5
fd
  100
AcDbEntity
  8
1
  100
AcDbLine
  10
157.04
  20
-4.930466625036
  30
0
  11
156.96
  21
-4.964526284412
  31
0
  0
LINE
  5
fe
  100
AcDbEntity
  8
1
  100
AcDbLine
  10
156.96
  20
-4.964526284412
  30
0
  11
156.88
  21
-4.996550641141
  31
0
  0
LINE
  5
ff
  100
AcDbEntity
  8
1
  100
AcDbLine
  10
156.88
  20
-4.996550641141
  30
0
  11
156.8
  21
-5.026580578455
  31
0
  0
LINE
  5
100
  100
AcDbEntity
  8
1
  100
AcDbLine
  10
156.8
  20
-5.026580578455
  30
0
  11
156.72
  21
-5.05465450332
  31
0
  0
LINE
  5
101
  100
AcDbEntity
  8
1
  100
AcDbLine
  10
156.72
  20
-5.05465450332
  30
0
  11
156.64
  21
-5.080808574869
  31
0
  0
LINE
  5
102
  100
AcDbEntity
  8
1
  100
AcDbLine
  10
156.64
  20
-5.080808574869
  30
0
  11
156.56
  21
-5.105076907889
  31
0
  0
LINE
  5
103
  100
AcDbEntity
  8
1
  100
AcDbLine
  10
156.56
  20
-5.105076907889
  30
0
  11
156.48
  21
-5.127491754602
  31
0
  0
LINE
  5
104
  100
AcDbEntity
  8
1
  100
AcDbLine
  10
156.48
  20
-5.127491754602
  30
0
  11
156.4
  21
-5.148083667459
  31
0
  0
LINE
  5
105
  100
AcDbEntity
  8
1
  100
AcDbLine
  10
156.4
  20
-5.148083667459
  30
0
  11
156.32
  21
-5.166881645294
  31
0
  0
LINE
  5
106
  100
AcDbEntity
  8
1
  100
AcDbLine
  10
156.32
  20
-5.166881645294
  30
0
  11
156.24
  21
-5.183913264852
  31
0
  0
LINE
  5
107
  100
AcDbEntity
  8
1
  100
AcDbLine
  10
156.24
  20
-5.183913264852
  30
0
  11
156.16
  21
-5.199204799401
  31
0
  0
LINE
  5
108
  100
AcDbEntity
  8
1
  100
AcDbLine
  10
156.16
  20
-5.199204799401
  30
0
  11
156.08
  21
-5.212781325925
  31
0
  0
LINE
  5
109
  100
AcDbEntity
  8
1
  100
AcDbLine
  10
156.08
  20
-5.212781325925
  30
0
  11
156
  21
-5.224666822188
  31
0
  0
LINE
  5
10a
  100
AcDbEntity
  8
1
  100
AcDbLine
  10
156
  20
-5.224666822188
  30
0
  11
155.92
  21
-5.234884254777
  31
0
  0
LINE
  5
10b
  100
AcDbEntity
  8
1
  100
AcDbLine
  10
155.92
  20
-5.234884254777
  30
0
  11
155.84
  21
-5.243455659111
  31
0
  0
LINE
  5
10c
  100
AcDbEntity
  8
1
  100
AcDbLine
  10
155.84
  20
-5.243455659111
  30
0
  11
155.76
  21
-5.250402212262
  31
0
  0
LINE
  5
10d
  100
AcDbEntity
  8
1
  100
AcDbLine
  10
155.76
  20
-5.250402212262
  30
0
  11
155.68
  21
-5.255744299327
  31
0
  0
LINE
  5
10e
  100
AcDbEntity
  8
1
  100
AcDbLine
  10
155.68
  20
-5.255744299327
  30
0
  11
155.6
  21
-5.259501574019
  31
0
  0
LINE
  5
10f
  100
AcDbEntity
  8
1
  100
AcDbLine
  10
155.6
  20
-5.259501574019
  30
0
  11
155.52
  21
-5.261693014033
  31
0
  0
LINE
  5
110
  100
AcDbEntity
  8
1
  100
AcDbLine
  10
155.52
  20
-5.261693014033
  30
0
  11
155.44
  21
-5.262336971715
  31
0
  0
LINE
  5
111
  100
AcDbEntity
  8
1
  100
AcDbLine
  10
155.44
  20
-5.262336971715
  30
0
  11
155.36
  21
-5.261451220466
  31
0
  0
LINE
  5
112
  100
AcDbEntity
  8
1
  100
AcDbLine
  10
155.36
  20
-5.261451220466
  30
0
  11
155.28
  21
-5.259052997283
  31
0
  0
LINE
  5
113
  100
AcDbEntity
  8
1
  100
AcDbLine
  10
155.28
  20
-5.259052997283
  30
0
  11
155.2
  21
-5.255159041797
  31
0
  0
LINE
  5
114
  100
AcDbEntity
  8
1
  100
AcDbLine
  10
155.2
  20
-5.255159041797
  30
0
  11
155.12
  21
-5.249785632103
  31
0
  0
LINE
  5
115
  100
AcDbEntity
  8
1
  100
AcDbLine
  10
155.12
  20
-5.249785632103
  30
0
  11
155.04
  21
-5.242948617675
  31
0
  0
LINE
  5
116
  100
AcDbEntity
  8
1
  100
AcDbLine
  10
155.04
  20
-5.242948617675
  30
0
  11
154.96
  21
-5.234663449609
  31
0
  0
LINE
  5
117
  100
AcDbEntity
  8
1
  100
AcDbLine
  10
154.96
  20
-5.234663449609
  30
0
  11
154.88
  21
-5.224945208407
  31
0
  0
LINE
  5
118
  100
AcDbEntity
  8
1
  100
AcDbLine
  10
154.88
  20
-5.224945208407
  30
0
  11
154.8
  21
-5.213808629519
  31
0
  0
LINE
  5
119
  100
AcDbEntity
  8
1
  100
AcDbLine
  10
154.8
  20
-5.213808629519
  30
0
  11
154.72
  21
-5.201268126786
  31
0
  0
LINE
  5
11a
  100
AcDbEntity
  8
1
  100
AcDbLine
  10
154.72
  20
-5.201268126786
  30
0
  11
154.64
  21
-5.18733781398
  31
0
  0
LINE
  5
11b
  100
AcDbEntity
  8
1
  100
AcDbLine
  10
154.64
  20
-5.18733781398
  30
0
  11
154.56
  21
-5.172031524541
  31
0
  0
LINE
  5
11c
  100
AcDbEntity
  8
1
  100
AcDbLine
  10
154.56
  20
-5.172031524541
  30
0
  11
154.48
  21
-5.155362829675
  31
0
  0
LINE
  5
11d
  100
AcDbEntity
  8
1
  100
AcDbLine
  10
154.48
  20
-5.155362829675
  30
0
  11
154.4
  21
-5.137345054888
  31
0
  0
LINE
  5
11e
  100
AcDbEntity
  8
1
  100
AcDbLine
  10
154.4
  20
-5.137345054888
  30
0
  11
154.32
  21
-5.117991295083
  31
0
  0
LINE
  5
11f
  100
AcDbEntity
  8
1
  100
AcDbLine
  10
154.32
  20
-5.117991295083
  30
0
  11
154.24
  21
-5.09731442829
  31
0
  0
LINE
  5
120
  100
AcDbEntity
  8
1
  100
AcDbLine
  10
154.24
  20
-5.09731442829
  30
0
  11
154.16
  21
-5.075327128115
  31
0
  0
LINE
  5
121
  100
AcDbEntity
  8
1
  100
AcDbLine
  10
154.16
  20
-5.075327128115
  30
0
  11
154.08
  21
-5.052041874975
  31
0
  0
LINE
  5
122
  100
AcDbEntity
  8
1
  100
AcDbLine
  10
154.08
  20
-5.052041874975
  30
0
  11
154
  21
-5.02747096617
  31
0
  0
LINE
  5
123
  100
AcDbEntity
  8
1
  100
AcDbLine
  10
154
  20
-5.02747096617
  30
0
  11
153.92
  21
-5.002112572302
  31
0
  0
LINE
  5
124
  100
AcDbEntity
  8
1
  100
AcDbLine
  10
153.92
  20
-5.002112572302
  30
0
  11
153.84
  21
-4.976457758412
  31
0
  0
LINE
  5
125
  100
AcDbEntity
  8
1
  100
AcDbLine
  10
153.84
  20
-4.976457758412
  30
0
  11
153.76
  21
-4.950508044778
  31
0
  0
LINE
  5
126
  100
AcDbEntity
  8
1
  100
AcDbLine
  10
153.76
  20
-4.950508044778
  30
0
  11
153.68
  21
-4.924264969153
  31
0
  0
LINE
  5
127
  100
AcDbEntity
  8
1
  100
AcDbLine
  10
153.68
  20
-4.924264969153
  30
0
  11
153.6
  21
-4.897730086675
  31
0
  0
LINE
  5
128
  100
AcDbEntity
  8
1
  100
AcDbLine
  10
153.6
  20
-4.897730086675
  30
0
  11
153.52
  21
-4.870904969773
  31
0
  0
LINE
  5
129
  100
AcDbEntity
  8
1
  100
AcDbLine
  10
153.52
  20
-4.870904969773
  30
0
  11
153.44
  21
-4.843791208075
  31
0
  0
LINE
  5
12a
  100
AcDbEntity
  8
1
  100
AcDbLine
  10
153.44
  20
-4.843791208075
  30
0
  11
153.36
  21
-4.816390408317
  31
0
  0
LINE
  5
12b
  100
AcDbEntity
  8
1
  100
AcDbLine
  10
153.36
  20
-4.816390408317
  30
0
  11
153.28
  21
-4.78870419424
  31
0
  0
LINE
  5
12c
  100
AcDbEntity
  8
1
  100
AcDbLine
  10
153.28
  20
-4.78870419424
  30
0
  11
153.2
  21
-4.7607342065
  31
0
  0
LINE
  5
12d
  100
AcDbEntity
  8
1
  100
AcDbLine
  10
153.2
  20
-4.7607342065
  30
0
  11
153.12
  21
-4.732482102572
  31
0
  0
LINE
  5
12e
  100
AcDbEntity
  8
1
  100
AcDbLine
  10
153.12
  20
-4.732482102572
  30
0
  11
153.04
  21
-4.703949556644
  31
0
  0
LINE
  5
12f
  100
AcDbEntity
  8
1
  100
AcDbLine
  10
153.04
  20
-4.703949556644
  30
0
  11
152.96
  21
-4.675138259527
  31
0
  0
LINE
  5
130
  100
AcDbEntity
  8
1
  100
AcDbLine
  10
152.96
  20
-4.675138259527
  30
0
  11
152.88
  21
-4.646049918548
  31
0
  0
LINE
  5
131
  100
AcDbEntity
  8
1
  100
AcDbLine
  10
152.88
  20
-4.646049918548
  30
0
  11
152.8
  21
-4.616686257451
  31
0
  0
LINE
  5
132
  100
AcDbEntity
  8
1
  100
AcDbLine
  10
152.8
  20
-4.616686257451
  30
0
  11
152.72
  21
-4.587049016298
  31
0
  0
LINE
  5
133
  100
AcDbEntity
  8
1
  100
AcDbLine
  10
152.72
  20
-4.587049016298
  30
0
  11
152.64
  21
-4.55713995136
  31
0
  0
LINE
  5
134
  100
AcDbEntity
  8
1
  100
AcDbLine
  10
152.64
  20
-4.55713995136
  30
0
  11
152.56
  21
-4.526960835018
  31
0
  0
LINE
  5
135
  100
AcDbEntity
  8
1
  100
AcDbLine
  10
152.56
  20
-4.526960835018
  30
0
  11
152.48
  21
-4.496513455655
  31
0
  0
LINE
  5
136
  100
AcDbEntity
  8
1
  100
AcDbLine
  10
152.48
  20
-4.496513455655
  30
0
  11
152.4
  21
-4.465799617551
  31
0
  0
LINE
  5
137
  100
AcDbEntity
  8
1
  100
AcDbLine
  10
152.4
  20
-4.465799617551
  30
0
  11
152.32
  21
-4.434821140777
  31
0
  0
LINE
  5
138
  100
AcDbEntity
  8
1
  100
AcDbLine
  10
152.32
  20
-4.434821140777
  30
0
  11
152.24
  21
-4.403579861084
  31
0
  0
LINE
  5
139
  100
AcDbEntity
  8
1
  100
AcDbLine
  10
152.24
  20
-4.403579861084
  30
0
  11
152.16
  21
-4.3720776298
  31
0
  0
LINE
  5
13a
  100
AcDbEntity
  8
1
  100
AcDbLine
  10
152.16
  20
-4.3720776298
  30
0
  11
152.08
  21
-4.340316313713
  31
0
  0
LINE
  5
13b
  100
AcDbEntity
  8
1
  100
AcDbLine
  10
152.08
  20
-4.340316313713
  30
0
  11
152
  21
-4.308297794967
  31
0
  0
LINE
  5
13c
  100
AcDbEntity
  8
1
  100
AcDbLine
  10
152
  20
-4.308297794967
  30
0
  11
151.92
  21
-4.276023970946
  31
0
  0
LINE
  5
13d
  100
AcDbEntity
  8
1
  100
AcDbLine
  10
151.92
  20
-4.276023970946
  30
0
  11
151.84
  21
-4.243496754162
  31
0
  0
LINE
  5
13e
  100
AcDbEntity
  8
1
  100
AcDbLine
  10
151.84
  20
-4.243496754162
  30
0
  11
151.76
  21
-4.210718072147
  31
0
  0
LINE
  5
13f
  100
AcDbEntity
  8
1
  100
AcDbLine
  10
151.76
  20
-4.210718072147
  30
0
  11
151.68
  21
-4.177689867329
  31
0
  0
LINE
  5
140
  100
AcDbEntity
  8
1
  100
AcDbLine
  10
151.68
  20
-4.177689867329
  30
0
  11
151.6
  21
-4.144414096927
  31
0
  0
LINE
  5
141
  100
AcDbEntity
  8
1
  100
AcDbLine
  10
151.6
  20
-4.144414096927
  30
0
  11
151.52
  21
-4.110892732829
  31
0
  0
LINE
  5
142
  100
AcDbEntity
  8
1
  100
AcDbLine
  10
151.52
  20
-4.110892732829
  30
0
  11
151.44
  21
-4.077127761475
  31
0
  0
LINE
  5
143
  100
AcDbEntity
  8
1
  100
AcDbLine
  10
151.44
  20
-4.077127761475
  30
0
  11
151.36
  21
-4.043121183744
  31
0
  0
LINE
  5
144
  100
AcDbEntity
  8
1
  100
AcDbLine
  10
151.36
  20
-4.043121183744
  30
0
  11
151.28
  21
-4.008875014829
  31
0
  0
LINE
  5
145
  100
AcDbEntity
  8
1
  100
AcDbLine
  10
151.28
  20
-4.008875014829
  30
0
  11
151.2
  21
-3.974391284123
  31
0
  0
LINE
  5
146
  100
AcDbEntity
  8
1
  100
AcDbLine
  10
151.2
  20
-3.974391284123
  30
0
  11
151.12
  21
-3.939672035097
  31
0
  0
LINE
  5
147
  100
AcDbEntity
  8
1
  100
AcDbLine
  10
151.12
  20
-3.939672035097
  30
0
  11
151.04
  21
-3.904719325178
  31
0
  0
LINE
  5
148
  100
AcDbEntity
  8
1
  100
AcDbLine
  10
151.04
  20
-3.904719325178
  30
0
  11
150.96
  21
-3.869535225626
  31
0
  0
LINE
  5
149
  100
AcDbEntity
  8
1
  100
AcDbLine
  10
150.96
  20
-3.869535225626
  30
0
  11
150.88
  21
-3.834121821415
  31
0
  0
LINE
  5
14a
  100
AcDbEntity
  8
1
  100
AcDbLine
  10
150.88
  20
-3.834121821415
  30
0
  11
150.8
  21
-3.798481211107
  31
0
  0
LINE
  5
14b
  100
AcDbEntity
  8
1
  100
AcDbLine
  10
150.8
  20
-3.798481211107
  30
0
  11
150.72
  21
-3.762615506729
  31
0
  0
LINE
  5
14c
  100
AcDbEntity
  8
1
  100
AcDbLine
  10
150.72
  20
-3.762615506729
  30
0
  11
150.64
  21
-3.726526833643
  31
0
  0
LINE
  5
14d
  100
AcDbEntity
  8
1
  100
AcDbLine
  10
150.64
  20
-3.726526833643
  30
0
  11
150.56
  21
-3.690217330428
  31
0
  0
LINE
  5
14e
  100
AcDbEntity
  8
1
  100
AcDbLine
  10
150.56
  20
-3.690217330428
  30
0
  11
150.48
  21
-3.653689148747
  31
0
  0
LINE
  5
14f
  100
AcDbEntity
  8
1
  100
AcDbLine
  10
150.48
  20
-3.653689148747
  30
0
  11
150.4
  21
-3.616944453224
  31
0
  0
LINE
  5
150
  100
AcDbEntity
  8
1
  100
AcDbLine
  10
150.4
  20
-3.616944453224
  30
0
  11
150.32
  21
-3.579985421309
  31
0
  0
LINE
  5
151
  100
AcDbEntity
  8
1
  100
AcDbLine
  10
150.32
  20
-3.579985421309
  30
0
  11
150.24
  21
-3.542814243158
  31
0
  0
LINE
  5
152
  100
AcDbEntity
  8
1
  100
AcDbLine
  10
150.24
  20
-3.542814243158
  30
0
  11
150.16
  21
-3.505433121496
  31
0
  0
LINE
  5
153
  100
AcDbEntity
  8
1
  100
AcDbLine
  10
150.16
  20
-3.505433121496
  30
0
  11
150.08
  21
-3.46784427149
  31
0
  0
LINE
  5
154
  100
AcDbEntity
  8
1
  100
AcDbLine
  10
150.08
  20
-3.46784427149
  30
0
  11
150
  21
-3.430049920615
  31
0
  0
LINE
  5
155
  100
AcDbEntity
  8
1
  100
AcDbLine
  10
150
  20
-3.430049920615
  30
0
  11
149.92
  21
-3.392052308527
  31
0
  0
LINE
  5
156
  100
AcDbEntity
  8
1
  100
AcDbLine
  10
149.92
  20
-3.392052308527
  30
0
  11
149.84
  21
-3.353853686925
  31
0
  0
LINE
  5
157
  100
AcDbEntity
  8
1
  100
AcDbLine
  10
149.84
  20
-3.353853686925
  30
0
  11
149.76
  21
-3.315456319419
  31
0
  0
LINE
  5
158
  100
AcDbEntity
  8
1
  100
AcDbLine
  10
149.76
  20
-3.315456319419
  30
0
  11
149.68
  21
-3.276862481397
  31
0
  0
LINE
  5
159
  100
AcDbEntity
  8
1
  100
AcDbLine
  10
149.68
  20
-3.276862481397
  30
0
  11
149.6
  21
-3.238074459891
  31
0
  0
LINE
  5
15a
  100
AcDbEntity
  8
1
  100
AcDbLine
  10
149.6
  20
-3.238074459891
  30
0
  11
149.52
  21
-3.199094553439
  31
0
  0
LINE
  5
15b
  100
AcDbEntity
  8
1
  100
AcDbLine
  10
149.52
  20
-3.199094553439
  30
0
  11
149.44
  21
-3.159925071949
  31
0
  0
LINE
  5
15c
  100
AcDbEntity
  8
1
  100
AcDbLine
  10
149.44
  20
-3.159925071949
  30
0
  11
149.36
  21
-3.120568336565
  31
0
  0
LINE
  5
15d
  100
AcDbEntity
  8
1
  100
AcDbLine
  10
149.36
  20
-3.120568336565
  30
0
  11
149.28
  21
-3.081026679526
  31
0
  0
LINE
  5
15e
  100
AcDbEntity
  8
1
  100
AcDbLine
  10
149.28
  20
-3.081026679526
  30
0
  11
149.2
  21
-3.04130244403
  31
0
  0
LINE
  5
15f
  100
AcDbEntity
  8
1
  100
AcDbLine
  10
149.2
  20
-3.04130244403
  30
0
  11
149.12
  21
-3.001397984093
  31
0
  0
LINE
  5
160
  100
AcDbEntity
  8
1
  100
AcDbLine
  10
149.12
  20
-3.001397984093
  30
0
  11
149.04
  21
-2.961315664414
  31
0
  0
LINE
  5
161
  100
AcDbEntity
  8
1
  100
AcDbLine
  10
149.04
  20
-2.961315664414
  30
0
  11
148.96
  21
-2.921057860229
  31
0
  0
LINE
  5
162
  100
AcDbEntity
  8
1
  100
AcDbLine
  10
148.96
  20
-2.921057860229
  30
0
  11
148.88
  21
-2.880626957174
  31
0
  0
LINE
  5
163
  100
AcDbEntity
  8
1
  100
AcDbLine
  10
148.88
  20
-2.880626957174
  30
0
  11
148.8
  21
-2.840025351141
  31
0
  0
LINE
  5
164
  100
AcDbEntity
  8
1
  100
AcDbLine
  10
148.8
  20
-2.840025351141
  30
0
  11
148.72
  21
-2.799255448142
  31
0
  0
LINE
  5
165
  100
AcDbEntity
  8
1
  100
AcDbLine
  10
148.72
  20
-2.799255448142
  30
0
  11
148.64
  21
-2.758319664157
  31
0
  0
LINE
  5
166
  100
AcDbEntity
  8
1
  100
AcDbLine
  10
148.64
  20
-2.758319664157
  30
0
  11
148.56
  21
-2.717220424999
  31
0
  0
LINE
  5
167
  100
AcDbEntity
  8
1
  100
AcDbLine
  10
148.56
  20
-2.717220424999
  30
0
  11
148.48
  21
-2.675960166167
  31
0
  0
LINE
  5
168
  100
AcDbEntity
  8
1
  100
AcDbLine
  10
148.48
  20
-2.675960166167
  30
0
  11
148.4
  21
-2.6345413327
  31
0
  0
LINE
  5
169
  100
AcDbEntity
  8
1
  100
AcDbLine
  10
148.4
  20
-2.6345413327
  30
0
  11
148.32
  21
-2.592966379037
  31
0
  0
LINE
  5
16a
  100
AcDbEntity
  8
1
  100
AcDbLine
  10
148.32
  20
-2.592966379037
  30
0
  11
148.24
  21
-2.551237768866
  31
0
  0
LINE
  5
16b
  100
AcDbEntity
  8
1
  100
AcDbLine
  10
148.24
  20
-2.551237768866
  30
0
  11
148.16
  21
-2.509357974981
  31
0
  0
LINE
  5
16c
  100
AcDbEntity
  8
1
  100
AcDbLine
  10
148.16
  20
-2.509357974981
  30
0
  11
148.08
  21
-2.467329479135
  31
0
  0
LINE
  5
16d
  100
AcDbEntity
  8
1
  100
AcDbLine
  10
148.08
  20
-2.467329479135
  30
0
  11
148
  21
-2.425154771894
  31
0
  0
LINE
  5
16e
  100
AcDbEntity
  8
1
  100
AcDbLine
  10
148
  20
-2.425154771894
  30
0
  11
148
  21
-2.398515485711
  31
0
  0
LINE
  5
16f
  100
AcDbEntity
  8
1
  100
AcDbLine
  10
148
  20
-2.398515485711
  30
0
  11
147.92
  21
-2.356528073466
  31
0
  0
LINE
  5
170
  100
AcDbEntity
  8
1
  100
AcDbLine
  10
147.92
  20
-2.356528073466
  30
0
  11
147.84
  21
-2.314401015801
  31
0
  0
LINE
  5
171
  100
AcDbEntity
  8
1
  100
AcDbLine
  10
147.84
  20
-2.314401015801
  30
0
  11
147.76
  21
-2.272136809125
  31
0
  0
LINE
  5
172
  100
AcDbEntity
  8
1
  100
AcDbLine
  10
147.76
  20
-2.272136809125
  30
0
  11
147.68
  21
-2.229737957969
  31
0
  0
LINE
  5
173
  100
AcDbEntity
  8
1
  100
AcDbLine
  10
147.68
  20
-2.229737957969
  30
0
  11
147.6
  21
-2.187206974846
  31
0
  0
LINE
  5
174
  100
AcDbEntity
  8
1
  100
AcDbLine
  10
147.6
  20
-2.187206974846
  30
0
  11
147.52
  21
-2.144546380097
  31
0
  0
LINE
  5
175
  100
AcDbEntity
  8
1
  100
AcDbLine
  10
147.52
  20
-2.144546380097
  30
0
  11
147.44
  21
-2.101758701747
  31
0
  0
LINE
  5
176
  100
AcDbEntity
  8
1
  100
AcDbLine
  10
147.44
  20
-2.101758701747
  30
0
  11
147.36
  21
-2.058846475347
  31
0
  0
LINE
  5
177
  100
AcDbEntity
  8
1
  100
AcDbLine
  10
147.36
  20
-2.058846475347
  30
0
  11
147.28
  21
-2.015812243833
  31
0
  0
LINE
  5
178
  100
AcDbEntity
  8
1
  100
AcDbLine
  10
147.28
  20
-2.015812243833
  30
0
  11
147.2
  21
-1.972658557369
  31
0
  0
LINE
  5
179
  100
AcDbEntity
  8
1
  100
AcDbLine
  10
147.2
  20
-1.972658557369
  30
0
  11
147.12
  21
-1.929387973197
  31
0
  0
LINE
  5
17a
  100
AcDbEntity
  8
1
  100
AcDbLine
  10
147.12
  20
-1.929387973197
  30
0
  11
147.04
  21
-1.886003055488
  31
0
  0
LINE
  5
17b
  100
AcDbEntity
  8
1
  100
AcDbLine
  10
147.04
  20
-1.886003055488
  30
0
  11
146.96
  21
-1.842506375187
  31
0
  0
LINE
  5
17c
  100
AcDbEntity
  8
1
  100
AcDbLine
  10
146.96
  20
-1.842506375187
  30
0
  11
146.88
  21
-1.798900509863
  31
0
  0
LINE
  5
17d
  100
AcDbEntity
  8
1
  100
AcDbLine
  10
146.88
  20
-1.798900509863
  30
0
  11
146.8
  21
-1.755188043556
  31
0
  0
LINE
  5
17e
  100
AcDbEntity
  8
1
  100
AcDbLine
  10
146.8
  20
-1.755188043556
  30
0
  11
146.72
  21
-1.711371566623
  31
0
  0
LINE
  5
17f
  100
AcDbEntity
  8
1
  100
AcDbLine
  10
146.72
  20
-1.711371566623
  30
0
  11
146.64
  21
-1.667453675586
  31
0
  0
LINE
  5
180
  100
AcDbEntity
  8
1
  100
AcDbLine
  10
146.64
  20
-1.667453675586
  30
0
  11
146.56
  21
-1.623436972981
  31
0
  0
LINE
  5
181
  100
AcDbEntity
  8
1
  100
AcDbLine
  10
146.56
  20
-1.623436972981
  30
0
  11
146.48
  21
-1.579324067202
  31
0
  0
LINE
  5
182
  100
AcDbEntity
  8
1
  100
AcDbLine
  10
146.48
  20
-1.579324067202
  30
0
  11
146.4
  21
-1.535117572351
  31
0
  0
LINE
  5
183
  100
AcDbEntity
  8
1
  100
AcDbLine
  10
146.4
  20
-1.535117572351
  30
0
  11
146.32
  21
-1.490820108086
  31
0
  0
LINE
  5
184
  100
AcDbEntity
  8
1
  100
AcDbLine
  10
146.32
  20
-1.490820108086
  30
0
  11
146.24
  21
-1.446434299471
  31
0
  0
LINE
  5
185
  100
AcDbEntity
  8
1
  100
AcDbLine
  10
146.24
  20
-1.446434299471
  30
0
  11
146.16
  21
-1.401962776827
  31
0
  0
LINE
  5
186
  100
AcDbEntity
  8
1
  100
AcDbLine
  10
146.16
  20
-1.401962776827
  30
0
  11
146.08
  21
-1.35740817559
  31
0
  0
LINE
  5
187
  100
AcDbEntity
  8
1
  100
AcDbLine
  10
146.08
  20
-1.35740817559
  30
0
  11
146
  21
-1.312773136163
  31
0
  0
LINE
  5
188
  100
AcDbEntity
  8
1
  100
AcDbLine
  10
146
  20
-1.312773136163
  30
0
  11
145.92
  21
-1.268060303782
  31
0
  0
LINE
  5
189
  100
AcDbEntity
  8
1
  100
AcDbLine
  10
145.92
  20
-1.268060303782
  30
0
  11
145.84
  21
-1.223272328384
  31
0
  0
LINE
  5
18a
  100
AcDbEntity
  8
1
  100
AcDbLine
  10
145.84
  20
-1.223272328384
  30
0
  11
145.76
  21
-1.178411864485
  31
0
  0
LINE
  5
18b
  100
AcDbEntity
  8
1
  100
AcDbLine
  10
145.76
  20
-1.178411864485
  30
0
  11
145.68
  21
-1.133481571065
  31
0
  0
LINE
  5
18c
  100
AcDbEntity
  8
1
  100
AcDbLine
  10
145.68
  20
-1.133481571065
  30
0
  11
145.6
  21
-1.088484111467
  31
0
  0
LINE
  5
18d
  100
AcDbEntity
  8
1
  100
AcDbLine
  10
145.6
  20
-1.088484111467
  30
0
  11
145.52
  21
-1.043422153314
  31
0
  0
LINE
  5
18e
  100
AcDbEntity
  8
1
  100
AcDbLine
  10
145.52
  20
-1.043422153314
  30
0
  11
145.44
  21
-0.998298368447
  31
0
  0
LINE
  5
18f
  100
AcDbEntity
  8
1
  100
AcDbLine
  10
145.44
  20
-0.998298368447
  30
0
  11
145.36
  21
-0.953115432877
  31
0
  0
LINE
  5
190
  100
AcDbEntity
  8
1
  100
AcDbLine
  10
145.36
  20
-0.953115432877
  30
0
  11
145.28
  21
-0.907876026783
  31
0
  0
LINE
  5
191
  100
AcDbEntity
  8
1
  100
AcDbLine
  10
145.28
  20
-0.907876026783
  30
0
  11
145.2
  21
-0.862582834532
  31
0
  0
LINE
  5
192
  100
AcDbEntity
  8
1
  100
AcDbLine
  10
145.2
  20
-0.862582834532
  30
0
  11
145.12
  21
-0.817238544747
  31
0
  0
LINE
  5
193
  100
AcDbEntity
  8
1
  100
AcDbLine
  10
145.12
  20
-0.817238544747
  30
0
  11
145.04
  21
-0.771845850434
  31
0
  0
LINE
  5
194
  100
AcDbEntity
  8
1
  100
AcDbLine
  10
145.04
  20
-0.771845850434
  30
0
  11
144.96
  21
-0.726407449153
  31
0
  0
LINE
  5
195
  100
AcDbEntity
  8
1
  100
AcDbLine
  10
144.96
  20
-0.726407449153
  30
0
  11
144.88
  21
-0.680926043282
  31
0
  0
LINE
  5
196
  100
AcDbEntity
  8
1
  100
AcDbLine
  10
144.88
  20
-0.680926043282
  30
0
  11
144.8
  21
-0.635404340353
  31
0
  0
LINE
  5
197
  100
AcDbEntity
  8
1
  100
AcDbLine
  10
144.8
  20
-0.635404340353
  30
0
  11
144.72
  21
-0.589845053491
  31
0
  0
LINE
  5
198
  100
AcDbEntity
  8
1
  100
AcDbLine
  10
144.72
  20
-0.589845053491
  30
0
  11
144.64
  21
-0.544250901974
  31
0
  0
LINE
  5
199
  100
AcDbEntity
  8
1
  100
AcDbLine
  10
144.64
  20
-0.544250901974
  30
0
  11
144.56
  21
-0.498624611929
  31
0
  0
LINE
  5
19a
  100
AcDbEntity
  8
1
  100
AcDbLine
  10
144.56
  20
-0.498624611929
  30
0
  11
144.48
  21
-0.452968917177
  31
0
  0
LINE
  5
19b
  100
AcDbEntity
  8
1
  100
AcDbLine
  10
144.48
  20
-0.452968917177
  30
0
  11
144.4
  21
-0.407286560273
  31
0
  0
LINE
  5
19c
  100
AcDbEntity
  8
1
  100
AcDbLine
  10
144.4
  20
-0.407286560273
  30
0
  11
144.32
  21
-0.361580293745
  31
0
  0
LINE
  5
19d
  100
AcDbEntity
  8
1
  100
AcDbLine
  10
144.32
  20
-0.361580293745
  30
0
  11
144.24
  21
-0.315852881574
  31
0
  0
LINE
  5
19e
  100
AcDbEntity
  8
1
  100
AcDbLine
  10
144.24
  20
-0.315852881574
  30
0
  11
144.16
  21
-0.270107100953
  31
0
  0
LINE
  5
19f
  100
AcDbEntity
  8
1
  100
AcDbLine
  10
144.16
  20
-0.270107100953
  30
0
  11
144.08
  21
-0.224345744344
  31
0
  0
LINE
  5
1a0
  100
AcDbEntity
  8
1
  100
AcDbLine
  10
144.08
  20
-0.224345744344
  30
0
  11
144
  21
-0.178571621903
  31
0
  0
LINE
  5
1a1
  100
AcDbEntity
  8
1
  100
AcDbLine
  10
144
  20
-0.178571621903
  30
0
  11
143.92
  21
-0.132787564287
  31
0
  0
LINE
  5
1a2
  100
AcDbEntity
  8
1
  100
AcDbLine
  10
143.92
  20
-0.132787564287
  30
0
  11
143.84
  21
-0.086996425922
  31
0
  0
LINE
  5
1a3
  100
AcDbEntity
  8
1
  100
AcDbLine
  10
143.84
  20
-0.086996425922
  30
0
  11
143.76
  21
-0.041201088771
  31
0
  0
LINE
  5
1a4
  100
AcDbEntity
  8
1
  100
AcDbLine
  10
143.76
  20
-0.041201088771
  30
0
  11
143.68
  21
0.004595533334
  31
0
  0
LINE
  5
1a5
  100
AcDbEntity
  8
1
  100
AcDbLine
  10
143.68
  20
0.004595533334
  30
0
  11
143.6
  21
0.05039048972
  31
0
  0
LINE
  5
1a6
  100
AcDbEntity
  8
1
  100
AcDbLine
  10
143.6
  20
0.05039048972
  30
0
  11
143.52
  21
0.096180787203
  31
0
  0
LINE
  5
1a7
  100
AcDbEntity
  8
1
  100
AcDbLine
  10
143.52
  20
0.096180787203
  30
0
  11
143.44
  21
0.141963383619
  31
0
  0
LINE
  5
1a8
  100
AcDbEntity
  8
1
  100
AcDbLine
  10
143.44
  20
0.141963383619
  30
0
  11
143.36
  21
0.187735180493
  31
0
  0
LINE
  5
1a9
  100
AcDbEntity
  8
1
  100
AcDbLine
  10
143.36
  20
0.187735180493
  30
0
  11
143.28
  21
0.233493014726
  31
0
  0
LINE
  5
1aa
  100
AcDbEntity
  8
1
  100
AcDbLine
  10
143.28
  20
0.233493014726
  30
0
  11
143.2
  21
0.27923364922
  31
0
  0
LINE
  5
1ab
  100
AcDbEntity
  8
1
  100
AcDbLine
  10
143.2
  20
0.27923364922
  30
0
  11
143.12
  21
0.324953762312
  31
0
  0
LINE
  5
1ac
  100
AcDbEntity
  8
1
  100
AcDbLine
  10
143.12
  20
0.324953762312
  30
0
  11
143.04
  21
0.370649935902
  31
0
  0
LINE
  5
1ad
  100
AcDbEntity
  8
1
  100
AcDbLine
  10
143.04
  20
0.370649935902
  30
0
  11
142.96
  21
0.416318642154
  31
0
  0
LINE
  5
1ae
  100
AcDbEntity
  8
1
  100
AcDbLine
  10
142.96
  20
0.416318642154
  30
0
  11
142.88
  21
0.461956228618
  31
0
  0
LINE
  5
1af
  100
AcDbEntity
  8
1
  100
AcDbLine
  10
142.88
  20
0.461956228618
  30
0
  11
142.8
  21
0.507558901623
  31
0
  0
LINE
  5
1b0
  100
AcDbEntity
  8
1
  100
AcDbLine
  10
142.8
  20
0.507558901623
  30
0
  11
142.72
  21
0.553122707788
  31
0
  0
LINE
  5
1b1
  100
AcDbEntity
  8
1
  100
AcDbLine
  10
142.72
  20
0.553122707788
  30
0
  11
142.64
  21
0.598643513479
  31
0
  0
LINE
  5
1b2
  100
AcDbEntity
  8
1
  100
AcDbLine
  10
142.64
  20
0.598643513479
  30
0
  11
142.56
  21
0.644116982006
  31
0
  0
LINE
  5
1b3
  100
AcDbEntity
  8
1
  100
AcDbLine
  10
142.56
  20
0.644116982006
  30
0
  11
142.48
  21
0.689538548396
  31
0
  0
LINE
  5
1b4
  100
AcDbEntity
  8
1
  100
AcDbLine
  10
142.48
  20
0.689538548396
  30
0
  11
142.4
  21
0.7349033915
  31
0
  0
LINE
  5
1b5
  100
AcDbEntity
  8
1
  100
AcDbLine
  10
142.4
  20
0.7349033915
  30
0
  11
142.32
  21
0.780206403223
  31
0
  0
LINE
  5
1b6
  100
AcDbEntity
  8
1
  100
AcDbLine
  10
142.32
  20
0.780206403223
  30
0
  11
142.24
  21
0.825442154647
  31
0
  0
LINE
  5
1b7
  100
AcDbEntity
  8
1
  100
AcDbLine
  10
142.24
  20
0.825442154647
  30
0
  11
142.16
  21
0.870604858766
  31
0
  0
LINE
  5
1b8
  100
AcDbEntity
  8
1
  100
AcDbLine
  10
142.16
  20
0.870604858766
  30
0
  11
142.08
  21
0.915688329594
  31
0
  0
LINE
  5
1b9
  100
AcDbEntity
  8
1
  100
AcDbLine
  10
142.08
  20
0.915688329594
  30
0
  11
142
  21
0.960685937335
  31
0
  0
LINE
  5
1ba
  100
AcDbEntity
  8
1
  100
AcDbLine
  10
142
  20
0.960685937335
  30
0
  11
141.92
  21
1.005590559323
  31
0
  0
LINE
  5
1bb
  100
AcDbEntity
  8
1
  100
AcDbLine
  10
141.92
  20
1.005590559323
  30
0
  11
141.84
  21
1.050394526412
  31
0
  0
LINE
  5
1bc
  100
AcDbEntity
  8
1
  100
AcDbLine
  10
141.84
  20
1.050394526412
  30
0
  11
141.76
  21
1.095089564465
  31
0
  0
LINE
  5
1bd
  100
AcDbEntity
  8
1
  100
AcDbLine
  10
141.76
  20
1.095089564465
  30
0
  11
141.68
  21
1.139666730592
  31
0
  0
LINE
  5
1be
  100
AcDbEntity
  8
1
  100
AcDbLine
  10
141.68
  20
1.139666730592
  30
0
  11
141.6
  21
1.184116343754
  31
0
  0
LINE
  5
1bf
  100
AcDbEntity
  8
1
  100
AcDbLine
  10
141.6
  20
1.184116343754
  30
0
  11
141.52
  21
1.22842790932
  31
0
  0
LINE
  5
1c0
  100
AcDbEntity
  8
1
  100
AcDbLine
  10
141.52
  20
1.22842790932
  30
0
  11
141.44
  21
1.27259003717
  31
0
  0
LINE
  5
1c1
  100
AcDbEntity
  8
1
  100
AcDbLine
  10
141.44
  20
1.27259003717
  30
0
  11
141.36
  21
1.316590352868
  31
0
  0
LINE
  5
1c2
  100
AcDbEntity
  8
1
  100
AcDbLine
  10
141.36
  20
1.316590352868
  30
0
  11
141.28
  21
1.360415401446
  31
0
  0
LINE
  5
1c3
  100
AcDbEntity
  8
1
  100
AcDbLine
  10
141.28
  20
1.360415401446
  30
0
  11
141.2
  21
1.404050543285
  31
0
  0
LINE
  5
1c4
  100
AcDbEntity
  8
1
  100
AcDbLine
  10
141.2
  20
1.404050543285
  30
0
  11
141.12
  21
1.447479841552
  31
0
  0
LINE
  5
1c5
  100
AcDbEntity
  8
1
  100
AcDbLine
  10
141.12
  20
1.447479841552
  30
0
  11
141.04
  21
1.490685940618
  31
0
  0
LINE
  5
1c6
  100
AcDbEntity
  8
1
  100
AcDbLine
  10
141.04
  20
1.490685940618
  30
0
  11
140.96
  21
1.533649934853
  31
0
  0
LINE
  5
1c7
  100
AcDbEntity
  8
1
  100
AcDbLine
  10
140.96
  20
1.533649934853
  30
0
  11
140.88
  21
1.576351227138
  31
0
  0
LINE
  5
1c8
  100
AcDbEntity
  8
1
  100
AcDbLine
  10
140.88
  20
1.576351227138
  30
0
  11
140.8
  21
1.618767376386
  31
0
  0
LINE
  5
1c9
  100
AcDbEntity
  8
1
  100
AcDbLine
  10
140.8
  20
1.618767376386
  30
0
  11
140.72
  21
1.660873933335
  31
0
  0
LINE
  5
1ca
  100
AcDbEntity
  8
1
  100
AcDbLine
  10
140.72
  20
1.660873933335
  30
0
  11
140.64
  21
1.702644263773
  31
0
  0
LINE
  5
1cb
  100
AcDbEntity
  8
1
  100
AcDbLine
  10
140.64
  20
1.702644263773
  30
0
  11
140.56
  21
1.744049358322
  31
0
  0
LINE
  5
1cc
  100
AcDbEntity
  8
1
  100
AcDbLine
  10
140.56
  20
1.744049358322
  30
0
  11
140.48
  21
1.785057627816
  31
0
  0
LINE
  5
1cd
  100
AcDbEntity
  8
1
  100
AcDbLine
  10
140.48
  20
1.785057627816
  30
0
  11
140.4
  21
1.825634683201
  31
0
  0
LINE
  5
1ce
  100
AcDbEntity
  8
1
  100
AcDbLine
  10
140.4
  20
1.825634683201
  30
0
  11
140.32
  21
1.865743098803
  31
0
  0
LINE
  5
1cf
  100
AcDbEntity
  8
1
  100
AcDbLine
  10
140.32
  20
1.865743098803
  30
0
  11
140.24
  21
1.905342157662
  31
0
  0
LINE
  5
1d0
  100
AcDbEntity
  8
1
  100
AcDbLine
  10
140.24
  20
1.905342157662
  30
0
  11
140.16
  21
1.944387577507
  31
0
  0
LINE
  5
1d1
  100
AcDbEntity
  8
1
  100
AcDbLine
  10
140.16
  20
1.944387577507
  30
0
  11
140.08
  21
1.982831215753
  31
0
  0
LINE
  5
1d2
  100
AcDbEntity
  8
1
  100
AcDbLine
  10
140.08
  20
1.982831215753
  30
0
  11
140
  21
2.020620751738
  31
0
  0
LINE
  5
1d3
  100
AcDbEntity
  8
1
  100
AcDbLine
  10
140
  20
2.020620751738
  30
0
  11
139.92
  21
2.057699344152
  31
0
  0
LINE
  5
1d4
  100
AcDbEntity
  8
1
  100
AcDbLine
  10
139.92
  20
2.057699344152
  30
0
  11
139.84
  21
2.094005261373
  31
0
  0
LINE
  5
1d5
  100
AcDbEntity
  8
1
  100
AcDbLine
  10
139.84
  20
2.094005261373
  30
0
  11
139.76
  21
2.129471482106
  31
0
  0
LINE
  5
1d6
  100
AcDbEntity
  8
1
  100
AcDbLine
  10
139.76
  20
2.129471482106
  30
0
  11
139.68
  21
2.16402526336
  31
0
  0
LINE
  5
1d7
  100
AcDbEntity
  8
1
  100
AcDbLine
  10
139.68
  20
2.16402526336
  30
0
  11
139.6
  21
2.197587672383
  31
0
  0
LINE
  5
1d8
  100
AcDbEntity
  8
1
  100
AcDbLine
  10
139.6
  20
2.197587672383
  30
0
  11
139.52
  21
2.230073078701
  31
0
  0
LINE
  5
1d9
  100
AcDbEntity
  8
1
  100
AcDbLine
  10
139.52
  20
2.230073078701
  30
0
  11
139.44
  21
2.261388601864
  31
0
  0
LINE
  5
1da
  100
AcDbEntity
  8
1
  100
AcDbLine
  10
139.44
  20
2.261388601864
  30
0
  11
139.36
  21
2.291433509845
  31
0
  0
LINE
  5
1db
  100
AcDbEntity
  8
1
  100
AcDbLine
  10
139.36
  20
2.291433509845
  30
0
  11
139.28
  21
2.320098562357
  31
0
  0
LINE
  5
1dc
  100
AcDbEntity
  8
1
  100
AcDbLine
  10
139.28
  20
2.320098562357
  30
0
  11
139.2
  21
2.347265292508
  31
0
  0
LINE
  5
1dd
  100
AcDbEntity
  8
1
  100
AcDbLine
  10
139.2
  20
2.347265292508
  30
0
  11
139.12
  21
2.372805219321
  31
0
  0
LINE
  5
1de
  100
AcDbEntity
  8
1
  100
AcDbLine
  10
139.12
  20
2.372805219321
  30
0
  11
139.04
  21
2.396578982602
  31
0
  0
LINE
  5
1df
  100
AcDbEntity
  8
1
  100
AcDbLine
  10
139.04
  20
2.396578982602
  30
0
  11
138.96
  21
2.418435390511
  31
0
  0
LINE
  5
1e0
  100
AcDbEntity
  8
1
  100
AcDbLine
  10
138.96
  20
2.418435390511
  30
0
  11
138.88
  21
2.438210368957
  31
0
  0
LINE
  5
1e1
  100
AcDbEntity
  8
1
  100
AcDbLine
  10
138.88
  20
2.438210368957
  30
0
  11
138.8
  21
2.455725800549
  31
0
  0
LINE
  5
1e2
  100
AcDbEntity
  8
1
  100
AcDbLine
  10
138.8
  20
2.455725800549
  30
0
  11
138.72
  21
2.470788239443
  31
0
  0
LINE
  5
1e3
  100
AcDbEntity
  8
1
  100
AcDbLine
  10
138.72
  20
2.470788239443
  30
0
  11
138.64
  21
2.483187486868
  31
0
  0
LINE
  5
1e4
  100
AcDbEntity
  8
1
  100
AcDbLine
  10
138.64
  20
2.483187486868
  30
0
  11
138.56
  21
2.49269501062
  31
0
  0
LINE
  5
1e5
  100
AcDbEntity
  8
1
  100
AcDbLine
  10
138.56
  20
2.49269501062
  30
0
  11
138.48
  21
2.499062190287
  31
0
  0
LINE
  5
1e6
  100
AcDbEntity
  8
1
  100
AcDbLine
  10
138.48
  20
2.499062190287
  30
0
  11
138.4
  21
2.502018368605
  31
0
  0
LINE
  5
1e7
  100
AcDbEntity
  8
1
  100
AcDbLine
  10
138.4
  20
2.502018368605
  30
0
  11
138.32
  21
2.501268688208
  31
0
  0
LINE
  5
1e8
  100
AcDbEntity
  8
1
  100
AcDbLine
  10
138.32
  20
2.501268688208
  30
0
  11
138.24
  21
2.496491692288
  31
0
  0
LINE
  5
1e9
  100
AcDbEntity
  8
1
  100
AcDbLine
  10
138.24
  20
2.496491692288
  30
0
  11
138.16
  21
2.487336667632
  31
0
  0
LINE
  5
1ea
  100
AcDbEntity
  8
1
  100
AcDbLine
  10
138.16
  20
2.487336667632
  30
0
  11
138.08
  21
2.47342070931
  31
0
  0
LINE
  5
1eb
  100
AcDbEntity
  8
1
  100
AcDbLine
  10
138.08
  20
2.47342070931
  30
0
  11
138
  21
2.454325488527
  31
0
  0
LINE
  5
1ec
  100
AcDbEntity
  8
1
  100
AcDbLine
  10
138
  20
2.454325488527
  30
0
  11
137.92
  21
2.429593709232
  31
0
  0
LINE
  5
1ed
  100
AcDbEntity
  8
1
  100
AcDbLine
  10
137.92
  20
2.429593709232
  30
0
  11
137.84
  21
2.39872524575
  31
0
  0
LINE
  5
1ee
  100
AcDbEntity
  8
1
  100
AcDbLine
  10
137.84
  20
2.39872524575
  30
0
  11
137.76
  21
2.361172963868
  31
0
  0
LINE
  5
1ef
  100
AcDbEntity
  8
1
  100
AcDbLine
  10
137.76
  20
2.361172963868
  30
0
  11
137.68
  21
2.316338242695
  31
0
  0
LINE
  5
1f0
  100
AcDbEntity
  8
1
  100
AcDbLine
  10
137.68
  20
2.316338242695
  30
0
  11
137.6
  21
2.263566235568
  31
0
  0
LINE
  5
1f1
  100
AcDbEntity
  8
1
  100
AcDbLine
  10
137.6
  20
2.263566235568
  30
0
  11
137.52
  21
2.202140937477
  31
0
  0
LINE
  5
1f2
  100
AcDbEntity
  8
1
  100
AcDbLine
  10
137.52
  20
2.202140937477
  30
0
  11
137.44
  21
2.131280166069
  31
0
  0
LINE
  5
1f3
  100
AcDbEntity
  8
1
  100
AcDbLine
  10
137.44
  20
2.131280166069
  30
0
  11
137.36
  21
2.050130616552
  31
0
  0
LINE
  5
1f4
  100
AcDbEntity
  8
1
  100
AcDbLine
  10
137.36
  20
2.050130616552
  30
0
  11
137.28
  21
1.957763221398
  31
0
  0
LINE
  5
1f5
  100
AcDbEntity
  8
1
  100
AcDbLine
  10
137.28
  20
1.957763221398
  30
0
  11
137.2
  21
1.8531691384
  31
0
  0
LINE
  5
1f6
  100
AcDbEntity
  8
1
  100
AcDbLine
  10
137.2
  20
1.8531691384
  30
0
  11
137.12
  21
1.735256811035
  31
0
  0
LINE
  5
1f7
  100
AcDbEntity
  8
1
  100
AcDbLine
  10
137.12
  20
1.735256811035
  30
0
  11
137.04
  21
1.602850700082
  31
0
  0
LINE
  5
1f8
  100
AcDbEntity
  8
1
  100
AcDbLine
  10
137.04
  20
1.602850700082
  30
0
  11
136.96
  21
1.454692483064
  31
0
  0
LINE
  5
1f9
  100
AcDbEntity
  8
1
  100
AcDbLine
  10
136.96
  20
1.454692483064
  30
0
  11
136.88
  21
1.289445767633
  31
0
  0
LINE
  5
1fa
  100
AcDbEntity
  8
1
  100
AcDbLine
  10
136.88
  20
1.289445767633
  30
0
  11
136.8
  21
1.105705676632
  31
0
  0
LINE
  5
1fb
  100
AcDbEntity
  8
1
  100
AcDbLine
  10
136.8
  20
1.105705676632
  30
0
  11
136.72
  21
0.902015047155
  31
0
  0
LINE
  5
1fc
  100
AcDbEntity
  8
1
  100
AcDbLine
  10
136.72
  20
0.902015047155
  30
0
  11
136.64
  21
0.676889453631
  31
0
  0
LINE
  5
1fd
  100
AcDbEntity
  8
1
  100
AcDbLine
  10
136.64
  20
0.676889453631
  30
0
  11
136.56
  21
0.428853824206
  31
0
  0
LINE
  5
1fe
  100
AcDbEntity
  8
1
  100
AcDbLine
  10
136.56
  20
0.428853824206
  30
0
  11
136.48
  21
0.15649407376
  31
0
  0
LINE
  5
1ff
  100
AcDbEntity
  8
1
  100
AcDbLine
  10
136.48
  20
0.15649407376
  30
0
  11
136.4
  21
-0.141472079871
  31
0
  0
LINE
  5
200
  100
AcDbEntity
  8
1
  100
AcDbLine
  10
136.4
  20
-0.141472079871
  30
0
  11
136.32
  21
-0.46610013896
  31
0
  0
LINE
  5
201
  100
AcDbEntity
  8
1
  100
AcDbLine
  10
136.32
  20
-0.46610013896
  30
0
  11
136.24
  21
-0.818093878856
  31
0
  0
LINE
  5
202
  100
AcDbEntity
  8
1
  100
AcDbLine
  10
136.24
  20
-0.818093878856
  30
0
  11
136.16
  21
-1.197643854807
  31
0
  0
LINE
  5
203
  100
AcDbEntity
  8
1
  100
AcDbLine
  10
136.16
  20
-1.197643854807
  30
0
  11
136.08
  21
-1.604222229788
  31
0
  0
LINE
  5
204
  100
AcDbEntity
  8
1
  100
AcDbLine
  10
136.08
  20
-1.604222229788
  30
0
  11
136
  21
-2.036326672822
  31
0
  0
LINE
  5
205
  100
AcDbEntity
  8
1
  100
AcDbLine
  10
136
  20
-2.036326672822
  30
0
  11
136
  21
-2.342309348439
  31
0
  0
LINE
  5
206
  100
AcDbEntity
  8
1
  100
AcDbLine
  10
136
  20
-2.342309348439
  30
0
  11
136.08
  21
-2.732420452486
  31
0
  0
LINE
  5
207
  100
AcDbEntity
  8
1
  100
AcDbLine
  10
136.08
  20
-2.732420452486
  30
0
  11
136.16
  21
-3.097311401131
  31
0
  0
LINE
  5
208
  100
AcDbEntity
  8
1
  100
AcDbLine
  10
136.16
  20
-3.097311401131
  30
0
  11
136.24
  21
-3.436764035567
  31
0
  0
LINE
  5
209
  100
AcDbEntity
  8
1
  100
AcDbLine
  10
136.24
  20
-3.436764035567
  30
0
  11
136.32
  21
-3.750842878834
  31
0
  0
LINE
  5
20a
  100
AcDbEntity
  8
1
  100
AcDbLine
  10
136.32
  20
-3.750842878834
  30
0
  11
136.4
  21
-4.039851859209
  31
0
  0
LINE
  5
20b
  100
AcDbEntity
  8
1
  100
AcDbLine
  10
136.4
  20
-4.039851859209
  30
0
  11
136.48
  21
-4.304294610928
  31
0
  0
LINE
  5
20c
  100
AcDbEntity
  8
1
  100
AcDbLine
  10
136.48
  20
-4.304294610928
  30
0
  11
136.56
  21
-4.544838432786
  31
0
  0
LINE
  5
20d
  100
AcDbEntity
  8
1
  100
AcDbLine
  10
136.56
  20
-4.544838432786
  30
0
  11
136.64
  21
-4.762281885037
  31
0
  0
LINE
  5
20e
  100
AcDbEntity
  8
1
  100
AcDbLine
  10
136.64
  20
-4.762281885037
  30
0
  11
136.72
  21
-4.957525928458
  31
0
  0
LINE
  5
20f
  100
AcDbEntity
  8
1
  100
AcDbLine
  10
136.72
  20
-4.957525928458
  30
0
  11
136.8
  21
-5.131548452845
  31
0
  0
LINE
  5
210
  100
AcDbEntity
  8
1
  100
AcDbLine
  10
136.8
  20
-5.131548452845
  30
0
  11
136.88
  21
-5.285382002342
  31
0
  0
LINE
  5
211
  100
AcDbEntity
  8
1
  100
AcDbLine
  10
136.88
  20
-5.285382002342
  30
0
  11
136.96
  21
-5.420094478842
  31
0
  0
LINE
  5
212
  100
AcDbEntity
  8
1
  100
AcDbLine
  10
136.96
  20
-5.420094478842
  30
0
  11
137.04
  21
-5.53677258966
  31
0
  0
LINE
  5
213
  100
AcDbEntity
  8
1
  100
AcDbLine
  10
137.04
  20
-5.53677258966
  30
0
  11
137.12
  21
-5.636507799477
  31
0
  0
LINE
  5
214
  100
AcDbEntity
  8
1
  100
AcDbLine
  10
137.12
  20
-5.636507799477
  30
0
  11
137.2
  21
-5.720384547194
  31
0
  0
LINE
  5
215
  100
AcDbEntity
  8
1
  100
AcDbLine
  10
137.2
  20
-5.720384547194
  30
0
  11
137.28
  21
-5.789470494222
  31
0
  0
LINE
  5
216
  100
AcDbEntity
  8
1
  100
AcDbLine
  10
137.28
  20
-5.789470494222
  30
0
  11
137.36
  21
-5.84480858039
  31
0
  0
LINE
  5
217
  100
AcDbEntity
  8
1
  100
AcDbLine
  10
137.36
  20
-5.84480858039
  30
0
  11
137.44
  21
-5.887410676023
  31
0
  0
LINE
  5
218
  100
AcDbEntity
  8
1
  100
AcDbLine
  10
137.44
  20
-5.887410676023
  30
0
  11
137.52
  21
-5.918252632828
  31
0
  0
LINE
  5
219
  100
AcDbEntity
  8
1
  100
AcDbLine
  10
137.52
  20
-5.918252632828
  30
0
  11
137.6
  21
-5.938270551318
  31
0
  0
LINE
  5
21a
  100
AcDbEntity
  8
1
  100
AcDbLine
  10
137.6
  20
-5.938270551318
  30
0
  11
137.68
  21
-5.948358098013
  31
0
  0
LINE
  5
21b
  100
AcDbEntity
  8
1
  100
AcDbLine
  10
137.68
  20
-5.948358098013
  30
0
  11
137.729320231507
  21
-5.95
  31
0
  0
LINE
  5
21c
  100
AcDbEntity
  8
1
  100
AcDbLine
  10
135
  20
-5.95
  30
0
  11
135
  21
5.95
  31
0
  0
LINE
  5
21d
  100
AcDbEntity
  8
1
  100
AcDbLine
  10
137.729320231507
  20
5.95
  30
0
  11
137.76
  21
5.9493647211
  31
0
  0
LINE
  5
21e
  100
AcDbEntity
  8
1
  100
AcDbLine
  10
137.76
  20
5.9493647211
  30
0
  11
137.84
  21
5.942094628337
  31
0
  0
LINE
  5
21f
  100
AcDbEntity
  8
1
  100
AcDbLine
  10
137.84
  20
5.942094628337
  30
0
  11
137.92
  21
5.927306405427
  31
0
  0
LINE
  5
220
  100
AcDbEntity
  8
1
  100
AcDbLine
  10
137.92
  20
5.927306405427
  30
0
  11
138
  21
5.905713166752
  31
0
  0
LINE
  5
221
  100
AcDbEntity
  8
1
  100
AcDbLine
  10
138
  20
5.905713166752
  30
0
  11
138.08
  21
5.877983143107
  31
0
  0
LINE
  5
222
  100
AcDbEntity
  8
1
  100
AcDbLine
  10
138.08
  20
5.877983143107
  30
0
  11
138.16
  21
5.844740622873
  31
0
  0
LINE
  5
223
  100
AcDbEntity
  8
1
  100
AcDbLine
  10
138.16
  20
5.844740622873
  30
0
  11
138.24
  21
5.806567173847
  31
0
  0
LINE
  5
224
  100
AcDbEntity
  8
1
  100
AcDbLine
  10
138.24
  20
5.806567173847
  30
0
  11
138.32
  21
5.764003082773
  31
0
  0
LINE
  5
225
  100
AcDbEntity
  8
1
  100
AcDbLine
  10
138.32
  20
5.764003082773
  30
0
  11
138.4
  21
5.717548958449
  31
0
  0
LINE
  5
226
  100
AcDbEntity
  8
1
  100
AcDbLine
  10
138.4
  20
5.717548958449
  30
0
  11
138.48
  21
5.667667452229
  31
0
  0
LINE
  5
227
  100
AcDbEntity
  8
1
  100
AcDbLine
  10
138.48
  20
5.667667452229
  30
0
  11
138.56
  21
5.6147850568
  31
0
  0
LINE
  5
228
  100
AcDbEntity
  8
1
  100
AcDbLine
  10
138.56
  20
5.6147850568
  30
0
  11
138.64
  21
5.559293950346
  31
0
  0
LINE
  5
229
  100
AcDbEntity
  8
1
  100
AcDbLine
  10
138.64
  20
5.559293950346
  30
0
  11
138.72
  21
5.501553858753
  31
0
  0
LINE
  5
22a
  100
AcDbEntity
  8
1
  100
AcDbLine
  10
138.72
  20
5.501553858753
  30
0
  11
138.8
  21
5.441893913274
  31
0
  0
LINE
  5
22b
  100
AcDbEntity
  8
1
  100
AcDbLine
  10
138.8
  20
5.441893913274
  30
0
  11
138.88
  21
5.380614485331
  31
0
  0
LINE
  5
22c
  100
AcDbEntity
  8
1
  100
AcDbLine
  10
138.88
  20
5.380614485331
  30
0
  11
138.96
  21
5.317988983705
  31
0
  0
LINE
  5
22d
  100
AcDbEntity
  8
1
  100
AcDbLine
  10
138.96
  20
5.317988983705
  30
0
  11
139.04
  21
5.25426560254
  31
0
  0
LINE
  5
22e
  100
AcDbEntity
  8
1
  100
AcDbLine
  10
139.04
  20
5.25426560254
  30
0
  11
139.12
  21
5.189669011241
  31
0
  0
LINE
  5
22f
  100
AcDbEntity
  8
1
  100
AcDbLine
  10
139.12
  20
5.189669011241
  30
0
  11
139.2
  21
5.12440197963
  31
0
  0
LINE
  5
230
  100
AcDbEntity
  8
1
  100
AcDbLine
  10
139.2
  20
5.12440197963
  30
0
  11
139.28
  21
5.058646933665
  31
0
  0
LINE
  5
231
  100
AcDbEntity
  8
1
  100
AcDbLine
  10
139.28
  20
5.058646933665
  30
0
  11
139.36
  21
4.992567438621
  31
0
  0
LINE
  5
232
  100
AcDbEntity
  8
1
  100
AcDbLine
  10
139.36
  20
4.992567438621
  30
0
  11
139.44
  21
4.926309608009
  31
0
  0
LINE
  5
233
  100
AcDbEntity
  8
1
  100
AcDbLine
  10
139.44
  20
4.926309608009
  30
0
  11
139.52
  21
4.860003437592
  31
0
  0
LINE
  5
234
  100
AcDbEntity
  8
1
  100
AcDbLine
  10
139.52
  20
4.860003437592
  30
0
  11
139.6
  21
4.793764064788
  31
0
  0
LINE
  5
235
  100
AcDbEntity
  8
1
  100
AcDbLine
  10
139.6
  20
4.793764064788
  30
0
  11
139.68
  21
4.727692954473
  31
0
  0
LINE
  5
236
  100
AcDbEntity
  8
1
  100
AcDbLine
  10
139.68
  20
4.727692954473
  30
0
  11
139.76
  21
4.66187901277
  31
0
  0
LINE
  5
237
  100
AcDbEntity
  8
1
  100
AcDbLine
  10
139.76
  20
4.66187901277
  30
0
  11
139.84
  21
4.596399630895
  31
0
  0
LINE
  5
238
  100
AcDbEntity
  8
1
  100
AcDbLine
  10
139.84
  20
4.596399630895
  30
0
  11
139.92
  21
4.531321661417
  31
0
  0
LINE
  5
239
  100
AcDbEntity
  8
1
  100
AcDbLine
  10
139.92
  20
4.531321661417
  30
0
  11
140
  21
4.466702329621
  31
0
  0
LINE
  5
23a
  100
AcDbEntity
  8
1
  100
AcDbLine
  10
140
  20
4.466702329621
  30
0
  11
140.08
  21
4.402590082751
  31
0
  0
LINE
  5
23b
  100
AcDbEntity
  8
1
  100
AcDbLine
  10
140.08
  20
4.402590082751
  30
0
  11
140.16
  21
4.339025380097
  31
0
  0
LINE
  5
23c
  100
AcDbEntity
  8
1
  100
AcDbLine
  10
140.16
  20
4.339025380097
  30
0
  11
140.24
  21
4.276041426887
  31
0
  0
LINE
  5
23d
  100
AcDbEntity
  8
1
  100
AcDbLine
  10
140.24
  20
4.276041426887
  30
0
  11
140.32
  21
4.213664855012
  31
0
  0
LINE
  5
23e
  100
AcDbEntity
  8
1
  100
AcDbLine
  10
140.32
  20
4.213664855012
  30
0
  11
140.4
  21
4.151916353535
  31
0
  0
LINE
  5
23f
  100
AcDbEntity
  8
1
  100
AcDbLine
  10
140.4
  20
4.151916353535
  30
0
  11
140.48
  21
4.090811251942
  31
0
  0
LINE
  5
240
  100
AcDbEntity
  8
1
  100
AcDbLine
  10
140.48
  20
4.090811251942
  30
0
  11
140.56
  21
4.030360058982
  31
0
  0
LINE
  5
241
  100
AcDbEntity
  8
1
  100
AcDbLine
  10
140.56
  20
4.030360058982
  30
0
  11
140.64
  21
3.970568959862
  31
0
  0
LINE
  5
242
  100
AcDbEntity
  8
1
  100
AcDbLine
  10
140.64
  20
3.970568959862
  30
0
  11
140.72
  21
3.911440274489
  31
0
  0
LINE
  5
243
  100
AcDbEntity
  8
1
  100
AcDbLine
  10
140.72
  20
3.911440274489
  30
0
  11
140.8
  21
3.852972879299
  31
0
  0
LINE
  5
244
  100
AcDbEntity
  8
1
  100
AcDbLine
  10
140.8
  20
3.852972879299
  30
0
  11
140.88
  21
3.79516259513
  31
0
  0
LINE
  5
245
  100
AcDbEntity
  8
1
  100
AcDbLine
  10
140.88
  20
3.79516259513
  30
0
  11
140.96
  21
3.738002543469
  31
0
  0
LINE
  5
246
  100
AcDbEntity
  8
1
  100
AcDbLine
  10
140.96
  20
3.738002543469
  30
0
  11
141.04
  21
3.681483473267
  31
0
  0
LINE
  5
247
  100
AcDbEntity
  8
1
  100
AcDbLine
  10
141.04
  20
3.681483473267
  30
0
  11
141.12
  21
3.625594060416
  31
0
  0
LINE
  5
248
  100
AcDbEntity
  8
1
  100
AcDbLine
  10
141.12
  20
3.625594060416
  30
0
  11
141.2
  21
3.570321181854
  31
0
  0
LINE
  5
249
  100
AcDbEntity
  8
1
  100
AcDbLine
  10
141.2
  20
3.570321181854
  30
0
  11
141.28
  21
3.515650166138
  31
0
  0
LINE
  5
24a
  100
AcDbEntity
  8
1
  100
AcDbLine
  10
141.28
  20
3.515650166138
  30
0
  11
141.36
  21
3.461565022235
  31
0
  0
LINE
  5
24b
  100
AcDbEntity
  8
1
  100
AcDbLine
  10
141.36
  20
3.461565022235
  30
0
  11
141.44
  21
3.408048648132
  31
0
  0
LINE
  5
24c
  100
AcDbEntity
  8
1
  100
AcDbLine
  10
141.44
  20
3.408048648132
  30
0
  11
141.52
  21
3.355083020815
  31
0
  0
LINE
  5
24d
  100
AcDbEntity
  8
1
  100
AcDbLine
  10
141.52
  20
3.355083020815
  30
0
  11
141.6
  21
3.302649369011
  31
0
  0
LINE
  5
24e
  100
AcDbEntity
  8
1
  100
AcDbLine
  10
141.6
  20
3.302649369011
  30
0
  11
141.68
  21
3.250728330022
  31
0
  0
LINE
  5
24f
  100
AcDbEntity
  8
1
  100
AcDbLine
  10
141.68
  20
3.250728330022
  30
0
  11
141.76
  21
3.199300091888
  31
0
  0
LINE
  5
250
  100
AcDbEntity
  8
1
  100
AcDbLine
  10
141.76
  20
3.199300091888
  30
0
  11
141.84
  21
3.148344522017
  31
0
  0
LINE
  5
251
  100
AcDbEntity
  8
1
  100
AcDbLine
  10
141.84
  20
3.148344522017
  30
0
  11
141.92
  21
3.097841283346
  31
0
  0
LINE
  5
252
  100
AcDbEntity
  8
1
  100
AcDbLine
  10
141.92
  20
3.097841283346
  30
0
  11
142
  21
3.047769939021
  31
0
  0
LINE
  5
253
  100
AcDbEntity
  8
1
  100
AcDbLine
  10
142
  20
3.047769939021
  30
0
  11
142.08
  21
2.998110046503
  31
0
  0
LINE
  5
254
  100
AcDbEntity
  8
1
  100
AcDbLine
  10
142.08
  20
2.998110046503
  30
0
  11
142.16
  21
2.948841241962
  31
0
  0
LINE
  5
255
  100
AcDbEntity
  8
1
  100
AcDbLine
  10
142.16
  20
2.948841241962
  30
0
  11
142.24
  21
2.899943315719
  31
0
  0
LINE
  5
256
  100
AcDbEntity
  8
1
  100
AcDbLine
  10
142.24
  20
2.899943315719
  30
0
  11
142.32
  21
2.851396279486
  31
0
  0
LINE
  5
257
  100
AcDbEntity
  8
1
  100
AcDbLine
  10
142.32
  20
2.851396279486
  30
0
  11
142.4
  21
2.803180426047
  31
0
  0
LINE
  5
258
  100
AcDbEntity
  8
1
  100
AcDbLine
  10
142.4
  20
2.803180426047
  30
0
  11
142.48
  21
2.755276382019
  31
0
  0
LINE
  5
259
  100
AcDbEntity
  8
1
  100
AcDbLine
  10
142.48
  20
2.755276382019
  30
0
  11
142.56
  21
2.707665154252
  31
0
  0
LINE
  5
25a
  100
AcDbEntity
  8
1
  100
AcDbLine
  10
142.56
  20
2.707665154252
  30
0
  11
142.64
  21
2.660328170399
  31
0
  0
LINE
  5
25b
  100
AcDbEntity
  8
1
  100
AcDbLine
  10
142.64
  20
2.660328170399
  30
0
  11
142.72
  21
2.613247314132
  31
0
  0
LINE
  5
25c
  100
AcDbEntity
  8
1
  100
AcDbLine
  10
142.72
  20
2.613247314132
  30
0
  11
142.8
  21
2.566404955465
  31
0
  0
LINE
  5
25d
  100
AcDbEntity
  8
1
  100
AcDbLine
  10
142.8
  20
2.566404955465
  30
0
  11
142.88
  21
2.519783976584
  31
0
  0
LINE
  5
25e
  100
AcDbEntity
  8
1
  100
AcDbLine
  10
142.88
  20
2.519783976584
  30
0
  11
142.96
  21
2.473367793565
  31
0
  0
LINE
  5
25f
  100
AcDbEntity
  8
1
  100
AcDbLine
  10
142.96
  20
2.473367793565
  30
0
  11
143.04
  21
2.427140374339
  31
0
  0
LINE
  5
260
  100
AcDbEntity
  8
1
  100
AcDbLine
  10
143.04
  20
2.427140374339
  30
0
  11
143.12
  21
2.381086253205
  31
0
  0
LINE
  5
261
  100
AcDbEntity
  8
1
  100
AcDbLine
  10
143.12
  20
2.381086253205
  30
0
  11
143.2
  21
2.335190542213
  31
0
  0
LINE
  5
262
  100
AcDbEntity
  8
1
  100
AcDbLine
  10
143.2
  20
2.335190542213
  30
0
  11
143.28
  21
2.289438939665
  31
0
  0
LINE
  5
263
  100
AcDbEntity
  8
1
  100
AcDbLine
  10
143.28
  20
2.289438939665
  30
0
  11
143.36
  21
2.243817736002
  31
0
  0
LINE
  5
264
  100
AcDbEntity
  8
1
  100
AcDbLine
  10
143.36
  20
2.243817736002
  30
0
  11
143.44
  21
2.198313817293
  31
0
  0
LINE
  5
265
  100
AcDbEntity
  8
1
  100
AcDbLine
  10
143.44
  20
2.198313817293
  30
0
  11
143.52
  21
2.152914666558
  31
0
  0
LINE
  5
266
  100
AcDbEntity
  8
1
  100
AcDbLine
  10
143.52
  20
2.152914666558
  30
0
  11
143.6
  21
2.107608363093
  31
0
  0
LINE
  5
267
  100
AcDbEntity
  8
1
  100
AcDbLine
  10
143.6
  20
2.107608363093
  30
0
  11
143.68
  21
2.062383580008
  31
0
  0
LINE
  5
268
  100
AcDbEntity
  8
1
  100
AcDbLine
  10
143.68
  20
2.062383580008
  30
0
  11
143.76
  21
2.017229580117
  31
0
  0
LINE
  5
269
  100
AcDbEntity
  8
1
  100
AcDbLine
  10
143.76
  20
2.017229580117
  30
0
  11
143.84
  21
1.972136210349
  31
0
  0
LINE
  5
26a
  100
AcDbEntity
  8
1
  100
AcDbLine
  10
143.84
  20
1.972136210349
  30
0
  11
143.92
  21
1.92709389482
  31
0
  0
LINE
  5
26b
  100
AcDbEntity
  8
1
  100
AcDbLine
  10
143.92
  20
1.92709389482
  30
0
  11
144
  21
1.882093626683
  31
0
  0
LINE
  5
26c
  100
AcDbEntity
  8
1
  100
AcDbLine
  10
144
  20
1.882093626683
  30
0
  11
144.08
  21
1.8371269589
  31
0
  0
LINE
  5
26d
  100
AcDbEntity
  8
1
  100
AcDbLine
  10
144.08
  20
1.8371269589
  30
0
  11
144.16
  21
1.79218599402
  31
0
  0
LINE
  5
26e
  100
AcDbEntity
  8
1
  100
AcDbLine
  10
144.16
  20
1.79218599402
  30
0
  11
144.24
  21
1.747263373089
  31
0
  0
LINE
  5
26f
  100
AcDbEntity
  8
1
  100
AcDbLine
  10
144.24
  20
1.747263373089
  30
0
  11
144.32
  21
1.702352263772
  31
0
  0
LINE
  5
270
  100
AcDbEntity
  8
1
  100
AcDbLine
  10
144.32
  20
1.702352263772
  30
0
  11
144.4
  21
1.657446347791
  31
0
  0
LINE
  5
271
  100
AcDbEntity
  8
1
  100
AcDbLine
  10
144.4
  20
1.657446347791
  30
0
  11
144.48
  21
1.612539807738
  31
0
  0
LINE
  5
272
  100
AcDbEntity
  8
1
  100
AcDbLine
  10
144.48
  20
1.612539807738
  30
0
  11
144.56
  21
1.567627313367
  31
0
  0
LINE
  5
273
  100
AcDbEntity
  8
1
  100
AcDbLine
  10
144.56
  20
1.567627313367
  30
0
  11
144.64
  21
1.522704007419
  31
0
  0
LINE
  5
274
  100
AcDbEntity
  8
1
  100
AcDbLine
  10
144.64
  20
1.522704007419
  30
0
  11
144.72
  21
1.477765491049
  31
0
  0
LINE
  5
275
  100
AcDbEntity
  8
1
  100
AcDbLine
  10
144.72
  20
1.477765491049
  30
0
  11
144.8
  21
1.432807808919
  31
0
  0
LINE
  5
276
  100
AcDbEntity
  8
1
  100
AcDbLine
  10
144.8
  20
1.432807808919
  30
0
  11
144.88
  21
1.387827434027
  31
0
  0
LINE
  5
277
  100
AcDbEntity
  8
1
  100
AcDbLine
  10
144.88
  20
1.387827434027
  30
0
  11
144.96
  21
1.342821252297
  31
0
  0
LINE
  5
278
  100
AcDbEntity
  8
1
  100
AcDbLine
  10
144.96
  20
1.342821252297
  30
0
  11
145.04
  21
1.297786547022
  31
0
  0
LINE
  5
279
  100
AcDbEntity
  8
1
  100
AcDbLine
  10
145.04
  20
1.297786547022
  30
0
  11
145.12
  21
1.252720983172
  31
0
  0
LINE
  5
27a
  100
AcDbEntity
  8
1
  100
AcDbLine
  10
145.12
  20
1.252720983172
  30
0
  11
145.2
  21
1.207622591636
  31
0
  0
LINE
  5
27b
  100
AcDbEntity
  8
1
  100
AcDbLine
  10
145.2
  20
1.207622591636
  30
0
  11
145.28
  21
1.16248975343
  31
0
  0
LINE
  5
27c
  100
AcDbEntity
  8
1
  100
AcDbLine
  10
145.28
  20
1.16248975343
  30
0
  11
145.36
  21
1.117321183926
  31
0
  0
LINE
  5
27d
  100
AcDbEntity
  8
1
  100
AcDbLine
  10
145.36
  20
1.117321183926
  30
0
  11
145.44
  21
1.072115917114
  31
0
  0
LINE
  5
27e
  100
AcDbEntity
  8
1
  100
AcDbLine
  10
145.44
  20
1.072115917114
  30
0
  11
145.52
  21
1.026873289969
  31
0
  0
LINE
  5
27f
  100
AcDbEntity
  8
1
  100
AcDbLine
  10
145.52
  20
1.026873289969
  30
0
  11
145.6
  21
0.981592926933
  31
0
  0
LINE
  5
280
  100
AcDbEntity
  8
1
  100
AcDbLine
  10
145.6
  20
0.981592926933
  30
0
  11
145.68
  21
0.93627472455
  31
0
  0
LINE
  5
281
  100
AcDbEntity
  8
1
  100
AcDbLine
  10
145.68
  20
0.93627472455
  30
0
  11
145.76
  21
0.890918836298
  31
0
  0
LINE
  5
282
  100
AcDbEntity
  8
1
  100
AcDbLine
  10
145.76
  20
0.890918836298
  30
0
  11
145.84
  21
0.845525657631
  31
0
  0
LINE
  5
283
  100
AcDbEntity
  8
1
  100
AcDbLine
  10
145.84
  20
0.845525657631
  30
0
  11
145.92
  21
0.800095811278
  31
0
  0
LINE
  5
284
  100
AcDbEntity
  8
1
  100
AcDbLine
  10
145.92
  20
0.800095811278
  30
0
  11
146
  21
0.754630132813
  31
0
  0
LINE
  5
285
  100
AcDbEntity
  8
1
  100
AcDbLine
  10
146
  20
0.754630132813
  30
0
  11
146.08
  21
0.709129656525
  31
0
  0
LINE
  5
286
  100
AcDbEntity
  8
1
  100
AcDbLine
  10
146.08
  20
0.709129656525
  30
0
  11
146.16
  21
0.663595601624
  31
0
  0
LINE
  5
287
  100
AcDbEntity
  8
1
  100
AcDbLine
  10
146.16
  20
0.663595601624
  30
0
  11
146.24
  21
0.618029358794
  31
0
  0
LINE
  5
288
  100
AcDbEntity
  8
1
  100
AcDbLine
  10
146.24
  20
0.618029358794
  30
0
  11
146.32
  21
0.572432477119
  31
0
  0
LINE
  5
289
  100
AcDbEntity
  8
1
  100
AcDbLine
  10
146.32
  20
0.572432477119
  30
0
  11
146.4
  21
0.526806651411
  31
0
  0
LINE
  5
28a
  100
AcDbEntity
  8
1
  100
AcDbLine
  10
146.4
  20
0.526806651411
  30
0
  11
146.48
  21
0.481153709958
  31
0
  0
LINE
  5
28b
  100
AcDbEntity
  8
1
  100
AcDbLine
  10
146.48
  20
0.481153709958
  30
0
  11
146.56
  21
0.4354756027
  31
0
  0
LINE
  5
28c
  100
AcDbEntity
  8
1
  100
AcDbLine
  10
146.56
  20
0.4354756027
  30
0
  11
146.64
  21
0.389774389873
  31
0
  0
LINE
  5
28d
  100
AcDbEntity
  8
1
  100
AcDbLine
  10
146.64
  20
0.389774389873
  30
0
  11
146.72
  21
0.344052231121
  31
0
  0
LINE
  5
28e
  100
AcDbEntity
  8
1
  100
AcDbLine
  10
146.72
  20
0.344052231121
  30
0
  11
146.8
  21
0.298311375101
  31
0
  0
LINE
  5
28f
  100
AcDbEntity
  8
1
  100
AcDbLine
  10
146.8
  20
0.298311375101
  30
0
  11
146.88
  21
0.252554149595
  31
0
  0
LINE
  5
290
  100
AcDbEntity
  8
1
  100
AcDbLine
  10
146.88
  20
0.252554149595
  30
0
  11
146.96
  21
0.206782952144
  31
0
  0
LINE
  5
291
  100
AcDbEntity
  8
1
  100
AcDbLine
  10
146.96
  20
0.206782952144
  30
0
  11
147.04
  21
0.161000241215
  31
0
  0
LINE
  5
292
  100
AcDbEntity
  8
1
  100
AcDbLine
  10
147.04
  20
0.161000241215
  30
0
  11
147.12
  21
0.11520852792
  31
0
  0
LINE
  5
293
  100
AcDbEntity
  8
1
  100
AcDbLine
  10
147.12
  20
0.11520852792
  30
0
  11
147.2
  21
0.069410368292
  31
0
  0
LINE
  5
294
  100
AcDbEntity
  8
1
  100
AcDbLine
  10
147.2
  20
0.069410368292
  30
0
  11
147.28
  21
0.023608356129
  31
0
  0
LINE
  5
295
  100
AcDbEntity
  8
1
  100
AcDbLine
  10
147.28
  20
0.023608356129
  30
0
  11
147.36
  21
-0.022194883574
  31
0
  0
LINE
  5
296
  100
AcDbEntity
  8
1
  100
AcDbLine
  10
147.36
  20
-0.022194883574
  30
0
  11
147.44
  21
-0.067996700616
  31
0
  0
LINE
  5
297
  100
AcDbEntity
  8
1
  100
AcDbLine
  10
147.44
  20
-0.067996700616
  30
0
  11
147.52
  21
-0.113794424975
  31
0
  0
LINE
  5
298
  100
AcDbEntity
  8
1
  100
AcDbLine
  10
147.52
  20
-0.113794424975
  30
0
  11
147.6
  21
-0.159585371596
  31
0
  0
LINE
  5
299
  100
AcDbEntity
  8
1
  100
AcDbLine
  10
147.6
  20
-0.159585371596
  30
0
  11
147.68
  21
-0.205366844568
  31
0
  0
LINE
  5
29a
  100
AcDbEntity
  8
1
  100
AcDbLine
  10
147.68
  20
-0.205366844568
  30
0
  11
147.76
  21
-0.251136140689
  31
0
  0
LINE
  5
29b
  100
AcDbEntity
  8
1
  100
AcDbLine
  10
147.76
  20
-0.251136140689
  30
0
  11
147.84
  21
-0.296890552417
  31
0
  0
LINE
  5
29c
  100
AcDbEntity
  8
1
  100
AcDbLine
  10
147.84
  20
-0.296890552417
  30
0
  11
147.92
  21
-0.3426273702
  31
0
  0
LINE
  5
29d
  100
AcDbEntity
  8
1
  100
AcDbLine
  10
147.92
  20
-0.3426273702
  30
0
  11
148
  21
-0.388343884187
  31
0
  0
LINE
  5
29e
  100
AcDbEntity
  8
1
  100
AcDbLine
  10
148
  20
-0.388343884187
  30
0
  11
148
  21
-0.401878529395
  31
0
  0
LINE
  5
29f
  100
AcDbEntity
  8
1
  100
AcDbLine
  10
148
  20
-0.401878529395
  30
0
  11
148.08
  21
-0.447950465488
  31
0
  0
LINE
  5
2a0
  100
AcDbEntity
  8
1
  100
AcDbLine
  10
148.08
  20
-0.447950465488
  30
0
  11
148.16
  21
-0.4939958565
  31
0
  0
LINE
  5
2a1
  100
AcDbEntity
  8
1
  100
AcDbLine
  10
148.16
  20
-0.4939958565
  30
0
  11
148.24
  21
-0.540011973827
  31
0
  0
LINE
  5
2a2
  100
AcDbEntity
  8
1
  100
AcDbLine
  10
148.24
  20
-0.540011973827
  30
0
  11
148.32
  21
-0.585996090603
  31
0
  0
LINE
  5
2a3
  100
AcDbEntity
  8
1
  100
AcDbLine
  10
148.32
  20
-0.585996090603
  30
0
  11
148.4
  21
-0.631945481856
  31
0
  0
LINE
  5
2a4
  100
AcDbEntity
  8
1
  100
AcDbLine
  10
148.4
  20
-0.631945481856
  30
0
  11
148.48
  21
-0.677857424673
  31
0
  0
LINE
  5
2a5
  100
AcDbEntity
  8
1
  100
AcDbLine
  10
148.48
  20
-0.677857424673
  30
0
  11
148.56
  21
-0.723729198359
  31
0
  0
LINE
  5
2a6
  100
AcDbEntity
  8
1
  100
AcDbLine
  10
148.56
  20
-0.723729198359
  30
0
  11
148.64
  21
-0.769558084601
  31
0
  0
LINE
  5
2a7
  100
AcDbEntity
  8
1
  100
AcDbLine
  10
148.64
  20
-0.769558084601
  30
0
  11
148.72
  21
-0.815341367626
  31
0
  0
LINE
  5
2a8
  100
AcDbEntity
  8
1
  100
AcDbLine
  10
148.72
  20
-0.815341367626
  30
0
  11
148.8
  21
-0.861076334364
  31
0
  0
LINE
  5
2a9
  100
AcDbEntity
  8
1
  100
AcDbLine
  10
148.8
  20
-0.861076334364
  30
0
  11
148.88
  21
-0.906760274609
  31
0
  0
LINE
  5
2aa
  100
AcDbEntity
  8
1
  100
AcDbLine
  10
148.88
  20
-0.906760274609
  30
0
  11
148.96
  21
-0.952390481176
  31
0
  0
LINE
  5
2ab
  100
AcDbEntity
  8
1
  100
AcDbLine
  10
148.96
  20
-0.952390481176
  30
0
  11
149.04
  21
-0.997964250068
  31
0
  0
LINE
  5
2ac
  100
AcDbEntity
  8
1
  100
AcDbLine
  10
149.04
  20
-0.997964250068
  30
0
  11
149.12
  21
-1.04347888063
  31
0
  0
LINE
  5
2ad
  100
AcDbEntity
  8
1
  100
AcDbLine
  10
149.12
  20
-1.04347888063
  30
0
  11
149.2
  21
-1.088931675711
  31
0
  0
LINE
  5
2ae
  100
AcDbEntity
  8
1
  100
AcDbLine
  10
149.2
  20
-1.088931675711
  30
0
  11
149.28
  21
-1.134319941827
  31
0
  0
LINE
  5
2af
  100
AcDbEntity
  8
1
  100
AcDbLine
  10
149.28
  20
-1.134319941827
  30
0
  11
149.36
  21
-1.179640989315
  31
0
  0
LINE
  5
2b0
  100
AcDbEntity
  8
1
  100
AcDbLine
  10
149.36
  20
-1.179640989315
  30
0
  11
149.44
  21
-1.224892132497
  31
0
  0
LINE
  5
2b1
  100
AcDbEntity
  8
1
  100
AcDbLine
  10
149.44
  20
-1.224892132497
  30
0
  11
149.52
  21
-1.270070689837
  31
0
  0
LINE
  5
2b2
  100
AcDbEntity
  8
1
  100
AcDbLine
  10
149.52
  20
-1.270070689837
  30
0
  11
149.6
  21
-1.315173984101
  31
0
  0
LINE
  5
2b3
  100
AcDbEntity
  8
1
  100
AcDbLine
  10
149.6
  20
-1.315173984101
  30
0
  11
149.68
  21
-1.360199342513
  31
0
  0
LINE
  5
2b4
  100
AcDbEntity
  8
1
  100
AcDbLine
  10
149.68
  20
-1.360199342513
  30
0
  11
149.76
  21
-1.405144096918
  31
0
  0
LINE
  5
2b5
  100
AcDbEntity
  8
1
  100
AcDbLine
  10
149.76
  20
-1.405144096918
  30
0
  11
149.84
  21
-1.450005583936
  31
0
  0
LINE
  5
2b6
  100
AcDbEntity
  8
1
  100
AcDbLine
  10
149.84
  20
-1.450005583936
  30
0
  11
149.92
  21
-1.494781145121
  31
0
  0
LINE
  5
2b7
  100
AcDbEntity
  8
1
  100
AcDbLine
  10
149.92
  20
-1.494781145121
  30
0
  11
150
  21
-1.53946812712
  31
0
  0
LINE
  5
2b8
  100
AcDbEntity
  8
1
  100
AcDbLine
  10
150
  20
-1.53946812712
  30
0
  11
150.08
  21
-1.584063881829
  31
0
  0
LINE
  5
2b9
  100
AcDbEntity
  8
1
  100
AcDbLine
  10
150.08
  20
-1.584063881829
  30
0
  11
150.16
  21
-1.628565766549
  31
0
  0
LINE
  5
2ba
  100
AcDbEntity
  8
1
  100
AcDbLine
  10
150.16
  20
-1.628565766549
  30
0
  11
150.24
  21
-1.672971144145
  31
0
  0
LINE
  5
2bb
  100
AcDbEntity
  8
1
  100
AcDbLine
  10
150.24
  20
-1.672971144145
  30
0
  11
150.32
  21
-1.717277383199
  31
0
  0
LINE
  5
2bc
  100
AcDbEntity
  8
1
  100
AcDbLine
  10
150.32
  20
-1.717277383199
  30
0
  11
150.4
  21
-1.761481858171
  31
0
  0
LINE
  5
2bd
  100
AcDbEntity
  8
1
  100
AcDbLine
  10
150.4
  20
-1.761481858171
  30
0
  11
150.48
  21
-1.805581949548
  31
0
  0
LINE
  5
2be
  100
AcDbEntity
  8
1
  100
AcDbLine
  10
150.48
  20
-1.805581949548
  30
0
  11
150.56
  21
-1.849575044004
  31
0
  0
LINE
  5
2bf
  100
AcDbEntity
  8
1
  100
AcDbLine
  10
150.56
  20
-1.849575044004
  30
0
  11
150.64
  21
-1.893458534554
  31
0
  0
LINE
  5
2c0
  100
AcDbEntity
  8
1
  100
AcDbLine
  10
150.64
  20
-1.893458534554
  30
0
  11
150.72
  21
-1.937229820709
  31
0
  0
LINE
  5
2c1
  100
AcDbEntity
  8
1
  100
AcDbLine
  10
150.72
  20
-1.937229820709
  30
0
  11
150.8
  21
-1.980886308626
  31
0
  0
LINE
  5
2c2
  100
AcDbEntity
  8
1
  100
AcDbLine
  10
150.8
  20
-1.980886308626
  30
0
  11
150.88
  21
-2.024425411267
  31
0
  0
LINE
  5
2c3
  100
AcDbEntity
  8
1
  100
AcDbLine
  10
150.88
  20
-2.024425411267
  30
0
  11
150.96
  21
-2.067844548551
  31
0
  0
LINE
  5
2c4
  100
AcDbEntity
  8
1
  100
AcDbLine
  10
150.96
  20
-2.067844548551
  30
0
  11
151.04
  21
-2.111141147504
  31
0
  0
LINE
  5
2c5
  100
AcDbEntity
  8
1
  100
AcDbLine
  10
151.04
  20
-2.111141147504
  30
0
  11
151.12
  21
-2.154312642413
  31
0
  0
LINE
  5
2c6
  100
AcDbEntity
  8
1
  100
AcDbLine
  10
151.12
  20
-2.154312642413
  30
0
  11
151.2
  21
-2.197356474982
  31
0
  0
LINE
  5
2c7
  100
AcDbEntity
  8
1
  100
AcDbLine
  10
151.2
  20
-2.197356474982
  30
0
  11
151.28
  21
-2.240270094477
  31
0
  0
LINE
  5
2c8
  100
AcDbEntity
  8
1
  100
AcDbLine
  10
151.28
  20
-2.240270094477
  30
0
  11
151.36
  21
-2.283050957881
  31
0
  0
LINE
  5
2c9
  100
AcDbEntity
  8
1
  100
AcDbLine
  10
151.36
  20
-2.283050957881
  30
0
  11
151.44
  21
-2.325696530044
  31
0
  0
LINE
  5
2ca
  100
AcDbEntity
  8
1
  100
AcDbLine
  10
151.44
  20
-2.325696530044
  30
0
  11
151.52
  21
-2.368204283835
  31
0
  0
LINE
  5
2cb
  100
AcDbEntity
  8
1
  100
AcDbLine
  10
151.52
  20
-2.368204283835
  30
0
  11
151.6
  21
-2.410571700287
  31
0
  0
LINE
  5
2cc
  100
AcDbEntity
  8
1
  100
AcDbLine
  10
151.6
  20
-2.410571700287
  30
0
  11
151.68
  21
-2.452796268751
  31
0
  0
LINE
  5
2cd
  100
AcDbEntity
  8
1
  100
AcDbLine
  10
151.68
  20
-2.452796268751
  30
0
  11
151.76
  21
-2.494875487042
  31
0
  0
LINE
  5
2ce
  100
AcDbEntity
  8
1
  100
AcDbLine
  10
151.76
  20
-2.494875487042
  30
0
  11
151.84
  21
-2.536806861591
  31
0
  0
LINE
  5
2cf
  100
AcDbEntity
  8
1
  100
AcDbLine
  10
151.84
  20
-2.536806861591
  30
0
  11
151.92
  21
-2.578587907586
  31
0
  0
LINE
  5
2d0
  100
AcDbEntity
  8
1
  100
AcDbLine
  10
151.92
  20
-2.578587907586
  30
0
  11
152
  21
-2.620216149127
  31
0
  0
LINE
  5
2d1
  100
AcDbEntity
  8
1
  100
AcDbLine
  10
152
  20
-2.620216149127
  30
0
  11
152.08
  21
-2.661689119366
  31
0
  0
LINE
  5
2d2
  100
AcDbEntity
  8
1
  100
AcDbLine
  10
152.08
  20
-2.661689119366
  30
0
  11
152.16
  21
-2.703004360659
  31
0
  0
LINE
  5
2d3
  100
AcDbEntity
  8
1
  100
AcDbLine
  10
152.16
  20
-2.703004360659
  30
0
  11
152.24
  21
-2.744159424706
  31
0
  0
LINE
  5
2d4
  100
AcDbEntity
  8
1
  100
AcDbLine
  10
152.24
  20
-2.744159424706
  30
0
  11
152.32
  21
-2.785151872702
  31
0
  0
LINE
  5
2d5
  100
AcDbEntity
  8
1
  100
AcDbLine
  10
152.32
  20
-2.785151872702
  30
0
  11
152.4
  21
-2.825979275476
  31
0
  0
LINE
  5
2d6
  100
AcDbEntity
  8
1
  100
AcDbLine
  10
152.4
  20
-2.825979275476
  30
0
  11
152.48
  21
-2.866639213638
  31
0
  0
LINE
  5
2d7
  100
AcDbEntity
  8
1
  100
AcDbLine
  10
152.48
  20
-2.866639213638
  30
0
  11
152.56
  21
-2.907129277723
  31
0
  0
LINE
  5
2d8
  100
AcDbEntity
  8
1
  100
AcDbLine
  10
152.56
  20
-2.907129277723
  30
0
  11
152.64
  21
-2.947447068331
  31
0
  0
LINE
  5
2d9
  100
AcDbEntity
  8
1
  100
AcDbLine
  10
152.64
  20
-2.947447068331
  30
0
  11
152.72
  21
-2.987590196271
  31
0
  0
LINE
  5
2da
  100
AcDbEntity
  8
1
  100
AcDbLine
  10
152.72
  20
-2.987590196271
  30
0
  11
152.8
  21
-3.027556282704
  31
0
  0
LINE
  5
2db
  100
AcDbEntity
  8
1
  100
AcDbLine
  10
152.8
  20
-3.027556282704
  30
0
  11
152.88
  21
-3.06734295928
  31
0
  0
LINE
  5
2dc
  100
AcDbEntity
  8
1
  100
AcDbLine
  10
152.88
  20
-3.06734295928
  30
0
  11
152.96
  21
-3.106947868282
  31
0
  0
LINE
  5
2dd
  100
AcDbEntity
  8
1
  100
AcDbLine
  10
152.96
  20
-3.106947868282
  30
0
  11
153.04
  21
-3.146368662764
  31
0
  0
LINE
  5
2de
  100
AcDbEntity
  8
1
  100
AcDbLine
  10
153.04
  20
-3.146368662764
  30
0
  11
153.12
  21
-3.185603006691
  31
0
  0
LINE
  5
2df
  100
AcDbEntity
  8
1
  100
AcDbLine
  10
153.12
  20
-3.185603006691
  30
0
  11
153.2
  21
-3.224648575075
  31
0
  0
LINE
  5
2e0
  100
AcDbEntity
  8
1
  100
AcDbLine
  10
153.2
  20
-3.224648575075
  30
0
  11
153.28
  21
-3.263503054117
  31
0
  0
LINE
  5
2e1
  100
AcDbEntity
  8
1
  100
AcDbLine
  10
153.28
  20
-3.263503054117
  30
0
  11
153.36
  21
-3.30216414134
  31
0
  0
LINE
  5
2e2
  100
AcDbEntity
  8
1
  100
AcDbLine
  10
153.36
  20
-3.30216414134
  30
0
  11
153.44
  21
-3.340629545729
  31
0
  0
LINE
  5
2e3
  100
AcDbEntity
  8
1
  100
AcDbLine
  10
153.44
  20
-3.340629545729
  30
0
  11
153.52
  21
-3.378896987863
  31
0
  0
LINE
  5
2e4
  100
AcDbEntity
  8
1
  100
AcDbLine
  10
153.52
  20
-3.378896987863
  30
0
  11
153.6
  21
-3.416964200053
  31
0
  0
LINE
  5
2e5
  100
AcDbEntity
  8
1
  100
AcDbLine
  10
153.6
  20
-3.416964200053
  30
0
  11
153.68
  21
-3.454828926476
  31
0
  0
LINE
  5
2e6
  100
AcDbEntity
  8
1
  100
AcDbLine
  10
153.68
  20
-3.454828926476
  30
0
  11
153.76
  21
-3.492488923306
  31
0
  0
LINE
  5
2e7
  100
AcDbEntity
  8
1
  100
AcDbLine
  10
153.76
  20
-3.492488923306
  30
0
  11
153.84
  21
-3.529941958853
  31
0
  0
LINE
  5
2e8
  100
AcDbEntity
  8
1
  100
AcDbLine
  10
153.84
  20
-3.529941958853
  30
0
  11
153.92
  21
-3.567185813686
  31
0
  0
LINE
  5
2e9
  100
AcDbEntity
  8
1
  100
AcDbLine
  10
153.92
  20
-3.567185813686
  30
0
  11
154
  21
-3.604218280774
  31
0
  0
LINE
  5
2ea
  100
AcDbEntity
  8
1
  100
AcDbLine
  10
154
  20
-3.604218280774
  30
0
  11
154.08
  21
-3.640626969354
  31
0
  0
LINE
  5
2eb
  100
AcDbEntity
  8
1
  100
AcDbLine
  10
154.08
  20
-3.640626969354
  30
0
  11
154.16
  21
-3.675988301351
  31
0
  0
LINE
  5
2ec
  100
AcDbEntity
  8
1
  100
AcDbLine
  10
154.16
  20
-3.675988301351
  30
0
  11
154.24
  21
-3.710283174017
  31
0
  0
LINE
  5
2ed
  100
AcDbEntity
  8
1
  100
AcDbLine
  10
154.24
  20
-3.710283174017
  30
0
  11
154.32
  21
-3.743492308221
  31
0
  0
LINE
  5
2ee
  100
AcDbEntity
  8
1
  100
AcDbLine
  10
154.32
  20
-3.743492308221
  30
0
  11
154.4
  21
-3.775596233989
  31
0
  0
LINE
  5
2ef
  100
AcDbEntity
  8
1
  100
AcDbLine
  10
154.4
  20
-3.775596233989
  30
0
  11
154.48
  21
-3.806575274949
  31
0
  0
LINE
  5
2f0
  100
AcDbEntity
  8
1
  100
AcDbLine
  10
154.48
  20
-3.806575274949
  30
0
  11
154.56
  21
-3.836409531598
  31
0
  0
LINE
  5
2f1
  100
AcDbEntity
  8
1
  100
AcDbLine
  10
154.56
  20
-3.836409531598
  30
0
  11
154.64
  21
-3.865078863322
  31
0
  0
LINE
  5
2f2
  100
AcDbEntity
  8
1
  100
AcDbLine
  10
154.64
  20
-3.865078863322
  30
0
  11
154.72
  21
-3.892562869043
  31
0
  0
LINE
  5
2f3
  100
AcDbEntity
  8
1
  100
AcDbLine
  10
154.72
  20
-3.892562869043
  30
0
  11
154.8
  21
-3.91884086641
  31
0
  0
LINE
  5
2f4
  100
AcDbEntity
  8
1
  100
AcDbLine
  10
154.8
  20
-3.91884086641
  30
0
  11
154.88
  21
-3.943891869403
  31
0
  0
LINE
  5
2f5
  100
AcDbEntity
  8
1
  100
AcDbLine
  10
154.88
  20
-3.943891869403
  30
0
  11
154.96
  21
-3.967694564213
  31
0
  0
LINE
  5
2f6
  100
AcDbEntity
  8
1
  100
AcDbLine
  10
154.96
  20
-3.967694564213
  30
0
  11
155.04
  21
-3.990227283259
  31
0
  0
LINE
  5
2f7
  100
AcDbEntity
  8
1
  100
AcDbLine
  10
155.04
  20
-3.990227283259
  30
0
  11
155.12
  21
-4.011467977173
  31
0
  0
LINE
  5
2f8
  100
AcDbEntity
  8
1
  100
AcDbLine
  10
155.12
  20
-4.011467977173
  30
0
  11
155.2
  21
-4.031394184568
  31
0
  0
LINE
  5
2f9
  100
AcDbEntity
  8
1
  100
AcDbLine
  10
155.2
  20
-4.031394184568
  30
0
  11
155.28
  21
-4.049982999393
  31
0
  0
LINE
  5
2fa
  100
AcDbEntity
  8
1
  100
AcDbLine
  10
155.28
  20
-4.049982999393
  30
0
  11
155.36
  21
-4.067211035642
  31
0
  0
LINE
  5
2fb
  100
AcDbEntity
  8
1
  100
AcDbLine
  10
155.36
  20
-4.067211035642
  30
0
  11
155.44
  21
-4.083054389164
  31
0
  0
LINE
  5
2fc
  100
AcDbEntity
  8
1
  100
AcDbLine
  10
155.44
  20
-4.083054389164
  30
0
  11
155.52
  21
-4.097488596291
  31
0
  0
LINE
  5
2fd
  100
AcDbEntity
  8
1
  100
AcDbLine
  10
155.52
  20
-4.097488596291
  30
0
  11
155.6
  21
-4.110488588975
  31
0
  0
LINE
  5
2fe
  100
AcDbEntity
  8
1
  100
AcDbLine
  10
155.6
  20
-4.110488588975
  30
0
  11
155.68
  21
-4.12202864606
  31
0
  0
LINE
  5
2ff
  100
AcDbEntity
  8
1
  100
AcDbLine
  10
155.68
  20
-4.12202864606
  30
0
  11
155.76
  21
-4.132082340308
  31
0
  0
LINE
  5
300
  100
AcDbEntity
  8
1
  100
AcDbLine
  10
155.76
  20
-4.132082340308
  30
0
  11
155.84
  21
-4.140622480714
  31
0
  0
LINE
  5
301
  100
AcDbEntity
  8
1
  100
AcDbLine
  10
155.84
  20
-4.140622480714
  30
0
  11
155.92
  21
-4.147621049606
  31
0
  0
LINE
  5
302
  100
AcDbEntity
  8
1
  100
AcDbLine
  10
155.92
  20
-4.147621049606
  30
0
  11
156
  21
-4.153049133953
  31
0
  0
LINE
  5
303
  100
AcDbEntity
  8
1
  100
AcDbLine
  10
156
  20
-4.153049133953
  30
0
  11
156.08
  21
-4.156876850224
  31
0
  0
LINE
  5
304
  100
AcDbEntity
  8
1
  100
AcDbLine
  10
156.08
  20
-4.156876850224
  30
0
  11
156.16
  21
-4.159073262059
  31
0
  0
LINE
  5
305
  100
AcDbEntity
  8
1
  100
AcDbLine
  10
156.16
  20
-4.159073262059
  30
0
  11
156.24
  21
-4.159606289895
  31
0
  0
LINE
  5
306
  100
AcDbEntity
  8
1
  100
AcDbLine
  10
156.24
  20
-4.159606289895
  30
0
  11
156.32
  21
-4.158442611593
  31
0
  0
LINE
  5
307
  100
AcDbEntity
  8
1
  100
AcDbLine
  10
156.32
  20
-4.158442611593
  30
0
  11
156.4
  21
-4.155547552931
  31
0
  0
LINE
  5
308
  100
AcDbEntity
  8
1
  100
AcDbLine
  10
156.4
  20
-4.155547552931
  30
0
  11
156.48
  21
-4.150884966713
  31
0
  0
LINE
  5
309
  100
AcDbEntity
  8
1
  100
AcDbLine
  10
156.48
  20
-4.150884966713
  30
0
  11
156.56
  21
-4.144417098994
  31
0
  0
LINE
  5
30a
  100
AcDbEntity
  8
1
  100
AcDbLine
  10
156.56
  20
-4.144417098994
  30
0
  11
156.64
  21
-4.13610444073
  31
0
  0
LINE
  5
30b
  100
AcDbEntity
  8
1
  100
AcDbLine
  10
156.64
  20
-4.13610444073
  30
0
  11
156.72
  21
-4.125905562883
  31
0
  0
LINE
  5
30c
  100
AcDbEntity
  8
1
  100
AcDbLine
  10
156.72
  20
-4.125905562883
  30
0
  11
156.8
  21
-4.113776932647
  31
0
  0
LINE
  5
30d
  100
AcDbEntity
  8
1
  100
AcDbLine
  10
156.8
  20
-4.113776932647
  30
0
  11
156.88
  21
-4.099672708128
  31
0
  0
LINE
  5
30e
  100
AcDbEntity
  8
1
  100
AcDbLine
  10
156.88
  20
-4.099672708128
  30
0
  11
156.96
  21
-4.083544508301
  31
0
  0
LINE
  5
30f
  100
AcDbEntity
  8
1
  100
AcDbLine
  10
156.96
  20
-4.083544508301
  30
0
  11
157.04
  21
-4.065341154515
  31
0
  0
LINE
  5
310
  100
AcDbEntity
  8
1
  100
AcDbLine
  10
157.04
  20
-4.065341154515
  30
0
  11
157.12
  21
-4.045008379129
  31
0
  0
LINE
  5
311
  100
AcDbEntity
  8
1
  100
AcDbLine
  10
157.12
  20
-4.045008379129
  30
0
  11
157.2
  21
-4.022488496048
  31
0
  0
LINE
  5
312
  100
AcDbEntity
  8
1
  100
AcDbLine
  10
157.2
  20
-4.022488496048
  30
0
  11
157.28
  21
-3.99772002686
  31
0
  0
LINE
  5
313
  100
AcDbEntity
  8
1
  100
AcDbLine
  10
157.28
  20
-3.99772002686
  30
0
  11
157.36
  21
-3.970637275076
  31
0
  0
LINE
  5
314
  100
AcDbEntity
  8
1
  100
AcDbLine
  10
157.36
  20
-3.970637275076
  30
0
  11
157.44
  21
-3.941169839355
  31
0
  0
LINE
  5
315
  100
AcDbEntity
  8
1
  100
AcDbLine
  10
157.44
  20
-3.941169839355
  30
0
  11
157.52
  21
-3.909242054702
  31
0
  0
LINE
  5
316
  100
AcDbEntity
  8
1
  100
AcDbLine
  10
157.52
  20
-3.909242054702
  30
0
  11
157.6
  21
-3.874772348142
  31
0
  0
LINE
  5
317
  100
AcDbEntity
  8
1
  100
AcDbLine
  10
157.6
  20
-3.874772348142
  30
0
  11
157.68
  21
-3.837672492306
  31
0
  0
LINE
  5
318
  100
AcDbEntity
  8
1
  100
AcDbLine
  10
157.68
  20
-3.837672492306
  30
0
  11
157.76
  21
-3.797846736416
  31
0
  0
LINE
  5
319
  100
AcDbEntity
  8
1
  100
AcDbLine
  10
157.76
  20
-3.797846736416
  30
0
  11
157.84
  21
-3.75519078909
  31
0
  0
LINE
  5
31a
  100
AcDbEntity
  8
1
  100
AcDbLine
  10
157.84
  20
-3.75519078909
  30
0
  11
157.92
  21
-3.709590620826
  31
0
  0
LINE
  5
31b
  100
AcDbEntity
  8
1
  100
AcDbLine
  10
157.92
  20
-3.709590620826
  30
0
  11
158
  21
-3.660921045422
  31
0
  0
LINE
  5
31c
  100
AcDbEntity
  8
1
  100
AcDbLine
  10
158
  20
-3.660921045422
  30
0
  11
158.08
  21
-3.609044028238
  31
0
  0
LINE
  5
31d
  100
AcDbEntity
  8
1
  100
AcDbLine
  10
158.08
  20
-3.609044028238
  30
0
  11
158.16
  21
-3.553806653994
  31
0
  0
LINE
  5
31e
  100
AcDbEntity
  8
1
  100
AcDbLine
  10
158.16
  20
-3.553806653994
  30
0
  11
158.24
  21
-3.495038666279
  31
0
  0
LINE
  5
31f
  100
AcDbEntity
  8
1
  100
AcDbLine
  10
158.24
  20
-3.495038666279
  30
0
  11
158.32
  21
-3.43254946275
  31
0
  0
LINE
  5
320
  100
AcDbEntity
  8
1
  100
AcDbLine
  10
158.32
  20
-3.43254946275
  30
0
  11
158.4
  21
-3.366124390918
  31
0
  0
LINE
  5
321
  100
AcDbEntity
  8
1
  100
AcDbLine
  10
158.4
  20
-3.366124390918
  30
0
  11
158.48
  21
-3.295520134156
  31
0
  0
LINE
  5
322
  100
AcDbEntity
  8
1
  100
AcDbLine
  10
158.48
  20
-3.295520134156
  30
0
  11
158.56
  21
-3.220458898364
  31
0
  0
LINE
  5
323
  100
AcDbEntity
  8
1
  100
AcDbLine
  10
158.56
  20
-3.220458898364
  30
0
  11
158.64
  21
-3.140620993826
  31
0
  0
LINE
  5
324
  100
AcDbEntity
  8
1
  100
AcDbLine
  10
158.64
  20
-3.140620993826
  30
0
  11
158.72
  21
-3.055635233877
  31
0
  0
LINE
  5
325
  100
AcDbEntity
  8
1
  100
AcDbLine
  10
158.72
  20
-3.055635233877
  30
0
  11
158.8
  21
-2.965066307749
  31
0
  0
LINE
  5
326
  100
AcDbEntity
  8
1
  100
AcDbLine
  10
158.8
  20
-2.965066307749
  30
0
  11
158.88
  21
-2.868397870702
  31
0
  0
LINE
  5
327
  100
AcDbEntity
  8
1
  100
AcDbLine
  10
158.88
  20
-2.868397870702
  30
0
  11
158.96
  21
-2.765009425552
  31
0
  0
LINE
  5
328
  100
AcDbEntity
  8
1
  100
AcDbLine
  10
158.96
  20
-2.765009425552
  30
0
  11
159.04
  21
-2.654143952262
  31
0
  0
LINE
  5
329
  100
AcDbEntity
  8
1
  100
AcDbLine
  10
159.04
  20
-2.654143952262
  30
0
  11
159.12
  21
-2.534861301617
  31
0
  0
LINE
  5
32a
  100
AcDbEntity
  8
1
  100
AcDbLine
  10
159.12
  20
-2.534861301617
  30
0
  11
159.2
  21
-2.405968841148
  31
0
  0
LINE
  5
32b
  100
AcDbEntity
  8
1
  100
AcDbLine
  10
159.2
  20
-2.405968841148
  30
0
  11
159.28
  21
-2.265914071067
  31
0
  0
LINE
  5
32c
  100
AcDbEntity
  8
1
  100
AcDbLine
  10
159.28
  20
-2.265914071067
  30
0
  11
159.36
  21
-2.112610053229
  31
0
  0
LINE
  5
32d
  100
AcDbEntity
  8
1
  100
AcDbLine
  10
159.36
  20
-2.112610053229
  30
0
  11
159.44
  21
-1.943133655424
  31
0
  0
LINE
  5
32e
  100
AcDbEntity
  8
1
  100
AcDbLine
  10
159.44
  20
-1.943133655424
  30
0
  11
159.52
  21
-1.753160564198
  31
0
  0
LINE
  5
32f
  100
AcDbEntity
  8
1
  100
AcDbLine
  10
159.52
  20
-1.753160564198
  30
0
  11
159.6
  21
-1.535785679877
  31
0
  0
LINE
  5
330
  100
AcDbEntity
  8
1
  100
AcDbLine
  10
159.6
  20
-1.535785679877
  30
0
  11
159.68
  21
-1.278635289897
  31
0
  0
LINE
  5
331
  100
AcDbEntity
  8
1
  100
AcDbLine
  10
159.68
  20
-1.278635289897
  30
0
  11
159.76
  21
-0.95467919111
  31
0
  0
LINE
  5
332
  100
AcDbEntity
  8
1
  100
AcDbLine
  10
159.76
  20
-0.95467919111
  30
0
  11
159.84
  21
-0.470287372712
  31
0
  0
LINE
  5
333
  100
AcDbEntity
  8
1
  100
AcDbLine
  10
159.84
  20
-0.470287372712
  30
0
  11
159.84
  21
1.376372042727
  31
0
  0
LINE
  5
334
  100
AcDbEntity
  8
1
  100
AcDbLine
  10
159.84
  20
1.376372042727
  30
0
  11
159.84
  21
-0.470287372712
  31
0
  0
LINE
  5
335
  100
AcDbEntity
  8
SK1
  100
AcDbLine
  10
77.761
  20
7.999938241853
  30
0
  11
77.760769515459
  21
8
  31
0
  0
LINE
  5
336
  100
AcDbEntity
  8
SK1
  100
AcDbLine
  10
77.760769515459
  20
8
  30
0
  11
1
  21
8
  31
0
  0
LINE
  5
337
  100
AcDbEntity
  8
SK1
  100
AcDbLine
  10
1
  20
8
  30
0
  11
0
  21
7
  31
0
  0
LINE
  5
338
  100
AcDbEntity
  8
SK1
  100
AcDbLine
  10
77.761
  20
-7.999938241853
  30
0
  11
77.760769515459
  21
-8
  31
0
  0
LINE
  5
339
  100
AcDbEntity
  8
SK1
  100
AcDbLine
  10
77.760769515459
  20
-8
  30
0
  11
1
  21
-8
  31
0
  0
LINE
  5
33a
  100
AcDbEntity
  8
SK1
  100
AcDbLine
  10
1
  20
-8
  30
0
  11
0
  21
-7
  31
0
  0
LINE
  5
33b
  100
AcDbEntity
  8
SK1
  100
AcDbLine
  10
77.760769515459
  20
8
  30
0
  11
77.760769515459
  21
-8
  31
0
  0
LINE
  5
33c
  100
AcDbEntity
  8
SK1
  100
AcDbLine
  10
77.760769515459
  20
8
  30
0
  11
77.760769515459
  21
-8
  31
0
  0
LINE
  5
33d
  100
AcDbEntity
  8
SK1
  100
AcDbLine
  10
1
  20
8
  30
0
  11
1
  21
-8
  31
0
  0
LINE
  5
33e
  100
AcDbEntity
  8
SK1
  100
AcDbLine
  10
0
  20
7
  30
0
  11
0
  21
-7
  31
0
  0
LINE
  5
33f
  100
AcDbEntity
  8
SK1
  100
AcDbLine
  10
78.8011
  20
1.40688
  30
0
  11
79.1679
  21
1.0401
  31
0
  0
LINE
  5
340
  100
AcDbEntity
  8
SK1
  100
AcDbLine
  10
78.2938
  20
1.66666
  30
0
  11
79.4277
  21
0.532833
  31
0
  0
LINE
  5
341
  100
AcDbEntity
  8
SK1
  100
AcDbLine
  10
77.9764
  20
1.73657
  30
0
  11
79.4976
  21
0.215434
  31
0
  0
LINE
  5
342
  100
AcDbEntity
  8
SK1
  100
AcDbLine
  10
77.761
  20
1.70452
  30
0
  11
79.4655
  21
0
  31
0
  0
LINE
  5
343
  100
AcDbEntity
  8
SK1
  100
AcDbLine
  10
77.761
  20
1.45703
  30
0
  11
79.218
  21
0
  31
0
  0
LINE
  5
344
  100
AcDbEntity
  8
SK1
  100
AcDbLine
  10
77.761
  20
1.20954
  30
0
  11
78.9705
  21
0
  31
0
  0
LINE
  5
345
  100
AcDbEntity
  8
SK1
  100
AcDbLine
  10
77.761
  20
0.962054
  30
0
  11
78.7231
  21
0
  31
0
  0
LINE
  5
346
  100
AcDbEntity
  8
SK1
  100
AcDbLine
  10
77.761
  20
0.714566
  30
0
  11
78.4756
  21
0
  31
0
  0
LINE
  5
347
  100
AcDbEntity
  8
SK1
  100
AcDbLine
  10
77.761
  20
0.467079
  30
0
  11
78.2281
  21
0
  31
0
  0
LINE
  5
348
  100
AcDbEntity
  8
SK1
  100
AcDbLine
  10
77.761
  20
0.219592
  30
0
  11
77.9806
  21
0
  31
0
  0
LINE
  5
349
  100
AcDbEntity
  8
SK1
  100
AcDbLine
  10
77.761
  20
1.70452
  30
0
  11
77.8051
  21
1.74861
  31
0
  0
LINE
  5
34a
  100
AcDbEntity
  8
SK1
  100
AcDbLine
  10
77.761
  20
1.45703
  30
0
  11
78.032
  21
1.72802
  31
0
  0
LINE
  5
34b
  100
AcDbEntity
  8
SK1
  100
AcDbLine
  10
77.761
  20
1.20954
  30
0
  11
78.2352
  21
1.6837
  31
0
  0
LINE
  5
34c
  100
AcDbEntity
  8
SK1
  100
AcDbLine
  10
77.761
  20
0.962054
  30
0
  11
78.4198
  21
1.62082
  31
0
  0
LINE
  5
34d
  100
AcDbEntity
  8
SK1
  100
AcDbLine
  10
77.761
  20
0.714566
  30
0
  11
78.5881
  21
1.54167
  31
0
  0
LINE
  5
34e
  100
AcDbEntity
  8
SK1
  100
AcDbLine
  10
77.761
  20
0.467079
  30
0
  11
78.742
  21
1.44812
  31
0
  0
LINE
  5
34f
  100
AcDbEntity
  8
SK1
  100
AcDbLine
  10
77.761
  20
0.219592
  30
0
  11
78.8836
  21
1.34216
  31
0
  0
LINE
  5
350
  100
AcDbEntity
  8
SK1
  100
AcDbLine
  10
77.7889
  20
0
  30
0
  11
79.0118
  21
1.22288
  31
0
  0
LINE
  5
351
  100
AcDbEntity
  8
SK1
  100
AcDbLine
  10
78.0364
  20
0
  30
0
  11
79.128
  21
1.09157
  31
0
  0
LINE
  5
352
  100
AcDbEntity
  8
SK1
  100
AcDbLine
  10
78.2839
  20
0
  30
0
  11
79.2317
  21
0.947822
  31
0
  0
LINE
  5
353
  100
AcDbEntity
  8
SK1
  100
AcDbLine
  10
78.5314
  20
0
  30
0
  11
79.3215
  21
0.790145
  31
0
  0
LINE
  5
354
  100
AcDbEntity
  8
SK1
  100
AcDbLine
  10
78.7788
  20
0
  30
0
  11
79.3974
  21
0.618517
  31
0
  0
LINE
  5
355
  100
AcDbEntity
  8
SK1
  100
AcDbLine
  10
79.0263
  20
0
  30
0
  11
79.457
  21
0.430696
  31
0
  0
LINE
  5
356
  100
AcDbEntity
  8
SK1
  100
AcDbLine
  10
79.2738
  20
0
  30
0
  11
79.4966
  21
0.222827
  31
0
  0
LINE
  5
357
  100
AcDbEntity
  8
SK1
  100
AcDbLine
  10
77.761
  20
0
  30
0
  11
77.761
  21
1.75
  31
0
  0
LINE
  5
358
  100
AcDbEntity
  8
SK1
  100
AcDbLine
  10
77.761
  20
0
  30
0
  11
79.511
  21
0
  31
0
  0
ARC
  5
359
  100
AcDbEntity
  8
SK1
  100
AcDbCircle
  10
77.761
  20
0
  30
0
  40
1.75
  100
AcDbArc
  50
0
  51
90
  0
ARC
  5
35a
  100
AcDbEntity
  8
SK1
  100
AcDbCircle
  10
77.761
  20
0
  30
0
  40
1.75
  100
AcDbArc
  50
90
  51
180
  0
LINE
  5
35b
  100
AcDbEntity
  8
SK1
  100
AcDbLine
  10
77.7331
  20
0
  30
0
  11
77.761
  21
-0.0278958
  31
0
  0
LINE
  5
35c
  100
AcDbEntity
  8
SK1
  100
AcDbLine
  10
77.4856
  20
0
  30
0
  11
77.761
  21
-0.275383
  31
0
  0
LINE
  5
35d
  100
AcDbEntity
  8
SK1
  100
AcDbLine
  10
77.2381
  20
0
  30
0
  11
77.761
  21
-0.522871
  31
0
  0
LINE
  5
35e
  100
AcDbEntity
  8
SK1
  100
AcDbLine
  10
76.9906
  20
0
  30
0
  11
77.761
  21
-0.770358
  31
0
  0
LINE
  5
35f
  100
AcDbEntity
  8
SK1
  100
AcDbLine
  10
76.7432
  20
0
  30
0
  11
77.761
  21
-1.01785
  31
0
  0
LINE
  5
360
  100
AcDbEntity
  8
SK1
  100
AcDbLine
  10
76.4957
  20
0
  30
0
  11
77.761
  21
-1.26533
  31
0
  0
LINE
  5
361
  100
AcDbEntity
  8
SK1
  100
AcDbLine
  10
76.2482
  20
0
  30
0
  11
77.761
  21
-1.51282
  31
0
  0
LINE
  5
362
  100
AcDbEntity
  8
SK1
  100
AcDbLine
  10
76.0113
  20
-0.0106419
  30
0
  11
77.7504
  21
-1.74967
  31
0
  0
LINE
  5
363
  100
AcDbEntity
  8
SK1
  100
AcDbLine
  10
76.0346
  20
-0.281429
  30
0
  11
77.4796
  21
-1.72637
  31
0
  0
LINE
  5
364
  100
AcDbEntity
  8
SK1
  100
AcDbLine
  10
76.1249
  20
-0.619147
  30
0
  11
77.1419
  21
-1.63613
  31
0
  0
LINE
  5
365
  100
AcDbEntity
  8
SK1
  100
AcDbLine
  10
76.0124
  20
-0.0440984
  30
0
  11
76.0565
  21
0
  31
0
  0
LINE
  5
366
  100
AcDbEntity
  8
SK1
  100
AcDbLine
  10
76.033
  20
-0.270991
  30
0
  11
76.304
  21
0
  31
0
  0
LINE
  5
367
  100
AcDbEntity
  8
SK1
  100
AcDbLine
  10
76.0773
  20
-0.474162
  30
0
  11
76.5515
  21
0
  31
0
  0
LINE
  5
368
  100
AcDbEntity
  8
SK1
  100
AcDbLine
  10
76.1402
  20
-0.658762
  30
0
  11
76.7989
  21
0
  31
0
  0
LINE
  5
369
  100
AcDbEntity
  8
SK1
  100
AcDbLine
  10
76.2193
  20
-0.827105
  30
0
  11
77.0464
  21
0
  31
0
  0
LINE
  5
36a
  100
AcDbEntity
  8
SK1
  100
AcDbLine
  10
76.3129
  20
-0.981039
  30
0
  11
77.2939
  21
0
  31
0
  0
LINE
  5
36b
  100
AcDbEntity
  8
SK1
  100
AcDbLine
  10
76.4188
  20
-1.12257
  30
0
  11
77.5414
  21
0
  31
0
  0
LINE
  5
36c
  100
AcDbEntity
  8
SK1
  100
AcDbLine
  10
76.5381
  20
-1.25077
  30
0
  11
77.761
  21
-0.0278958
  31
0
  0
LINE
  5
36d
  100
AcDbEntity
  8
SK1
  100
AcDbLine
  10
76.6694
  20
-1.36695
  30
0
  11
77.761
  21
-0.275383
  31
0
  0
LINE
  5
36e
  100
AcDbEntity
  8
SK1
  100
AcDbLine
  10
76.8132
  20
-1.47069
  30
0
  11
77.761
  21
-0.522871
  31
0
  0
LINE
  5
36f
  100
AcDbEntity
  8
SK1
  100
AcDbLine
  10
76.9709
  20
-1.5605
  30
0
  11
77.761
  21
-0.770358
  31
0
  0
LINE
  5
370
  100
AcDbEntity
  8
SK1
  100
AcDbLine
  10
77.1425
  20
-1.63636
  30
0
  11
77.761
  21
-1.01785
  31
0
  0
LINE
  5
371
  100
AcDbEntity
  8
SK1
  100
AcDbLine
  10
77.3303
  20
-1.69603
  30
0
  11
77.761
  21
-1.26533
  31
0
  0
LINE
  5
372
  100
AcDbEntity
  8
SK1
  100
AcDbLine
  10
77.5382
  20
-1.73565
  30
0
  11
77.761
  21
-1.51282
  31
0
  0
LINE
  5
373
  100
AcDbEntity
  8
SK1
  100
AcDbLine
  10
77.761
  20
0
  30
0
  11
76.011
  21
0
  31
0
  0
LINE
  5
374
  100
AcDbEntity
  8
SK1
  100
AcDbLine
  10
77.761
  20
-1.75
  30
0
  11
77.761
  21
0
  31
0
  0
ARC
  5
375
  100
AcDbEntity
  8
SK1
  100
AcDbCircle
  10
77.761
  20
0
  30
0
  40
1.75
  100
AcDbArc
  50
180
  51
270
  0
ARC
  5
376
  100
AcDbEntity
  8
SK1
  100
AcDbCircle
  10
77.761
  20
0
  30
0
  40
1.75
  100
AcDbArc
  50
270
  51
0
  0
LINE
  5
41f
  100
AcDbEntity
  8
NOCUT
  100
AcDbLine
  10
148
  20
0
  30
0
  11
148
  21
5.95
  31
0
  0
LINE
  5
420
  100
AcDbEntity
  8
NOCUT
  100
AcDbLine
  10
148
  20
5.95
  30
0
  11
135
  21
5.95
  31
0
  0
LINE
  5
421
  100
AcDbEntity
  8
NOCUT
  100
AcDbLine
  10
135
  20
5.95
  30
0
  11
80
  21
7.4
  31
0
  0
LINE
  5
422
  100
AcDbEntity
  8
NOCUT
  100
AcDbLine
  10
80
  20
7.4
  30
0
  11
77.761
  21
7.999938241853
  31
0
  0
LINE
  5
423
  100
AcDbEntity
  8
NOCUT
  100
AcDbLine
  10
77.761
  20
7.999938241853
  30
0
  11
77.761
  21
0
  31
0
  0
LINE
  5
424
  100
AcDbEntity
  8
NOCUT
  100
AcDbLine
  10
77.761
  20
0
  30
0
  11
148
  21
0
  31
0
  0
ARC
  5
425
  100
AcDbEntity
  8
CUT
  100
AcDbCircle
  10
154
  20
0
  30
0
  40
6
  100
AcDbArc
  50
0
  51
90
  0
LINE
  5
426
  100
AcDbEntity
  8
CUT
  100
AcDbLine
  10
154
  20
6
  30
0
  11
148
  21
6
  31
0
  0
LINE
  5
427
  100
AcDbEntity
  8
CUT
  100
AcDbLine
  10
148
  20
6
  30
0
  11
148
  21
0
  31
0
  0
LINE
  5
428
  100
AcDbEntity
  8
CUT
  100
AcDbLine
  10
148
  20
0
  30
0
  11
160
  21
0
  31
0
  0
LINE
  5
429
  100
AcDbEntity
  8
4
  100
AcDbLine
  10
77.761
  20
0
  30
0
  11
160
  21
0
  31
0
  0
LINE
  5
42a
  100
AcDbEntity
  8
SK4
  100
AcDbLine
  10
-1
  20
0
  30
0
  11
161
  21
0
  31
0
  0
LINE
  5
42b
  100
AcDbEntity
  8
INFTOTAL
  100
AcDbLine
  10
-24.3
  20
45.79504950495
  30
0
  11
202.3
  21
45.79504950495
  31
0
  0
LINE
  5
42c
  100
AcDbEntity
  8
INFTOTAL
  100
AcDbLine
  10
202.3
  20
45.79504950495
  30
0
  11
202.3
  21
-50.3
  31
0
  0
LINE
  5
42d
  100
AcDbEntity
  8
INFTOTAL
  100
AcDbLine
  10
202.3
  20
-50.3
  30
0
  11
-24.3
  21
-50.3
  31
0
  0
LINE
  5
42e
  100
AcDbEntity
  8
INFTOTAL
  100
AcDbLine
  10
-24.3
  20
-50.3
  30
0
  11
-24.3
  21
45.79504950495
  31
0
  0
ENDSEC
  0
SECTION
  2
OBJECTS
  0
DICTIONARY
  5
42f
  330
0
100
AcDbDictionary
281
    1
  3
ACAD_GROUP
  350
430
  0
DICTIONARY
  5
430
102
{ACAD_REACTORS
  330
42f
102
}
  330
42f
100
AcDbDictionary
281
    1
  0
ENDSEC
  0
EOF
