0
SECTION
2
HEADER
9
$ACADVER
1
AC1015
9
$ACADMAINTVER
70
20
9
$DWGCODEPAGE
3
ANSI_1252
9
$INSBASE
10
0.0
20
0.0
30
0.0
9
$EXTMIN
10
-150.000000000000
20
-105.000000000000
30
0.0
9
$EXTMAX
10
150.000000000000
20
105.000000000000
30
0.0
9
$LIMMIN
10
0.0
20
0.0
9
$LIMMAX
10
12.0
20
9.0
9
$ORTHOMODE
70
0
9
$REGENMODE
70
1
9
$FILLMODE
70
1
9
$QTEXTMODE
70
0
9
$MIRRTEXT
70
1
9
$LTSCALE
40
1.0
9
$ATTMODE
70
1
9
$TEXTSIZE
40
0.2
9
$TRACEWID
40
0.05
9
$TEXTSTYLE
7
Standard
9
$CLAYER
8
0
9
$CELTYPE
6
ByLayer
9
$CECOLOR
62
256
9
$CELTSCALE
40
1.0
9
$DISPSILH
70
0
9
$DIMSCALE
40
1.0
9
$DIMASZ
40
2.5
9
$DIMEXO
40
0.625
9
$DIMDLI
40
0.38
9
$DIMRND
40
0.0
9
$DIMDLE
40
0.0
9
$DIMEXE
40
1.25
9
$DIMTP
40
0.0
9
$DIMTM
40
0.000000001
9
$DIMTXT
40
2.5
9
$DIMCEN
40
0.09
9
$DIMTSZ
40
0.0
9
$DIMTOL
70
1
9
$DIMLIM
70
0
9
$DIMTIH
70
0
9
$DIMTOH
70
0
9
$DIMSE1
70
0
9
$DIMSE2
70
0
9
$DIMTAD
70
1
9
$DIMZIN
70
0
9
$DIMBLK
1
VDDIM_DEFAULT
9
$DIMASO
70
1
9
$DIMSHO
70
1
9
$DIMPOST
1

9
$DIMAPOST
1

9
$DIMALT
70
0
9
$DIMALTD
70
2
9
$DIMALTF
40
25.4
9
$DIMLFAC
40
1.00000000000000
9
$DIMTOFL
70
0
9
$DIMTVP
40
0.0
9
$DIMTIX
70
0
9
$DIMSOXD
70
0
9
$DIMSAH
70
0
9
$DIMBLK1
1

9
$DIMBLK2
1

9
$DIMSTYLE
2
BEM-ISBE
9
$DIMCLRD
70
0
9
$DIMCLRE
70
0
9
$DIMCLRT
70
0
9
$DIMTFAC
40
0.5
9
$DIMGAP
40
0.625
9
$DIMJUST
70
0
9
$DIMSD1
70
0
9
$DIMSD2
70
0
9
$DIMTOLJ
70
1
9
$DIMTZIN
70
0
9
$DIMALTZ
70
0
9
$DIMALTTZ
70
0
9
$DIMUPT
70
0
9
$DIMDEC
70
3
9
$DIMTDEC
70
3
9
$DIMALTU
70
2
9
$DIMALTTD
70
2
9
$DIMTXSTY
7
Standard
9
$DIMAUNIT
70
0
9
$DIMADEC
70
3
9
$DIMALTRND
40
0.0
9
$DIMAZIN
70
0
9
$DIMDSEP
70
46
9
$DIMATFIT
70
3
9
$DIMFRAC
70
0
9
$DIMLDRBLK
1

9
$DIMLUNIT
70
2
9
$DIMLWD
70
-2
9
$DIMLWE
70
-2
9
$DIMTMOVE
70
0
9
$LUNITS
70
2
9
$LUPREC
70
4
9
$SKETCHINC
40
0.1
9
$FILLETRAD
40
0.5
9
$AUNITS
70
0
9
$AUPREC
70
0
9
$MENU
1
.
9
$ELEVATION
40
0.0
9
$PELEVATION
40
0.0
9
$THICKNESS
40
0.0
9
$LIMCHECK
70
0
9
$CHAMFERA
40
0.5
9
$CHAMFERB
40
0.5
9
$CHAMFERC
40
1.0
9
$CHAMFERD
40
0.0
9
$SKPOLY
70
0
9
$TDCREATE
40
0.0
9
$TDUCREATE
40
0.0
9
$TDUPDATE
40
0.0
9
$TDUUPDATE
40
0.0
9
$TDINDWG
40
0.0
9
$TDUSRTIMER
40
0.0
9
$USRTIMER
70
1
9
$ANGBASE
50
0.0
9
$ANGDIR
70
0
9
$PDMODE
70
0
9
$PDSIZE
40
0.0
9
$PLINEWID
40
0.0
9
$SPLFRAME
70
0
9
$SPLINETYPE
70
6
9
$SPLINESEGS
70
8
9
$HANDSEED
5
10AB
9
$SURFTAB1
70
6
9
$SURFTAB2
70
6
9
$SURFTYPE
70
6
9
$SURFU
70
6
9
$SURFV
70
6
9
$UCSBASE
2

9
$UCSNAME
2

9
$UCSORG
10
0.0
20
0.0
30
0.0
9
$UCSXDIR
10
1.0
20
0.0
30
0.0
9
$UCSYDIR
10
0.0
20
1.0
30
0.0
9
$UCSORTHOREF
2

9
$UCSORTHOVIEW
70
0
9
$UCSORGTOP
10
0.0
20
0.0
30
0.0
9
$UCSORGBOTTOM
10
0.0
20
0.0
30
0.0
9
$UCSORGLEFT
10
0.0
20
0.0
30
0.0
9
$UCSORGRIGHT
10
0.0
20
0.0
30
0.0
9
$UCSORGFRONT
10
0.0
20
0.0
30
0.0
9
$UCSORGBACK
10
0.0
20
0.0
30
0.0
9
$PUCSBASE
2

9
$PUCSNAME
2

9
$PUCSORG
10
0.0
20
0.0
30
0.0
9
$PUCSXDIR
10
1.0
20
0.0
30
0.0
9
$PUCSYDIR
10
0.0
20
1.0
30
0.0
9
$PUCSORTHOREF
2

9
$PUCSORTHOVIEW
70
0
9
$PUCSORGTOP
10
0.0
20
0.0
30
0.0
9
$PUCSORGBOTTOM
10
0.0
20
0.0
30
0.0
9
$PUCSORGLEFT
10
0.0
20
0.0
30
0.0
9
$PUCSORGRIGHT
10
0.0
20
0.0
30
0.0
9
$PUCSORGFRONT
10
0.0
20
0.0
30
0.0
9
$PUCSORGBACK
10
0.0
20
0.0
30
0.0
9
$USERI1
70
0
9
$USERI2
70
0
9
$USERI3
70
0
9
$USERI4
70
0
9
$USERI5
70
0
9
$USERR1
40
0.0
9
$USERR2
40
0.0
9
$USERR3
40
0.0
9
$USERR4
40
0.0
9
$USERR5
40
0.0
9
$WORLDVIEW
70
1
9
$SHADEDGE
70
3
9
$SHADEDIF
70
70
9
$TILEMODE
70
1
9
$MAXACTVP
70
64
9
$PINSBASE
10
0.0
20
0.0
30
0.0
9
$PLIMCHECK
70
0
9
$PEXTMIN
10
1.000000000000000E+20
20
1.000000000000000E+20
30
1.000000000000000E+20
9
$PEXTMAX
10
-1.000000000000000E+20
20
-1.000000000000000E+20
30
-1.000000000000000E+20
9
$PLIMMIN
10
0.0
20
0.0
9
$PLIMMAX
10
12.0
20
9.0
9
$UNITMODE
70
0
9
$VISRETAIN
70
1
9
$PLINEGEN
70
0
9
$PSLTSCALE
70
1
9
$TREEDEPTH
70
3020
9
$CMLSTYLE
2
Standard
9
$CMLJUST
70
0
9
$CMLSCALE
40
1.0
9
$PROXYGRAPHICS
70
1
9
$MEASUREMENT
70
0
9
$CELWEIGHT
370
-1
9
$ENDCAPS
280
0
9
$JOINSTYLE
280
0
9
$LWDISPLAY
290
0
9
$INSUNITS
70
4
9
$HYPERLINKBASE
1

9
$STYLESHEET
1

9
$XEDIT
290
1
9
$CEPSNTYPE
380
0
9
$PSTYLEMODE
290
0
9
$FINGERPRINTGUID
2
{FAEB1C30-E019-11D5-929B-00C0DF256EC4}
9
$VERSIONGUID
2
{04C5C4E4-4947-4D90-8812-D401569E61F7}
9
$EXTNAMES
290
1
9
$PSVPSCALE
40
0.0
9
$OLESTARTUP
290
0
0
ENDSEC
0
SECTION
2
CLASSES
0
CLASS
1
ACDBDICTIONARYWDFLT
2
AcDbDictionaryWithDefault
3
ObjectDBX Classes
90
0
280
0
281
0
0
CLASS
1
ACDBPLACEHOLDER
2
AcDbPlaceHolder
3
ObjectDBX Classes
90
0
280
0
281
0
0
CLASS
1
LAYOUT
2
AcDbLayout
3
ObjectDBX Classes
90
0
280
0
281
0
0
CLASS
1
MATERIAL
2
AcDbMaterial
3
ObjectDBX Classes
90
1153
280
0
281
0
0
CLASS
1
VISUALSTYLE
2
AcDbVisualStyle
3
ObjectDBX Classes
90
4095
280
0
281
0
0
CLASS
1
TABLESTYLE
2
AcDbTableStyle
3
ObjectDBX Classes
90
4095
280
0
281
0
0
CLASS
1
SCALE
2
AcDbScale
3
ObjectDBX Classes
90
1153
280
0
281
0
0
CLASS
1
MLEADERSTYLE
2
AcDbMLeaderStyle
3
ACDB_MLEADERSTYLE_CLASS
90
4095
280
0
281
0
0
CLASS
1
DICTIONARYVAR
2
AcDbDictionaryVar
3
ObjectDBX Classes
90
0
280
0
281
0
0
CLASS
1
CELLSTYLEMAP
2
AcDbCellStyleMap
3
ObjectDBX Classes
90
1152
280
0
281
0
0
ENDSEC
0
SECTION
2
TABLES
0
TABLE
2
VPORT
5
24A
330
0
100
AcDbSymbolTable
70
1
0
VPORT
5
26B
330
24A
100
AcDbSymbolTableRecord
100
AcDbViewportTableRecord
2
*Active
70
0
10
0.0
20
0.0
11
1.0
21
1.0
12
0.000000000000000
22
0.000000000000000
13
0.0
23
0.0
14
10.0
24
10.0
15
10.0
25
10.0
16
0.0
26
0.0
36
1.0
17
0.0
27
0.0
37
0.0
40
210.000000000000
41
1.42857142857143
42
1.0
43
0.0
44
0.0
50
0.0
51
0.0000000000007958
71
0
72
100
73
1
74
3
75
0
76
0
77
0
78
1
281
0
65
1
110
0.0
120
0.0
130
0.0
111
1.0
121
0.0
131
0.0
112
0.0
122
1.0
132
0.0
79
0
146
0.0
0
ENDTAB
0
TABLE
2
LTYPE
5
247
330
0
100
AcDbSymbolTable
70
25
0
LTYPE
5
256
330
247
100
AcDbSymbolTableRecord
100
AcDbLinetypeTableRecord
2
ByBlock
70
0
3

72
65
73
0
40
0.0
0
LTYPE
5
257
330
247
100
AcDbSymbolTableRecord
100
AcDbLinetypeTableRecord
2
ByLayer
70
0
3

72
65
73
0
40
0.0
0
LTYPE
5
258
330
247
100
AcDbSymbolTableRecord
100
AcDbLinetypeTableRecord
2
Continuous
70
0
3
Solid line
72
65
73
0
40
0.0
0
LTYPE
5
273
330
247
100
AcDbSymbolTableRecord
100
AcDbLinetypeTableRecord
2
CENTER
70
0
3
Center ____ _ ____ _ ____ _ ____ _ ____ _ ____
72
65
73
4
40
2.0
49
1.25
74
0
49
-0.25
74
0
49
0.25
74
0
49
-0.25
74
0
0
LTYPE
5
274
330
247
100
AcDbSymbolTableRecord
100
AcDbLinetypeTableRecord
2
DASHDOT
70
0
3
Dashdot __ . __ . __ . __ . __ . __ . __ . __
72
65
73
4
40
1.0
49
0.5
74
0
49
-0.25
74
0
49
0.0
74
0
49
-0.25
74
0
0
LTYPE
5
275
330
247
100
AcDbSymbolTableRecord
100
AcDbLinetypeTableRecord
2
DASHED
70
0
3
Dashed __ __ __ __ __ __ __ __ __ __ __ __ __ _
72
65
73
2
40
0.75
49
0.5
74
0
49
-0.25
74
0
0
LTYPE
5
276
330
247
100
AcDbSymbolTableRecord
100
AcDbLinetypeTableRecord
2
HIDDEN
70
0
3
Hidden __ __ __ __ __ __ __ __ __ __ __ __ __ __
72
65
73
2
40
0.375
49
0.25
74
0
49
-0.125
74
0
0
LTYPE
5
277
330
247
100
AcDbSymbolTableRecord
100
AcDbLinetypeTableRecord
2
HIDDEN2
70
0
3
Hidden2 _ _ _ _ _ _ _ _ _ _ _ _ _ _ _ _ _
72
65
73
2
40
0.1875
49
0.125
74
0
49
-0.0625
74
0
0
LTYPE
5
278
330
247
100
AcDbSymbolTableRecord
100
AcDbLinetypeTableRecord
2
BORDER
70
0
3
Border __ __ . __ __ . __ __ . __ __ . __ __ .
72
65
73
6
40
1.75
49
0.5
74
0
49
-0.25
74
0
49
0.5
74
0
49
-0.25
74
0
49
0.0
74
0
49
-0.25
74
0
0
LTYPE
5
279
330
247
100
AcDbSymbolTableRecord
100
AcDbLinetypeTableRecord
2
BORDER2
70
0
3
Border2 __.__.__.__.__.__.__.__.__.__.__.
72
65
73
6
40
0.875
49
0.25
74
0
49
-0.125
74
0
49
0.25
74
0
49
-0.125
74
0
49
0.0
74
0
49
-0.125
74
0
0
LTYPE
5
27A
330
247
100
AcDbSymbolTableRecord
100
AcDbLinetypeTableRecord
2
BORDERX2
70
0
3
Borderx2  ____  ____  .  ____  ____  .  ___
72
65
73
6
40
3.5
49
1.0
74
0
49
-0.5
74
0
49
1.0
74
0
49
-0.5
74
0
49
0.0
74
0
49
-0.5
74
0
0
LTYPE
5
27B
330
247
100
AcDbSymbolTableRecord
100
AcDbLinetypeTableRecord
2
CENTER2
70
0
3
Center2  ___ _ ___ _ ___ _ ___ _ ___ _ ___
72
65
73
4
40
1.125
49
0.75
74
0
49
-0.125
74
0
49
0.125
74
0
49
-0.125
74
0
0
LTYPE
5
27C
330
247
100
AcDbSymbolTableRecord
100
AcDbLinetypeTableRecord
2
CENTERX2
70
0
3
Centerx2  ________  __  ________  __  _____
72
65
73
4
40
4.0
49
2.5
74
0
49
-0.5
74
0
49
0.5
74
0
49
-0.5
74
0
0
LTYPE
5
27D
330
247
100
AcDbSymbolTableRecord
100
AcDbLinetypeTableRecord
2
DASHDOT2
70
0
3
Dashdot2  _._._._._._._._._._._._._._._.
72
65
73
4
40
0.5
49
0.25
74
0
49
-0.125
74
0
49
0.0
74
0
49
-0.125
74
0
0
LTYPE
5
27E
330
247
100
AcDbSymbolTableRecord
100
AcDbLinetypeTableRecord
2
DASHDOTX2
70
0
3
Dashdotx2 ____  .  ____  .  ____  .  ___
72
65
73
4
40
2.0
49
1.0
74
0
49
-0.5
74
0
49
0.0
74
0
49
-0.5
74
0
0
LTYPE
5
27F
330
247
100
AcDbSymbolTableRecord
100
AcDbLinetypeTableRecord
2
DASHED2
70
0
3
Dashed2 _ _ _ _ _ _ _ _ _ _ _ _ _ _ _ _ _
72
65
73
2
40
0.375
49
0.25
74
0
49
-0.125
74
0
0
LTYPE
5
280
330
247
100
AcDbSymbolTableRecord
100
AcDbLinetypeTableRecord
2
DASHEDX2
70
0
3
Dashedx2 ____  ____  ____  ____  ____  ___
72
65
73
2
40
1.5
49
1.0
74
0
49
-0.5
74
0
0
LTYPE
5
281
330
247
100
AcDbSymbolTableRecord
100
AcDbLinetypeTableRecord
2
DIVIDE
70
0
3
Divide ____ . . ____ . . ____ . . ____ . . ____
72
65
73
6
40
1.25
49
0.5
74
0
49
-0.25
74
0
49
0.0
74
0
49
-0.25
74
0
49
0.0
74
0
49
-0.25
74
0
0
LTYPE
5
282
330
247
100
AcDbSymbolTableRecord
100
AcDbLinetypeTableRecord
2
DIVIDE2
70
0
3
Divide2 __..__..__..__..__..__..__..__.._
72
65
73
6
40
0.625
49
0.25
74
0
49
-0.125
74
0
49
0.0
74
0
49
-0.125
74
0
49
0.0
74
0
49
-0.125
74
0
0
LTYPE
5
283
330
247
100
AcDbSymbolTableRecord
100
AcDbLinetypeTableRecord
2
DIVIDEX2
70
0
3
Dividex2 ________  .  .  ________  .  .  _
72
65
73
6
40
2.5
49
1.0
74
0
49
-0.5
74
0
49
0.0
74
0
49
-0.5
74
0
49
0.0
74
0
49
-0.5
74
0
0
LTYPE
5
284
330
247
100
AcDbSymbolTableRecord
100
AcDbLinetypeTableRecord
2
DOT
70
0
3
Dot . . . . . . . . . . . . . . . . . . . . . . . .
72
65
73
2
40
0.25
49
0.0
74
0
49
-0.25
74
0
0
LTYPE
5
285
330
247
100
AcDbSymbolTableRecord
100
AcDbLinetypeTableRecord
2
DOT2
70
0
3
Dot2 ........................................
72
65
73
2
40
0.125
49
0.0
74
0
49
-0.125
74
0
0
LTYPE
5
286
330
247
100
AcDbSymbolTableRecord
100
AcDbLinetypeTableRecord
2
DOTX2
70
0
3
Dotx2 .  .  .  .  .  .  .  .  .  .  .  .  .  .
72
65
73
2
40
0.5
49
0.0
74
0
49
-0.5
74
0
0
LTYPE
5
287
330
247
100
AcDbSymbolTableRecord
100
AcDbLinetypeTableRecord
2
HIDDENX2
70
0
3
Hiddenx2 ____ ____ ____ ____ ____ ____ ____
72
65
73
2
40
0.75
49
0.5
74
0
49
-0.25
74
0
0
LTYPE
5
288
330
247
100
AcDbSymbolTableRecord
100
AcDbLinetypeTableRecord
2
PHANTOM
70
0
3
Phantom ______  __  __  ______  __  __  ______
72
65
73
6
40
2.5
49
1.25
74
0
49
-0.25
74
0
49
0.25
74
0
49
-0.25
74
0
49
0.25
74
0
49
-0.25
74
0
0
LTYPE
5
289
330
247
100
AcDbSymbolTableRecord
100
AcDbLinetypeTableRecord
2
PHANTOM2
70
0
3
Phantom2 ___ _ _ ___ _ _ ___ _ _ ___ _ _
72
65
73
6
40
1.25
49
0.625
74
0
49
-0.125
74
0
49
0.125
74
0
49
-0.125
74
0
49
0.125
74
0
49
-0.125
74
0
0
LTYPE
5
28A
330
247
100
AcDbSymbolTableRecord
100
AcDbLinetypeTableRecord
2
PHANTOMX2
70
0
3
Phantomx2 ____________    ____    ____   _
72
65
73
6
40
5.0
49
2.5
74
0
49
-0.5
74
0
49
0.5
74
0
49
-0.5
74
0
49
0.5
74
0
49
-0.5
74
0
0
ENDTAB
0
TABLE
2
LAYER
5
244
330
0
100
AcDbSymbolTable
70
6
0
LAYER
5
252
330
244
100
AcDbSymbolTableRecord
100
AcDbLayerTableRecord
2
0
70
0
62
7
6
Continuous
370
0
390
251
0
LAYER
5
23F
330
244
100
AcDbSymbolTableRecord
100
AcDbLayerTableRecord
2
Bemassung
70
0
 62
   7
6
Continuous
370
0
390
251
0
LAYER
5
240
330
244
100
AcDbSymbolTableRecord
100
AcDbLayerTableRecord
2
Rahmen
70
0
 62
   7
6
Continuous
370
0
390
251
0
LAYER
5
241
330
244
100
AcDbSymbolTableRecord
100
AcDbLayerTableRecord
2
Geo
70
0
 62
   7
6
Continuous
370
0
390
251
0
LAYER
5
33A
330
244
100
AcDbSymbolTableRecord
100
AcDbLayerTableRecord
2
Defpoints
70
0
62
7
6
Continuous
290
0
370
-3
390
251
0
LAYER
5
57E
330
244
100
AcDbSymbolTableRecord
100
AcDbLayerTableRecord
2
Text
70
0
 62
   7
6
Continuous
370
0
390
251
1001
AcAecLayerStandard
1000

1000

0
ENDTAB
0
TABLE
2
STYLE
5
245
330
0
100
AcDbSymbolTable
70
2
0
STYLE
5
253
330
245
100
AcDbSymbolTableRecord
100
AcDbTextStyleTableRecord
2
Standard
70
0
40
0.0
41
1.0
50
0.0
71
0
42
0.2
3
Arial
4

1001
ACAD
1000
Arial
1071
0
0
STYLE
5
132
330
245
100
AcDbSymbolTableRecord
100
AcDbTextStyleTableRecord
2
Beschriftung
70
0
40
0.0
41
1.0
50
0.0
71
0
42
0.2
3
Arial
4

1001
ACAD
1000
Arial
1071
0
1001
AcadAnnotative
1000
AnnotativeData
1070
1
1070
1
0
ENDTAB
0
TABLE
2
VIEW
5
248
330
0
100
AcDbSymbolTable
70
0
0
ENDTAB
0
TABLE
2
UCS
5
249
330
0
100
AcDbSymbolTable
70
0
0
ENDTAB
0
TABLE
2
APPID
5
24B
330
0
100
AcDbSymbolTable
70
13
0
APPID
5
254
330
24B
100
AcDbSymbolTableRecord
100
AcDbRegAppTableRecord
2
ACAD
70
0
0
APPID
5
26C
330
24B
100
AcDbSymbolTableRecord
100
AcDbRegAppTableRecord
2
VD_INVISIBLE_NOT_FOR_READ
70
0
0
APPID
5
26D
330
24B
100
AcDbSymbolTableRecord
100
AcDbRegAppTableRecord
2
VD_TEMPHATCH
70
0
0
APPID
5
26E
330
24B
100
AcDbSymbolTableRecord
100
AcDbRegAppTableRecord
2
VDEXTRAPARAM
70
0
0
APPID
5
26F
330
24B
100
AcDbSymbolTableRecord
100
AcDbRegAppTableRecord
2
PE_URL
70
0
0
APPID
5
270
330
24B
100
AcDbSymbolTableRecord
100
AcDbRegAppTableRecord
2
VD_UNKNOWN
70
0
0
APPID
5
28F
330
24B
100
AcDbSymbolTableRecord
100
AcDbRegAppTableRecord
2
AcadAnnotative
70
0
0
APPID
5
290
330
24B
100
AcDbSymbolTableRecord
100
AcDbRegAppTableRecord
2
ACAD_DSTYLE_DIMJAG
70
0
0
APPID
5
291
330
24B
100
AcDbSymbolTableRecord
100
AcDbRegAppTableRecord
2
ACAD_DSTYLE_DIMTALN
70
0
0
APPID
5
293
330
24B
100
AcDbSymbolTableRecord
100
AcDbRegAppTableRecord
2
ACAD_PSEXT
70
0
0
APPID
5
42A
330
24B
100
AcDbSymbolTableRecord
100
AcDbRegAppTableRecord
2
ACAD_MLEADERVER
70
0
0
APPID
5
532
330
24B
100
AcDbSymbolTableRecord
100
AcDbRegAppTableRecord
2
ACAD_EXEMPT_FROM_CAD_STANDARDS
70
0
0
APPID
5
57F
330
24B
100
AcDbSymbolTableRecord
100
AcDbRegAppTableRecord
2
AcAecLayerStandard
70
0
0
ENDTAB
0
TABLE
2
DIMSTYLE
5
24C
330
0
100
AcDbSymbolTable
70
3
100
AcDbDimStyleTable
71
2
340
27
340
269
0
DIMSTYLE
105
269
330
24C
100
AcDbSymbolTableRecord
100
AcDbDimStyleTableRecord
2
Standard
70
0
172
1
174
1
288
1
340
253
342
23C
0
DIMSTYLE
105
137
330
24C
100
AcDbSymbolTableRecord
100
AcDbDimStyleTableRecord
2
Beschriftung
70
0
41
2.5
42
0.625
44
1.25
73
0
74
0
77
1
140
2.5
147
0.625
172
1
174
1
271
2
288
1
340
253
342
23C
1001
AcadAnnotative
1000
AnnotativeData
1070
1
1070
1
1001
ACAD_DSTYLE_DIMJAG
1070
388
1040
1.5
1001
ACAD_DSTYLE_DIMTALN
1070
392
1070
0
0
DIMSTYLE
105
27
102
{ACAD_REACTORS
330
F1000D
330
F1001C
330
F10021
330
F10012
330
F10003
330
F10008
330
F10017
102
}
330
24C
100
AcDbSymbolTableRecord
100
AcDbDimStyleTableRecord
2
BEM-ISBE
70
0
41
2.5
42
0.625
44
1.25
48
0.000000001
71
1
73
0
74
0
77
1
140
2.5
144
1.00000000000000
146
0.5
147
0.625
171
 3
172
 1
179
 3
271
 3
272
 3
274
 3
340
253
342
23C
1001
ACAD_DSTYLE_DIMJAG
1070
388
1040
1.5
1001
ACAD_DSTYLE_DIMTALN
1070
392
1070
1
0
ENDTAB
0
TABLE
2
BLOCK_RECORD
5
243
330
0
100
AcDbSymbolTable
70
5
0
BLOCK_RECORD
5
261
330
243
100
AcDbSymbolTableRecord
100
AcDbBlockTableRecord
2
*Model_Space
340
FD0
0
BLOCK_RECORD
5
25D
330
243
100
AcDbSymbolTableRecord
100
AcDbBlockTableRecord
2
*Paper_Space
340
FD1
0
BLOCK_RECORD
5
265
330
243
100
AcDbSymbolTableRecord
100
AcDbBlockTableRecord
2
*Paper_Space0
340
0
0
BLOCK_RECORD
5
23C
330
243
100
AcDbSymbolTableRecord
100
AcDbBlockTableRecord
2
VDDIM_DEFAULT
340
0
102
{BLKREFS
102
}
0
BLOCK_RECORD
5
23E
330
243
100
AcDbSymbolTableRecord
100
AcDbBlockTableRecord
2
VDDIM_NONE
340
0
0
BLOCK_RECORD
5
F1000C
330
243
100
AcDbSymbolTableRecord
100
AcDbBlockTableRecord
2
*D5
340
0
0
BLOCK_RECORD
5
F1001B
330
243
100
AcDbSymbolTableRecord
100
AcDbBlockTableRecord
2
*D8
340
0
0
BLOCK_RECORD
5
F10020
330
243
100
AcDbSymbolTableRecord
100
AcDbBlockTableRecord
2
*D9
340
0
0
BLOCK_RECORD
5
F10011
330
243
100
AcDbSymbolTableRecord
100
AcDbBlockTableRecord
2
*D6
340
0
0
BLOCK_RECORD
5
F10002
330
243
100
AcDbSymbolTableRecord
100
AcDbBlockTableRecord
2
*D3
340
0
0
BLOCK_RECORD
5
F10007
330
243
100
AcDbSymbolTableRecord
100
AcDbBlockTableRecord
2
*D4
340
0
0
BLOCK_RECORD
5
F10016
330
243
100
AcDbSymbolTableRecord
100
AcDbBlockTableRecord
2
*D7
340
0
0
ENDTAB
0
ENDSEC
0
SECTION
2
BLOCKS
0
BLOCK
5
262
330
261
100
AcDbEntity
8
0
100
AcDbBlockBegin
2
*Model_Space
70
0
10
0.0
20
0.0
30
0.0
3
*Model_Space
1

0
ENDBLK
5
263
330
261
100
AcDbEntity
8
0
100
AcDbBlockEnd
0
BLOCK
5
25E
330
25D
100
AcDbEntity
67
1
8
0
100
AcDbBlockBegin
2
*Paper_Space
70
0
10
0.0
20
0.0
30
0.0
3
*Paper_Space
1

0
ENDBLK
5
25F
330
25D
100
AcDbEntity
67
1
8
0
100
AcDbBlockEnd
0
BLOCK
5
266
330
265
100
AcDbEntity
8
0
100
AcDbBlockBegin
2
*Paper_Space0
70
0
10
0.0
20
0.0
30
0.0
3
*Paper_Space0
1

0
VIEWPORT
5
296
102
{ACAD_XDICTIONARY
360
58E
102
}
330
265
100
AcDbEntity
8
0
60
1
100
AcDbViewport
10
0.0
20
0.0
30
0.0
40
10.0
41
10.0
69
0
12
0.0
22
0.0
13
0.0
23
0.0
14
1.0
24
1.0
15
0.0
25
0.0
16
0.0
26
0.0
36
1.0
17
0.0
27
0.0
37
0.0
42
0.0
43
0.0
44
0.0
45
10.0
50
0.0
51
0.0000000000007958
72
100
90
163872
1

281
0
71
0
74
0
110
0.0
120
0.0
130
0.0
111
1.0
121
0.0
131
0.0
112
0.0
122
1.0
132
0.0
79
0
146
0.0
1001
VD_INVISIBLE_NOT_FOR_READ
1000
VD_INVISIBLE_NOT_FOR_READ
0
VIEWPORT
5
297
102
{ACAD_XDICTIONARY
360
590
102
}
330
265
100
AcDbEntity
8
0
60
1
100
AcDbViewport
10
0.0
20
0.0
30
0.0
40
10.0
41
10.0
69
0
12
0.0
22
0.0
13
0.0
23
0.0
14
1.0
24
1.0
15
0.0
25
0.0
16
0.0
26
0.0
36
1.0
17
0.0
27
0.0
37
0.0
42
0.0
43
0.0
44
0.0
45
10.0
50
0.0
51
0.0000000000007958
72
100
90
163872
1

281
0
71
0
74
0
110
0.0
120
0.0
130
0.0
111
1.0
121
0.0
131
0.0
112
0.0
122
1.0
132
0.0
79
0
146
0.0
1001
VD_INVISIBLE_NOT_FOR_READ
1000
VD_INVISIBLE_NOT_FOR_READ
0
ENDBLK
5
267
330
265
100
AcDbEntity
8
0
100
AcDbBlockEnd
0
BLOCK
5
28B
330
23C
100
AcDbEntity
8
0
100
AcDbBlockBegin
2
VDDIM_DEFAULT
70
0
10
0.0
20
0.0
30
0.0
3
VDDIM_DEFAULT
1

0
LWPOLYLINE
5
23D
330
23C
100
AcDbEntity
8
0
6
Continuous
62
0
100
AcDbPolyline
90
4
70
0
43
0.0
10
0.0
20
0.0
10
-1.0
20
-0.1665
10
-1.0
20
0.1665
10
0.0
20
0.0
1001
VDEXTRAPARAM
1071
1
1071
0
1071
0
1040
1.0
1000

1000

1040
0.0
1040
0.0
0
HATCH
5
292
330
23C
100
AcDbEntity
8
0
6
Continuous
62
0
100
AcDbHatch
10
0.0
20
0.0
30
0.0
210
0.0
220
0.0
230
1.0
2
SOLID
70
1
71
0
91
1
92
2
72
0
73
1
93
3
10
0.0
20
0.0
10
-1.0
20
-0.1665
10
-1.0
20
0.1665
97
0
75
0
76
1
98
1
10
0.0
20
0.0
1001
VDEXTRAPARAM
1071
1
1071
0
1071
0
1040
1.0
1000

1000

1040
0.0
1040
0.0
1001
VD_TEMPHATCH
1000
VD_TEMPHATCH
0
ENDBLK
5
28C
330
23C
100
AcDbEntity
8
0
100
AcDbBlockEnd
0
BLOCK
5
28D
330
23E
100
AcDbEntity
8
0
100
AcDbBlockBegin
2
VDDIM_NONE
70
0
10
0.0
20
0.0
30
0.0
3
VDDIM_NONE
1

0
ENDBLK
5
28E
330
23E
100
AcDbEntity
8
0
100
AcDbBlockEnd
  0
BLOCK
  5
F10025
330
F1000C
100
AcDbEntity
  8
0
100
AcDbBlockBegin
  2
*D5
 70
     1
 10
0.0
 20
0.0
 30
0.0
  3
*D5
  1

  0
LINE
  5
F10026
330
F1000C
100
AcDbEntity
  8
Bemassung
 62
     0
370
    -2
100
AcDbLine
10
-17.1576787807740
20
27.7308909730360
30
0.000000000000000
11
-17.1576787807740
21
59.7285293574434
31
0.000000000000000
  0
LINE
  5
F10027
330
F1000C
100
AcDbEntity
  8
Bemassung
 62
     0
370
    -2
100
AcDbLine
10
-11.7576787807740
20
27.6235459730360
30
0.000000000000000
11
-11.7576787807740
21
47.9027931498302
31
0.000000000000000
  0
LINE
  5
F10028
330
F1000C
100
AcDbEntity
  8
Bemassung
 62
     0
370
    -2
100
AcDbLine
10
-17.1576787807740
20
45.9027931498302
30
0.000000000000000
11
-11.7576787807740
21
45.9027931498302
31
0.000000000000000
  0
INSERT
  5
F10029
330
F1000C
100
AcDbEntity
  8
Bemassung
 62
     0
370
    -2
100
AcDbBlockReference
  2
VDDIM_DEFAULT
10
-17.1576787807740
20
45.9027931498302
30
0.000000000000000
 41
2.50000000000000
 42
2.50000000000000
 43
2.50000000000000
  0
INSERT
  5
F1002A
330
F1000C
100
AcDbEntity
  8
Bemassung
 62
     0
370
    -2
100
AcDbBlockReference
  2
VDDIM_DEFAULT
10
-11.7576787807740
20
45.9027931498302
30
0.000000000000000
 41
2.50000000000000
 42
2.50000000000000
 43
2.50000000000000
 50
180.000000000000
  0
MTEXT
  5
F1002B
102
{ACAD_XDICTIONARY
360
F1000F
102
}
330
F1000C
100
AcDbEntity
  8
Bemassung
 62
     0
100
AcDbMText
10
-14.6555363627454
20
45.2361264831635
30
0.000000000000000
 40
2.50000000000000
 41
0.0
 71
     8
 72
     1
  1
\A1;5.4
 11
1.00000000000000
 21
0.000000000000000
 31
0.0
 73
     1
 44
1.0
1001
ACAD
1000
MTEXTBEGIN
1070
73
1070
1
1070
44
1040
1.0
1070
74
1070
0
1000
MTEXTEND
  0
POINT
  5
F1002C
330
F1000C
100
AcDbEntity
  8
Bemassung
 62
     0
100
AcDbPoint
10
-17.1576787807740
20
27.7308909730360
30
0.000000000000000
  0
POINT
  5
F1002D
330
F1000C
100
AcDbEntity
  8
Bemassung
 62
     0
100
AcDbPoint
10
-11.7576787807740
20
27.6235459730360
30
0.000000000000000
  0
ENDBLK
  5
F1002E
330
F1000C
100
AcDbEntity
  8
0
100
AcDbBlockEnd
  0
BLOCK
  5
F1002F
330
F1001B
100
AcDbEntity
  8
0
100
AcDbBlockBegin
  2
*D8
 70
     1
 10
0.0
 20
0.0
 30
0.0
  3
*D8
  1

  0
LINE
  5
F10030
330
F1001B
100
AcDbEntity
  8
Bemassung
 62
     0
370
    -2
100
AcDbLine
10
-16.1076787807740
20
32.6702378247473
30
0.000000000000000
11
-16.1076787807740
21
26.5382359730360
31
0.000000000000000
  0
LINE
  5
F10031
330
F1001B
100
AcDbEntity
  8
Bemassung
 62
     0
370
    -2
100
AcDbLine
10
-17.1576787807740
20
27.7308909730360
30
0.000000000000000
11
-17.1576787807740
21
59.7285293574434
31
0.000000000000000
  0
LINE
  5
F10032
330
F1001B
100
AcDbEntity
  8
Bemassung
 62
     0
370
    -2
100
AcDbLine
10
-16.1076787807740
20
30.6702378247473
30
0.000000000000000
11
-17.1576787807740
21
30.6702378247473
31
0.000000000000000
  0
INSERT
  5
F10033
330
F1001B
100
AcDbEntity
  8
Bemassung
 62
     0
370
    -2
100
AcDbBlockReference
  2
VDDIM_DEFAULT
10
-16.1076787807740
20
30.6702378247473
30
0.000000000000000
 41
2.50000000000000
 42
2.50000000000000
 43
2.50000000000000
 50
180.000000000000
  0
INSERT
  5
F10034
330
F1001B
100
AcDbEntity
  8
Bemassung
 62
     0
370
    -2
100
AcDbBlockReference
  2
VDDIM_DEFAULT
10
-17.1576787807740
20
30.6702378247473
30
0.000000000000000
 41
2.50000000000000
 42
2.50000000000000
 43
2.50000000000000
  0
MTEXT
  5
F10035
102
{ACAD_XDICTIONARY
360
F1001E
102
}
330
F1001B
100
AcDbEntity
  8
Bemassung
 62
     0
100
AcDbMText
10
-14.7264099591496
20
31.3369044914140
30
0.000000000000000
 40
2.50000000000000
 41
0.0
 71
     8
 72
     1
  1
\A1;1.05
 11
1.00000000000000
 21
0.000000000000000
 31
0.0
 73
     1
 44
1.0
1001
ACAD
1000
MTEXTBEGIN
1070
73
1070
1
1070
44
1040
1.0
1070
74
1070
0
1000
MTEXTEND
  0
POINT
  5
F10036
330
F1001B
100
AcDbEntity
  8
Bemassung
 62
     0
100
AcDbPoint
10
-16.1076787807740
20
32.6702378247473
30
0.000000000000000
  0
POINT
  5
F10037
330
F1001B
100
AcDbEntity
  8
Bemassung
 62
     0
100
AcDbPoint
10
-17.1576787807740
20
27.7308909730360
30
0.000000000000000
  0
ENDBLK
  5
F10038
330
F1001B
100
AcDbEntity
  8
0
100
AcDbBlockEnd
  0
BLOCK
  5
F10039
330
F10020
100
AcDbEntity
  8
0
100
AcDbBlockBegin
  2
*D9
 70
     1
 10
0.0
 20
0.0
 30
0.0
  3
*D9
  1

  0
LINE
  5
F1003A
330
F10020
100
AcDbEntity
  8
Bemassung
 62
     0
370
    -2
100
AcDbLine
10
22.8423212192260
20
28.4808909730360
30
0.000000000000000
11
22.8423212192260
21
59.7285293574434
31
0.000000000000000
  0
LINE
  5
F1003B
330
F10020
100
AcDbEntity
  8
Bemassung
 62
     0
370
    -2
100
AcDbLine
10
-17.1576787807740
20
27.7308909730360
30
0.000000000000000
11
-17.1576787807740
21
59.7285293574434
31
0.000000000000000
  0
LINE
  5
F1003C
330
F10020
100
AcDbEntity
  8
Bemassung
 62
     0
370
    -2
100
AcDbLine
10
22.8423212192260
20
57.7285293574434
30
0.000000000000000
11
-17.1576787807740
21
57.7285293574434
31
0.000000000000000
  0
INSERT
  5
F1003D
330
F10020
100
AcDbEntity
  8
Bemassung
 62
     0
370
    -2
100
AcDbBlockReference
  2
VDDIM_DEFAULT
10
22.8423212192260
20
57.7285293574434
30
0.000000000000000
 41
2.50000000000000
 42
2.50000000000000
 43
2.50000000000000
  0
INSERT
  5
F1003E
330
F10020
100
AcDbEntity
  8
Bemassung
 62
     0
370
    -2
100
AcDbBlockReference
  2
VDDIM_DEFAULT
10
-17.1576787807740
20
57.7285293574434
30
0.000000000000000
 41
2.50000000000000
 42
2.50000000000000
 43
2.50000000000000
 50
180.000000000000
  0
MTEXT
  5
F1003F
102
{ACAD_XDICTIONARY
360
F10023
102
}
330
F10020
100
AcDbEntity
  8
Bemassung
 62
     0
100
AcDbMText
10
1.88271081442049
20
58.3951960241101
30
0.000000000000000
 40
2.50000000000000
 41
0.0
 71
     8
 72
     1
  1
\A1;40
 11
1.00000000000000
 21
0.000000000000000
 31
0.0
 73
     1
 44
1.0
1001
ACAD
1000
MTEXTBEGIN
1070
73
1070
1
1070
44
1040
1.0
1070
74
1070
0
1000
MTEXTEND
  0
POINT
  5
F10040
330
F10020
100
AcDbEntity
  8
Bemassung
 62
     0
100
AcDbPoint
10
22.8423212192260
20
28.4808909730360
30
0.000000000000000
  0
POINT
  5
F10041
330
F10020
100
AcDbEntity
  8
Bemassung
 62
     0
100
AcDbPoint
10
-17.1576787807740
20
27.7308909730360
30
0.000000000000000
  0
ENDBLK
  5
F10042
330
F10020
100
AcDbEntity
  8
0
100
AcDbBlockEnd
  0
BLOCK
  5
F10043
330
F10011
100
AcDbEntity
  8
0
100
AcDbBlockBegin
  2
*D6
 70
     1
 10
0.0
 20
0.0
 30
0.0
  3
*D6
  1

 0
ARC
  5
F10044
330
F10011
100
AcDbEntity
  8
Bemassung
 62
     0
370
   -2
100
AcDbCircle
10
-10.8003337807740
20
28.5808909730360
30
0.000000000000000
 40
14.1916564277482
100
AcDbArc
 50
0.000000000000000
 51
45.0000000000000
  0
LINE
  5
F10045
330
F10011
100
AcDbEntity
  8
Bemassung
 62
     0
370
    -2
100
AcDbLine
10
-10.8003337807740
20
28.5808909730360
30
0.000000000000000
11
5.39132264697419
21
28.5808909730360
31
0.000000000000000
  0
LINE
  5
F10046
330
F10011
100
AcDbEntity
  8
Bemassung
 62
     0
370
    -2
100
AcDbLine
10
-10.8003337807740
20
28.5808909730360
30
0.000000000000000
11
0.648896277929502
21
40.0301210317395
31
0.000000000000000
  0
INSERT
  5
F10047
330
F10011
100
AcDbEntity
  8
Bemassung
 62
     0
370
    -2
100
AcDbBlockReference
  2
VDDIM_DEFAULT
10
3.39132264697419
20
28.5808909730360
30
0.000000000000000
 41
2.50000000000000
 42
2.50000000000000
 43
2.50000000000000
 50
275.053156037601
  0
INSERT
  5
F10048
330
F10011
100
AcDbEntity
  8
Bemassung
 62
     0
370
    -2
100
AcDbBlockReference
  2
VDDIM_DEFAULT
10
-0.765317284443594
20
38.6159074693664
30
0.000000000000000
 41
2.50000000000000
 42
2.50000000000000
 43
2.50000000000000
 50
129.946843962399
  0
MTEXT
  5
F10049
102
{ACAD_XDICTIONARY
360
F10014
102
}
330
F10011
100
AcDbEntity
  8
Bemassung
 62
     0
100
AcDbMText
10
2.53382343090238
20
33.4392202761551
30
0.000000000000000
 40
2.50000000000000
 41
0.0
 71
     8
 72
     1
  1
\A1;45°
 11
0.382683432365090
 21
-0.923879532511287
 31
0.0
 73
     1
 44
1.0
1001
ACAD
1000
MTEXTBEGIN
1070
73
1070
1
1070
44
1040
1.0
1070
74
1070
0
1000
MTEXTEND
  0
POINT
  5
F1004A
330
F10011
100
AcDbEntity
  8
Bemassung
 62
     0
100
AcDbPoint
10
-10.8003337807740
20
28.5808909730360
30
0.000000000000000
  0
POINT
  5
F1004B
330
F10011
100
AcDbEntity
  8
Bemassung
 62
     0
100
AcDbPoint
10
3.39132264697419
20
28.5808909730360
30
0.000000000000000
  0
POINT
  5
F1004C
330
F10011
100
AcDbEntity
  8
Bemassung
 62
     0
100
AcDbPoint
10
-0.765317284443594
20
38.6159074693664
30
0.000000000000000
  0
POINT
  5
F1004D
330
F10011
100
AcDbEntity
  8
Bemassung
 62
     0
100
AcDbPoint
10
2.31104712525480
20
34.0118027657528
30
0.000000000000000
  0
ENDBLK
  5
F1004E
330
F10011
100
AcDbEntity
  8
0
100
AcDbBlockEnd
  0
BLOCK
  5
F1004F
330
F10002
100
AcDbEntity
  8
0
100
AcDbBlockBegin
  2
*D3
 70
     1
 10
0.0
 20
0.0
 30
0.0
  3
*D3
  1

  0
LINE
  5
F10050
330
F10002
100
AcDbEntity
  8
Bemassung
 62
     0
370
    -2
100
AcDbLine
10
-17.1576787807740
20
26.4308909730360
30
0.000000000000000
11
-24.7097953002642
21
26.4308909730360
31
0.000000000000000
  0
LINE
  5
F10051
330
F10002
100
AcDbEntity
  8
Bemassung
 62
     0
370
    -2
100
AcDbLine
10
-17.1576787807740
20
27.7308909730360
30
0.000000000000000
11
-24.7097953002642
21
27.7308909730360
31
0.000000000000000
  0
LINE
  5
F10052
330
F10002
100
AcDbEntity
  8
Bemassung
 62
     0
370
    -2
100
AcDbLine
10
-22.7097953002642
20
26.4308909730360
30
0.000000000000000
11
-22.7097953002642
21
27.7308909730360
31
0.000000000000000
  0
INSERT
  5
F10053
330
F10002
100
AcDbEntity
  8
Bemassung
 62
     0
370
    -2
100
AcDbBlockReference
  2
VDDIM_DEFAULT
10
-22.7097953002642
20
26.4308909730360
30
0.000000000000000
 41
2.50000000000000
 42
2.50000000000000
 43
2.50000000000000
 50
90.0000000000000
  0
INSERT
  5
F10054
330
F10002
100
AcDbEntity
  8
Bemassung
 62
     0
370
    -2
100
AcDbBlockReference
  2
VDDIM_DEFAULT
10
-22.7097953002642
20
27.7308909730360
30
0.000000000000000
 41
2.50000000000000
 42
2.50000000000000
 43
2.50000000000000
 50
270.000000000000
  0
MTEXT
  5
F10055
102
{ACAD_XDICTIONARY
360
F10005
102
}
330
F10002
100
AcDbEntity
  8
Bemassung
 62
     0
100
AcDbMText
10
-23.3764619669309
20
30.7006455638921
30
0.000000000000000
 40
2.50000000000000
 41
0.0
 71
     8
 72
     1
  1
\A1;1.3
 11
6.12323399573677e-017
 21
1.00000000000000
 31
0.0
 73
     1
 44
1.0
1001
ACAD
1000
MTEXTBEGIN
1070
73
1070
1
1070
44
1040
1.0
1070
74
1070
0
1000
MTEXTEND
  0
POINT
  5
F10056
330
F10002
100
AcDbEntity
  8
Bemassung
 62
     0
100
AcDbPoint
10
-17.1576787807740
20
26.4308909730360
30
0.000000000000000
  0
POINT
  5
F10057
330
F10002
100
AcDbEntity
  8
Bemassung
 62
     0
100
AcDbPoint
10
-17.1576787807740
20
27.7308909730360
30
0.000000000000000
  0
ENDBLK
  5
F10058
330
F10002
100
AcDbEntity
  8
0
100
AcDbBlockEnd
  0
BLOCK
  5
F10059
330
F10007
100
AcDbEntity
  8
0
100
AcDbBlockBegin
  2
*D4
 70
     1
 10
0.0
 20
0.0
 30
0.0
  3
*D4
  1

  0
LINE
  5
F1005A
330
F10007
100
AcDbEntity
  8
Bemassung
 62
     0
370
    -2
100
AcDbLine
10
-16.1076787807740
20
26.5382359730360
30
0.000000000000000
11
3.39706580827989
21
26.5382359730360
31
0.000000000000000
  0
LINE
  5
F1005B
330
F10007
100
AcDbEntity
  8
Bemassung
 62
     0
370
    -2
100
AcDbLine
10
-16.1076787807740
20
27.6235459730360
30
0.000000000000000
11
3.39706580827989
21
27.6235459730360
31
0.000000000000000
  0
LINE
  5
F1005C
330
F10007
100
AcDbEntity
  8
Bemassung
 62
     0
370
    -2
100
AcDbLine
10
1.39706580827989
20
26.5382359730360
30
0.000000000000000
11
1.39706580827989
21
27.6235459730360
31
0.000000000000000
  0
INSERT
  5
F1005D
330
F10007
100
AcDbEntity
  8
Bemassung
 62
     0
370
    -2
100
AcDbBlockReference
  2
VDDIM_DEFAULT
10
1.39706580827989
20
26.5382359730360
30
0.000000000000000
 41
2.50000000000000
 42
2.50000000000000
 43
2.50000000000000
 50
90.0000000000000
  0
INSERT
  5
F1005E
330
F10007
100
AcDbEntity
  8
Bemassung
 62
     0
370
    -2
100
AcDbBlockReference
  2
VDDIM_DEFAULT
10
1.39706580827989
20
27.6235459730360
30
0.000000000000000
 41
2.50000000000000
 42
2.50000000000000
 43
2.50000000000000
 50
270.000000000000
  0
MTEXT
  5
F1005F
102
{ACAD_XDICTIONARY
360
F1000A
102
}
330
F10007
100
AcDbEntity
  8
Bemassung
 62
     0
100
AcDbMText
10
0.730399141613228
20
31.9428310834057
30
0.000000000000000
 40
2.50000000000000
 41
0.0
 71
     8
 72
     1
  1
\A1;1.085
 11
6.12323399573677e-017
 21
1.00000000000000
 31
0.0
 73
     1
 44
1.0
1001
ACAD
1000
MTEXTBEGIN
1070
73
1070
1
1070
44
1040
1.0
1070
74
1070
0
1000
MTEXTEND
  0
POINT
  5
F10060
330
F10007
100
AcDbEntity
  8
Bemassung
 62
     0
100
AcDbPoint
10
-16.1076787807740
20
26.5382359730360
30
0.000000000000000
  0
POINT
  5
F10061
330
F10007
100
AcDbEntity
  8
Bemassung
 62
     0
100
AcDbPoint
10
-16.1076787807740
20
27.6235459730360
30
0.000000000000000
  0
ENDBLK
  5
F10062
330
F10007
100
AcDbEntity
  8
0
100
AcDbBlockEnd
  0
BLOCK
  5
F10063
330
F10016
100
AcDbEntity
  8
0
100
AcDbBlockBegin
  2
*D7
 70
     1
 10
0.0
 20
0.0
 30
0.0
  3
*D7
  1

  0
LINE
  5
F10064
330
F10016
100
AcDbEntity
  8
Bemassung
 62
     0
370
    -2
100
AcDbLine
10
22.7423212192260
20
25.5808909730360
30
0.000000000000000
11
35.1315478866687
21
25.5808909730360
31
0.000000000000000
  0
LINE
  5
F10065
330
F10016
100
AcDbEntity
  8
Bemassung
 62
     0
370
    -2
100
AcDbLine
10
22.7423212192260
20
28.5808909730360
30
0.000000000000000
11
35.1315478866687
21
28.5808909730360
31
0.000000000000000
  0
LINE
  5
F10066
330
F10016
100
AcDbEntity
  8
Bemassung
 62
     0
370
    -2
100
AcDbLine
10
33.1315478866687
20
25.5808909730360
30
0.000000000000000
11
33.1315478866687
21
28.5808909730360
31
0.000000000000000
  0
INSERT
  5
F10067
330
F10016
100
AcDbEntity
  8
Bemassung
 62
     0
370
    -2
100
AcDbBlockReference
  2
VDDIM_DEFAULT
10
33.1315478866687
20
25.5808909730360
30
0.000000000000000
 41
2.50000000000000
 42
2.50000000000000
 43
2.50000000000000
 50
90.0000000000000
  0
INSERT
  5
F10068
330
F10016
100
AcDbEntity
  8
Bemassung
 62
     0
370
    -2
100
AcDbBlockReference
  2
VDDIM_DEFAULT
10
33.1315478866687
20
28.5808909730360
30
0.000000000000000
 41
2.50000000000000
 42
2.50000000000000
 43
2.50000000000000
 50
270.000000000000
  0
MTEXT
  5
F10069
330
F10016
100
AcDbEntity
  8
Bemassung
 62
     0
100
AcDbMText
10
32.4648812200020
20
30.0682978787741
30
0.000000000000000
 40
2.50000000000000
 41
0.0
 71
     8
 72
     1
  1
\A1;3 h6
 11
6.12323399573677e-017
 21
1.00000000000000
 31
0.0
 73
     1
 44
1.0
  0
POINT
  5
F1006A
330
F10016
100
AcDbEntity
  8
Bemassung
 62
     0
100
AcDbPoint
10
22.7423212192260
20
25.5808909730360
30
0.000000000000000
  0
POINT
  5
F1006B
330
F10016
100
AcDbEntity
  8
Bemassung
 62
     0
100
AcDbPoint
10
22.7423212192260
20
28.5808909730360
30
0.000000000000000
  0
ENDBLK
  5
F1006C
330
F10016
100
AcDbEntity
  8
0
100
AcDbBlockEnd
0
ENDSEC
0
SECTION
2
ENTITIES
  0
DIMENSION
  5
F1000D
330
261
100
AcDbEntity
  8
Bemassung
100
AcDbDimension
  2
*D5
10
-11.7576787807740
20
45.9027931498302
30
0.000000000000000
11
-14.6555363627454
21
45.2361264831635
31
0.000000000000000
 70
32
 1
<>
 71
     8
  3
BEM-ISBE
100
AcDbAlignedDimension
13
-17.1576787807740
23
27.7308909730360
33
0.000000000000000
14
-11.7576787807740
24
27.6235459730360
34
0.000000000000000
100
AcDbRotatedDimension
1001
ACAD
1000
DSTYLE
1002
{
1070
284
1070
8
1070
78
1070
8
1070
144
1040
1.00000000000000
1070
147
1040
0.625
1070
 72
1070
 0
1070
 71
1070
 0
1002
}
  0
DIMENSION
  5
F1001C
330
261
100
AcDbEntity
  8
Bemassung
100
AcDbDimension
  2
*D8
10
-17.1576787807740
20
30.6702378247473
30
0.000000000000000
11
-14.7264099591496
21
31.3369044914140
31
0.000000000000000
 70
32
 1
<>
 71
     8
  3
BEM-ISBE
100
AcDbAlignedDimension
13
-16.1076787807740
23
32.6702378247473
33
0.000000000000000
14
-17.1576787807740
24
27.7308909730360
34
0.000000000000000
100
AcDbRotatedDimension
1001
ACAD
1000
DSTYLE
1002
{
1070
284
1070
8
1070
78
1070
8
1070
144
1040
1.00000000000000
1070
147
1040
0.625
1070
 72
1070
 0
1070
 71
1070
 0
1002
}
  0
DIMENSION
  5
F10021
330
261
100
AcDbEntity
  8
Bemassung
100
AcDbDimension
  2
*D9
10
-17.1576787807740
20
57.7285293574434
30
0.000000000000000
11
1.88271081442049
21
58.3951960241101
31
0.000000000000000
 70
32
 1
<>
 71
     8
  3
BEM-ISBE
100
AcDbAlignedDimension
13
22.8423212192260
23
28.4808909730360
33
0.000000000000000
14
-17.1576787807740
24
27.7308909730360
34
0.000000000000000
100
AcDbRotatedDimension
1001
ACAD
1000
DSTYLE
1002
{
1070
284
1070
8
1070
78
1070
8
1070
144
1040
1.00000000000000
1070
147
1040
0.625
1070
 72
1070
 0
1070
 71
1070
 0
1002
}
  0
DIMENSION
  5
F10012
330
261
100
AcDbEntity
  8
Bemassung
100
AcDbDimension
  2
*D6
10
-10.8003337807740
20
28.5808909730360
30
0.000000000000000
11
2.53382343090238
21
33.4392202761551
31
0.000000000000000
 70
34
 1
<>
 71
     8
  3
BEM-ISBE
100
AcDb2LineAngularDimension
13
-10.8003337807740
23
28.5808909730360
33
0.000000000000000
14
5.39132264697419
24
28.5808909730360
34
0.000000000000000
15
0.648896277929502
25
40.0301210317395
35
0.000000000000000
16
2.31104712525480
26
34.0118027657528
36
0.000000000000000
1001
ACAD
1000
DSTYLE
1002
{
1070
284
1070
8
1070
79
1070
2
1070
147
1040
0.625
1070
 72
1070
 0
1070
 71
1070
 0
1002
}
  0
DIMENSION
  5
F10003
330
261
100
AcDbEntity
  8
Bemassung
100
AcDbDimension
  2
*D3
10
-22.7097953002642
20
27.7308909730360
30
0.000000000000000
11
-23.3764619669309
21
30.7006455638921
31
0.000000000000000
 70
32
 1
Ø<>
 71
     8
  3
BEM-ISBE
100
AcDbAlignedDimension
13
-17.1576787807740
23
26.4308909730360
33
0.000000000000000
14
-17.1576787807740
24
27.7308909730360
34
0.000000000000000
50
90.0000000000000
100
AcDbRotatedDimension
1001
ACAD
1000
DSTYLE
1002
{
1070
284
1070
8
1070
78
1070
8
1070
144
1040
1.00000000000000
1070
147
1040
0.625
1070
 72
1070
 0
1070
 71
1070
 0
1002
}
  0
DIMENSION
  5
F10008
330
261
100
AcDbEntity
  8
Bemassung
100
AcDbDimension
  2
*D4
10
1.39706580827989
20
27.6235459730360
30
0.000000000000000
11
0.730399141613228
21
31.9428310834057
31
0.000000000000000
 70
32
 1
Ø<>
 71
     8
  3
BEM-ISBE
100
AcDbAlignedDimension
13
-16.1076787807740
23
26.5382359730360
33
0.000000000000000
14
-16.1076787807740
24
27.6235459730360
34
0.000000000000000
50
90.0000000000000
100
AcDbRotatedDimension
1001
ACAD
1000
DSTYLE
1002
{
1070
284
1070
8
1070
78
1070
8
1070
144
1040
1.00000000000000
1070
147
1040
0.625
1070
 72
1070
 0
1070
 71
1070
 0
1002
}
  0
DIMENSION
  5
F10017
330
261
100
AcDbEntity
  8
Bemassung
100
AcDbDimension
  2
*D7
10
33.1315478866687
20
28.5808909730360
30
0.000000000000000
11
32.4648812200020
21
30.0682978787741
31
0.000000000000000
 70
32
 1
Ø<> h6
 71
     8
  3
BEM-ISBE
100
AcDbAlignedDimension
13
22.7423212192260
23
25.5808909730360
33
0.000000000000000
14
22.7423212192260
24
28.5808909730360
34
0.000000000000000
50
90.0000000000000
100
AcDbRotatedDimension
1001
ACAD
1000
DSTYLE
1002
{
1070
284
1070
8
1070
78
1070
8
1070
144
1040
1.00000000000000
1070
147
1040
0.625
1070
 72
1070
 0
1070
 71
1070
 0
1002
}
  0
LINE
  5
F1006D
330
F1006E
100
AcDbEntity
8
Geo
100
AcDbLine
10
-17.1576787807740
20
27.0808909730360
30
0.000000000000000
11
-17.1576787807740
21
27.7308909730360
31
0.000000000000000
  0
LINE
  5
F1006F
330
F10070
100
AcDbEntity
8
Geo
100
AcDbLine
10
-17.1576787807740
20
27.7308909730360
30
0.000000000000000
11
-16.1076787807740
21
27.7308909730360
31
0.000000000000000
  0
LINE
  5
F10071
330
F10072
100
AcDbEntity
8
Geo
100
AcDbLine
10
-16.1076787807740
20
27.7308909730360
30
0.000000000000000
11
-16.1076787807740
21
27.6235459730360
31
0.000000000000000
  0
LINE
  5
F10073
330
F10074
100
AcDbEntity
8
Geo
100
AcDbLine
10
-16.1076787807740
20
27.6235459730360
30
0.000000000000000
11
-11.7576787807740
21
27.6235459730360
31
0.000000000000000
  0
LINE
  5
F10075
330
F10076
100
AcDbEntity
8
Geo
100
AcDbLine
10
-11.7576787807740
20
27.6235459730360
30
0.000000000000000
11
-10.8003337807740
21
28.5808909730360
31
0.000000000000000
  0
LINE
  5
F10077
330
F10078
100
AcDbEntity
8
Geo
100
AcDbLine
10
-10.8003337807740
20
28.5808909730360
30
0.000000000000000
11
22.7423212192260
21
28.5808909730360
31
0.000000000000000
  0
LINE
  5
F10079
330
F1007A
100
AcDbEntity
8
Geo
100
AcDbLine
10
22.7423212192260
20
28.5808909730360
30
0.000000000000000
11
22.8423212192260
21
28.4808909730360
31
0.000000000000000
  0
LINE
  5
F1007B
330
F1007C
100
AcDbEntity
8
Geo
100
AcDbLine
10
-17.1576787807740
20
27.7308909730360
30
0.000000000000000
11
-17.0576787807740
21
27.7308363973376
31
0.000000000000000
  0
LINE
  5
F1007D
330
F1007E
100
AcDbEntity
8
Geo
100
AcDbLine
10
-17.0576787807740
20
27.7308363973376
30
0.000000000000000
11
-16.9576787807740
21
27.7306726794069
31
0.000000000000000
  0
LINE
  5
F1007F
330
F10080
100
AcDbEntity
8
Geo
100
AcDbLine
10
-16.9576787807740
20
27.7306726794069
30
0.000000000000000
11
-16.8576787807740
21
27.7303998467364
31
0.000000000000000
  0
LINE
  5
F10081
330
F10082
100
AcDbEntity
8
Geo
100
AcDbLine
10
-16.8576787807740
20
27.7303998467364
30
0.000000000000000
11
-16.7576787807740
21
27.7300179451414
31
0.000000000000000
  0
LINE
  5
F10083
330
F10084
100
AcDbEntity
8
Geo
100
AcDbLine
10
-16.7576787807740
20
27.7300179451414
30
0.000000000000000
11
-16.6576787807740
21
27.7295270387531
31
0.000000000000000
  0
LINE
  5
F10085
330
F10086
100
AcDbEntity
8
Geo
100
AcDbLine
10
-16.6576787807740
20
27.7295270387531
30
0.000000000000000
11
-16.5576787807740
21
27.7289272100068
31
0.000000000000000
  0
LINE
  5
F10087
330
F10088
100
AcDbEntity
8
Geo
100
AcDbLine
10
-16.5576787807740
20
27.7289272100068
30
0.000000000000000
11
-16.4576787807740
21
27.7282185596290
31
0.000000000000000
  0
LINE
  5
F10089
330
F1008A
100
AcDbEntity
8
Geo
100
AcDbLine
10
-16.4576787807740
20
27.7282185596290
30
0.000000000000000
11
-16.3576787807740
21
27.7274012066200
31
0.000000000000000
  0
LINE
  5
F1008B
330
F1008C
100
AcDbEntity
8
Geo
100
AcDbLine
10
-16.3576787807740
20
27.7274012066200
30
0.000000000000000
11
-16.2576787807740
21
27.7264752882339
31
0.000000000000000
  0
LINE
  5
F1008D
330
F1008E
100
AcDbEntity
8
Geo
100
AcDbLine
10
-16.2576787807740
20
27.7264752882339
30
0.000000000000000
11
-16.1576787807740
21
27.7254409599558
31
0.000000000000000
  0
LINE
  5
F1008F
330
F10090
100
AcDbEntity
8
Geo
100
AcDbLine
10
-16.1576787807740
20
27.7254409599558
30
0.000000000000000
11
-16.1076787807740
21
27.7248831956750
31
0.000000000000000
  0
LINE
  5
F10091
330
F10092
100
AcDbEntity
8
Geo
100
AcDbLine
10
-16.1076787807740
20
27.7248831956750
30
0.000000000000000
11
-16.0076787807740
21
27.6202484553705
31
0.000000000000000
  0
LINE
  5
F10093
330
F10094
100
AcDbEntity
8
Geo
100
AcDbLine
10
-16.0076787807740
20
27.6202484553705
30
0.000000000000000
11
-15.9076787807740
21
27.6231751068782
31
0.000000000000000
  0
LINE
  5
F10095
330
F10096
100
AcDbEntity
8
Geo
100
AcDbLine
10
-15.9076787807740
20
27.6231751068782
30
0.000000000000000
11
-15.8576787807740
21
27.6235459730360
31
0.000000000000000
  0
LINE
  5
F10097
330
F10098
100
AcDbEntity
8
Geo
100
AcDbLine
10
-17.1576787807740
20
27.6321222355377
30
0.000000000000000
11
-17.0576787807740
21
27.6276124899287
31
0.000000000000000
  0
LINE
  5
F10099
330
F1009A
100
AcDbEntity
8
Geo
100
AcDbLine
10
-17.0576787807740
20
27.6276124899287
30
0.000000000000000
11
-16.9576787807740
21
27.6230109359855
31
0.000000000000000
  0
LINE
  5
F1009B
330
F1009C
100
AcDbEntity
8
Geo
100
AcDbLine
10
-16.9576787807740
20
27.6230109359855
30
0.000000000000000
11
-16.8576787807740
21
27.6183183464250
31
0.000000000000000
  0
LINE
  5
F1009D
330
F1009E
100
AcDbEntity
8
Geo
100
AcDbLine
10
-16.8576787807740
20
27.6183183464250
30
0.000000000000000
11
-16.7576787807740
21
27.6135355092515
31
0.000000000000000
  0
LINE
  5
F1009F
330
F100A0
100
AcDbEntity
8
Geo
100
AcDbLine
10
-16.7576787807740
20
27.6135355092515
30
0.000000000000000
11
-16.6576787807740
21
27.6086632276238
31
0.000000000000000
  0
LINE
  5
F100A1
330
F100A2
100
AcDbEntity
8
Geo
100
AcDbLine
10
-16.6576787807740
20
27.6086632276238
30
0.000000000000000
11
-16.5576787807740
21
27.6037023197210
31
0.000000000000000
  0
LINE
  5
F100A3
330
F100A4
100
AcDbEntity
8
Geo
100
AcDbLine
10
-16.5576787807740
20
27.6037023197210
30
0.000000000000000
11
-16.4576787807740
21
27.5986536186047
31
0.000000000000000
  0
LINE
  5
F100A5
330
F100A6
100
AcDbEntity
8
Geo
100
AcDbLine
10
-16.4576787807740
20
27.5986536186047
30
0.000000000000000
11
-16.3576787807740
21
27.5935179720791
31
0.000000000000000
  0
LINE
  5
F100A7
330
F100A8
100
AcDbEntity
8
Geo
100
AcDbLine
10
-16.3576787807740
20
27.5935179720791
30
0.000000000000000
11
-16.2576787807740
21
27.5882962425489
31
0.000000000000000
  0
LINE
  5
F100A9
330
F100AA
100
AcDbEntity
8
Geo
100
AcDbLine
10
-16.2576787807740
20
27.5882962425489
30
0.000000000000000
11
-16.1576787807740
21
27.5829893068742
31
0.000000000000000
  0
LINE
  5
F100AB
330
F100AC
100
AcDbEntity
8
Geo
100
AcDbLine
10
-16.1576787807740
20
27.5829893068742
30
0.000000000000000
11
-16.1076787807740
21
27.5803041646679
31
0.000000000000000
  0
LINE
  5
F100AD
330
F100AE
100
AcDbEntity
8
Geo
100
AcDbLine
10
-16.1076787807740
20
27.5803041646679
30
0.000000000000000
11
-16.0076787807740
21
27.4068345678105
31
0.000000000000000
  0
LINE
  5
F100AF
330
F100B0
100
AcDbEntity
8
Geo
100
AcDbLine
10
-16.0076787807740
20
27.4068345678105
30
0.000000000000000
11
-15.9076787807740
21
27.0724189191559
31
0.000000000000000
  0
LINE
  5
F100B1
330
F100B2
100
AcDbEntity
8
Geo
100
AcDbLine
10
-15.9076787807740
20
27.0724189191559
30
0.000000000000000
11
-15.8576787807740
21
26.8178395785720
31
0.000000000000000
  0
LINE
  5
F100B3
330
F100B4
100
AcDbEntity
8
Geo
100
AcDbLine
10
-17.1576787807740
20
26.7558909730360
30
0.000000000000000
11
-17.0576787807740
21
26.7486238059985
31
0.000000000000000
  0
LINE
  5
F100B5
330
F100B6
100
AcDbEntity
8
Geo
100
AcDbLine
10
-17.0576787807740
20
26.7486238059985
30
0.000000000000000
11
-16.9576787807740
21
26.7414124350001
31
0.000000000000000
  0
LINE
  5
F100B7
330
F100B8
100
AcDbEntity
8
Geo
100
AcDbLine
10
-16.9576787807740
20
26.7414124350001
30
0.000000000000000
11
-16.8576787807740
21
26.7342580710120
31
0.000000000000000
  0
LINE
  5
F100B9
330
F100BA
100
AcDbEntity
8
Geo
100
AcDbLine
10
-16.8576787807740
20
26.7342580710120
30
0.000000000000000
11
-16.7576787807740
21
26.7271619154322
31
0.000000000000000
  0
LINE
  5
F100BB
330
F100BC
100
AcDbEntity
8
Geo
100
AcDbLine
10
-16.7576787807740
20
26.7271619154322
30
0.000000000000000
11
-16.6576787807740
21
26.7201251598844
31
0.000000000000000
  0
LINE
  5
F100BD
330
F100BE
100
AcDbEntity
8
Geo
100
AcDbLine
10
-16.6576787807740
20
26.7201251598844
30
0.000000000000000
11
-16.5576787807740
21
26.7131489860172
31
0.000000000000000
  0
LINE
  5
F100BF
330
F100C0
100
AcDbEntity
8
Geo
100
AcDbLine
10
-16.5576787807740
20
26.7131489860172
30
0.000000000000000
11
-16.4576787807740
21
26.7062345653063
31
0.000000000000000
  0
LINE
  5
F100C1
330
F100C2
100
AcDbEntity
8
Geo
100
AcDbLine
10
-16.4576787807740
20
26.7062345653063
30
0.000000000000000
11
-16.3576787807740
21
26.6993830588573
31
0.000000000000000
  0
LINE
  5
F100C3
330
F100C4
100
AcDbEntity
8
Geo
100
AcDbLine
10
-16.3576787807740
20
26.6993830588573
30
0.000000000000000
11
-16.2576787807740
21
26.6925956172111
31
0.000000000000000
  0
LINE
  5
F100C5
330
F100C6
100
AcDbEntity
8
Geo
100
AcDbLine
10
-16.2576787807740
20
26.6925956172111
30
0.000000000000000
11
-16.1576787807740
21
26.6858733801502
31
0.000000000000000
  0
LINE
  5
F100C7
330
F100C8
100
AcDbEntity
8
Geo
100
AcDbLine
10
-16.1576787807740
20
26.6858733801502
30
0.000000000000000
11
-16.1076787807740
21
26.6825370665325
31
0.000000000000000
  0
LINE
  5
F100C9
330
F100CA
100
AcDbEntity
8
Geo
100
AcDbLine
10
-16.1076787807740
20
26.6825370665325
30
0.000000000000000
11
-16.0076787807740
21
26.7594824874649
31
0.000000000000000
  0
LINE
  5
F100CB
330
F100CC
100
AcDbEntity
8
Geo
100
AcDbLine
10
-16.0076787807740
20
26.7594824874649
30
0.000000000000000
11
-15.9076787807740
21
26.7923772220847
31
0.000000000000000
  0
LINE
  5
F100CD
330
F100CE
100
AcDbEntity
8
Geo
100
AcDbLine
10
-15.9076787807740
20
26.7923772220847
30
0.000000000000000
11
-15.8576787807740
21
26.8178395785720
31
0.000000000000000
  0
LINE
  5
F100CF
330
F100D0
100
AcDbEntity
8
Geo
100
AcDbLine
10
-17.1576787807740
20
26.5069750376777
30
0.000000000000000
11
-17.0576787807740
21
26.5030689079760
31
0.000000000000000
  0
LINE
  5
F100D1
330
F100D2
100
AcDbEntity
8
Geo
100
AcDbLine
10
-17.0576787807740
20
26.5030689079760
30
0.000000000000000
11
-16.9576787807740
21
26.4992598091751
31
0.000000000000000
  0
LINE
  5
F100D3
330
F100D4
100
AcDbEntity
8
Geo
100
AcDbLine
10
-16.9576787807740
20
26.4992598091751
30
0.000000000000000
11
-16.8576787807740
21
26.4955483809189
31
0.000000000000000
  0
LINE
  5
F100D5
330
F100D6
100
AcDbEntity
8
Geo
100
AcDbLine
10
-16.8576787807740
20
26.4955483809189
30
0.000000000000000
11
-16.7576787807740
21
26.4919352464497
31
0.000000000000000
  0
LINE
  5
F100D7
330
F100D8
100
AcDbEntity
8
Geo
100
AcDbLine
10
-16.7576787807740
20
26.4919352464497
30
0.000000000000000
11
-16.6576787807740
21
26.4884210125039
31
0.000000000000000
  0
LINE
  5
F100D9
330
F100DA
100
AcDbEntity
8
Geo
100
AcDbLine
10
-16.6576787807740
20
26.4884210125039
30
0.000000000000000
11
-16.5576787807740
21
26.4850062692102
31
0.000000000000000
  0
LINE
  5
F100DB
330
F100DC
100
AcDbEntity
8
Geo
100
AcDbLine
10
-16.5576787807740
20
26.4850062692102
30
0.000000000000000
11
-16.4576787807740
21
26.4816915899900
31
0.000000000000000
  0
LINE
  5
F100DD
330
F100DE
100
AcDbEntity
8
Geo
100
AcDbLine
10
-16.4576787807740
20
26.4816915899900
30
0.000000000000000
11
-16.3576787807740
21
26.4784775314615
31
0.000000000000000
  0
LINE
  5
F100DF
330
F100E0
100
AcDbEntity
8
Geo
100
AcDbLine
10
-16.3576787807740
20
26.4784775314615
30
0.000000000000000
11
-16.2576787807740
21
26.4753646333464
31
0.000000000000000
  0
LINE
  5
F100E1
330
F100E2
100
AcDbEntity
8
Geo
100
AcDbLine
10
-16.2576787807740
20
26.4753646333464
30
0.000000000000000
11
-16.1576787807740
21
26.4723534183787
31
0.000000000000000
  0
LINE
  5
F100E3
330
F100E4
100
AcDbEntity
8
Geo
100
AcDbLine
10
-16.1576787807740
20
26.4723534183787
30
0.000000000000000
11
-16.1076787807740
21
26.4708861007628
31
0.000000000000000
  0
LINE
  5
F100E5
330
F100E6
100
AcDbEntity
8
Geo
100
AcDbLine
10
-16.1076787807740
20
26.4708861007628
30
0.000000000000000
11
-16.0076787807740
21
26.5421846729239
31
0.000000000000000
  0
LINE
  5
F100E7
330
F100E8
100
AcDbEntity
8
Geo
100
AcDbLine
10
-16.0076787807740
20
26.5421846729239
30
0.000000000000000
11
-15.9076787807740
21
26.5382359730360
31
0.000000000000000
  0
LINE
  5
F100E9
330
F100EA
100
AcDbEntity
8
Geo
100
AcDbLine
10
-17.1576787807740
20
27.7048437463860
30
0.000000000000000
11
-17.0576787807740
21
27.7028771389021
31
0.000000000000000
  0
LINE
  5
F100EB
330
F100EC
100
AcDbEntity
8
Geo
100
AcDbLine
10
-17.1576787807740
20
26.6409843065681
30
0.000000000000000
11
-17.0576787807740
21
26.6349762049681
31
0.000000000000000
  0
LINE
  5
F100ED
330
F100EE
100
AcDbEntity
8
Geo
100
AcDbLine
10
-17.0576787807740
20
27.7028771389021
30
0.000000000000000
11
-16.9576787807740
21
27.7008060842508
31
0.000000000000000
  0
LINE
  5
F100EF
330
F100F0
100
AcDbEntity
8
Geo
100
AcDbLine
10
-17.0576787807740
20
26.6349762049681
30
0.000000000000000
11
-16.9576787807740
21
26.6290429837063
31
0.000000000000000
  0
LINE
  5
F100F1
330
F100F2
100
AcDbEntity
8
Geo
100
AcDbLine
10
-16.9576787807740
20
27.7008060842508
30
0.000000000000000
11
-16.8576787807740
21
27.6986309302143
31
0.000000000000000
  0
LINE
  5
F100F3
330
F100F4
100
AcDbEntity
8
Geo
100
AcDbLine
10
-16.9576787807740
20
26.6290429837063
30
0.000000000000000
11
-16.8576787807740
21
26.6231856391202
31
0.000000000000000
  0
LINE
  5
F100F5
330
F100F6
100
AcDbEntity
8
Geo
100
AcDbLine
10
-16.8576787807740
20
27.6986309302143
30
0.000000000000000
11
-16.7576787807740
21
27.6963520420560
31
0.000000000000000
  0
LINE
  5
F100F7
330
F100F8
100
AcDbEntity
8
Geo
100
AcDbLine
10
-16.8576787807740
20
26.6231856391202
30
0.000000000000000
11
-16.7576787807740
21
26.6174051548057
31
0.000000000000000
  0
LINE
  5
F100F9
330
F100FA
100
AcDbEntity
8
Geo
100
AcDbLine
10
-16.7576787807740
20
27.6963520420560
30
0.000000000000000
11
-16.6576787807740
21
27.6939698024586
31
0.000000000000000
  0
LINE
  5
F100FB
330
F100FC
100
AcDbEntity
8
Geo
100
AcDbLine
10
-16.7576787807740
20
26.6174051548057
30
0.000000000000000
11
-16.6576787807740
21
26.6117025014520
31
0.000000000000000
  0
LINE
  5
F100FD
330
F100FE
100
AcDbEntity
8
Geo
100
AcDbLine
10
-16.6576787807740
20
27.6939698024586
30
0.000000000000000
11
-16.5576787807740
21
27.6914846114602
31
0.000000000000000
  0
LINE
  5
F100FF
330
F10100
100
AcDbEntity
8
Geo
100
AcDbLine
10
-16.6576787807740
20
26.6117025014520
30
0.000000000000000
11
-16.5576787807740
21
26.6060786366784
31
0.000000000000000
  0
LINE
  5
F10101
330
F10102
100
AcDbEntity
8
Geo
100
AcDbLine
10
-16.5576787807740
20
27.6914846114602
30
0.000000000000000
11
-16.4576787807740
21
27.6888968863872
31
0.000000000000000
  0
LINE
  5
F10103
330
F10104
100
AcDbEntity
8
Geo
100
AcDbLine
10
-16.5576787807740
20
26.6060786366784
30
0.000000000000000
11
-16.4576787807740
21
26.6005345048736
31
0.000000000000000
  0
LINE
  5
F10105
330
F10106
100
AcDbEntity
8
Geo
100
AcDbLine
10
-16.4576787807740
20
27.6888968863872
30
0.000000000000000
11
-16.3576787807740
21
27.6862070617837
31
0.000000000000000
  0
LINE
  5
F10107
330
F10108
100
AcDbEntity
8
Geo
100
AcDbLine
10
-16.4576787807740
20
26.6005345048736
30
0.000000000000000
11
-16.3576787807740
21
26.5950710370373
31
0.000000000000000
  0
LINE
  5
F10109
330
F1010A
100
AcDbEntity
8
Geo
100
AcDbLine
10
-16.3576787807740
20
27.6862070617837
30
0.000000000000000
11
-16.2576787807740
21
27.6834155893393
31
0.000000000000000
  0
LINE
  5
F1010B
330
F1010C
100
AcDbEntity
8
Geo
100
AcDbLine
10
-16.3576787807740
20
26.5950710370373
30
0.000000000000000
11
-16.2576787807740
21
26.5896891506235
31
0.000000000000000
  0
LINE
  5
F1010D
330
F1010E
100
AcDbEntity
8
Geo
100
AcDbLine
10
-16.2576787807740
20
27.6834155893393
30
0.000000000000000
11
-16.1576787807740
21
27.6805229378125
31
0.000000000000000
  0
LINE
  5
F1010F
330
F10110
100
AcDbEntity
8
Geo
100
AcDbLine
10
-16.2576787807740
20
26.5896891506235
30
0.000000000000000
11
-16.1576787807740
21
26.5843897493867
31
0.000000000000000
  0
LINE
  5
F10111
330
F10112
100
AcDbEntity
8
Geo
100
AcDbLine
10
-17.1576787807740
20
27.0808909730360
30
0.000000000000000
11
-17.1576787807740
21
27.0808909730360
31
0.000000000000000
  0
LINE
  5
F10113
330
F10114
100
AcDbEntity
8
Geo
100
AcDbLine
10
-17.1576787807740
20
27.0808909730360
30
0.000000000000000
11
-17.1576787807740
21
27.0808909730360
31
0.000000000000000
  0
LINE
  5
F10115
330
F10116
100
AcDbEntity
8
Geo
100
AcDbLine
10
-18.1576787807740
20
27.0808909730360
30
0.000000000000000
11
-17.8576787807740
21
27.0808909730360
31
0.000000000000000
  0
LINE
  5
F10117
330
F10118
100
AcDbEntity
8
Geo
100
AcDbLine
10
-17.7301787807740
20
27.0808909730360
30
0.000000000000000
11
-17.6451787807740
21
27.0808909730360
31
0.000000000000000
  0
LINE
  5
F10119
330
F1011A
100
AcDbEntity
8
Geo
100
AcDbLine
10
-17.4326787807740
20
27.0808909730360
30
0.000000000000000
11
-17.0076787807740
21
27.0808909730360
31
0.000000000000000
  0
LINE
  5
F1011B
330
F1011C
100
AcDbEntity
8
Geo
100
AcDbLine
10
-16.8801787807740
20
27.0808909730360
30
0.000000000000000
11
-16.7951787807740
21
27.0808909730360
31
0.000000000000000
  0
LINE
  5
F1011D
330
F1011E
100
AcDbEntity
8
Geo
100
AcDbLine
10
-16.5826787807740
20
27.0808909730360
30
0.000000000000000
11
-16.1576787807740
21
27.0808909730360
31
0.000000000000000
  0
LINE
  5
F1011F
330
F10120
100
AcDbEntity
8
Geo
100
AcDbLine
10
22.8423212192260
20
28.4808909730360
30
0.000000000000000
11
22.8423212192260
21
27.0808909730360
31
0.000000000000000
  0
LINE
  5
F10121
330
F10122
100
AcDbEntity
8
Geo
100
AcDbLine
10
-17.1576787807740
20
27.0808909730360
30
0.000000000000000
11
-17.1576787807740
21
26.4308909730360
31
0.000000000000000
  0
LINE
  5
F10123
330
F10124
100
AcDbEntity
8
Geo
100
AcDbLine
10
-17.1576787807740
20
26.4308909730360
30
0.000000000000000
11
-16.1076787807740
21
26.4308909730360
31
0.000000000000000
  0
LINE
  5
F10125
330
F10126
100
AcDbEntity
8
Geo
100
AcDbLine
10
-16.1076787807740
20
26.4308909730360
30
0.000000000000000
11
-16.1076787807740
21
26.5382359730360
31
0.000000000000000
  0
LINE
  5
F10127
330
F10128
100
AcDbEntity
8
Geo
100
AcDbLine
10
-16.1076787807740
20
26.5382359730360
30
0.000000000000000
11
-11.7576787807740
21
26.5382359730360
31
0.000000000000000
  0
LINE
  5
F10129
330
F1012A
100
AcDbEntity
8
Geo
100
AcDbLine
10
-11.7576787807740
20
26.5382359730360
30
0.000000000000000
11
-10.8003337807740
21
25.5808909730360
31
0.000000000000000
  0
LINE
  5
F1012B
330
F1012C
100
AcDbEntity
8
Geo
100
AcDbLine
10
-10.8003337807740
20
25.5808909730360
30
0.000000000000000
11
22.7423212192260
21
25.5808909730360
31
0.000000000000000
  0
LINE
  5
F1012D
330
F1012E
100
AcDbEntity
8
Geo
100
AcDbLine
10
22.7423212192260
20
25.5808909730360
30
0.000000000000000
11
22.8423212192260
21
25.6808909730360
31
0.000000000000000
  0
LINE
  5
F1012F
330
F10130
100
AcDbEntity
8
Geo
100
AcDbLine
10
-17.1576787807740
20
27.7308909730360
30
0.000000000000000
11
-17.1576787807740
21
26.4308909730360
31
0.000000000000000
  0
LINE
  5
F10131
330
F10132
100
AcDbEntity
8
Geo
100
AcDbLine
10
-16.1076787807740
20
27.6235459730360
30
0.000000000000000
11
-16.1076787807740
21
26.5382359730360
31
0.000000000000000
  0
LINE
  5
F10133
330
F10134
100
AcDbEntity
8
Geo
100
AcDbLine
10
-11.7576787807740
20
27.6235459730360
30
0.000000000000000
11
-11.7576787807740
21
26.5382359730360
31
0.000000000000000
  0
LINE
  5
F10135
330
F10136
100
AcDbEntity
8
Geo
100
AcDbLine
10
-10.8003337807740
20
28.5808909730360
30
0.000000000000000
11
-10.8003337807740
21
25.5808909730360
31
0.000000000000000
  0
LINE
  5
F10137
330
F10138
100
AcDbEntity
8
Geo
100
AcDbLine
10
-10.8003337807740
20
28.5808909730360
30
0.000000000000000
11
-10.8003337807740
21
25.5808909730360
31
0.000000000000000
  0
LINE
  5
F10139
330
F1013A
100
AcDbEntity
8
Geo
100
AcDbLine
10
22.7423212192260
20
28.5808909730360
30
0.000000000000000
11
22.7423212192260
21
25.5808909730360
31
0.000000000000000
  0
LINE
  5
F1013B
330
F1013C
100
AcDbEntity
8
Geo
100
AcDbLine
10
22.8423212192260
20
28.4808909730360
30
0.000000000000000
11
22.8423212192260
21
25.6808909730360
31
0.000000000000000
  0
LWPOLYLINE
  5
F1013D
330
F1013E
100
AcDbEntity
8
Rahmen
100
AcDbPolyline
90
   4
70
   1
43
   0.0
 10
-230.758620689655
 20
105.000000000000
 10
-230.758620689655
 20
105.000000000000
 10
-230.758620689655
 20
105.000000000000
 10
-230.758620689655
 20
105.000000000000
  0
TEXT
  5
F1013F
330
F10140
 100
AcDbEntity
8
Text
100
AcDbText
10
-230.758620689655
20
105.500000000000
30
0.000000000000000
40
1.00000000000000
1
 -       
100
AcDbText
  0
CIRCLE
  5
F10141
330
F10142
100
AcDbEntity
8
Geo
100
AcDbCircle
10
-101.044582647485
20
-7.72008881711051
30
0.000000000000000
 40
6.06666666666667
  0
CIRCLE
  5
F10143
330
F10144
100
AcDbEntity
8
Geo
100
AcDbCircle
10
-101.044582647485
20
-7.72008881711051
30
0.000000000000000
 40
14.0000000000000
  0
LINE
  5
F10145
330
F10146
100
AcDbEntity
8
Geo
100
AcDbLine
10
-114.766410578067
20
-7.19128194936615
30
0.000000000000000
11
-114.219316448220
21
-6.89496631130560
31
0.000000000000000
  0
LINE
  5
F10147
330
F10148
100
AcDbEntity
8
Geo
100
AcDbLine
10
-114.219316448220
20
-6.89496631130560
30
0.000000000000000
11
-113.399234218338
21
-6.45079559926082
31
0.000000000000000
  0
LINE
  5
F10149
330
F1014A
100
AcDbEntity
8
Geo
100
AcDbLine
10
-113.399234218338
20
-6.45079559926082
30
0.000000000000000
11
-112.579151988455
21
-6.00662488721604
31
0.000000000000000
  0
LINE
  5
F1014B
330
F1014C
100
AcDbEntity
8
Geo
100
AcDbLine
10
-112.579151988455
20
-6.00662488721604
30
0.000000000000000
11
-111.759069758573
21
-5.56245417517126
31
0.000000000000000
  0
LINE
  5
F1014D
330
F1014E
100
AcDbEntity
8
Geo
100
AcDbLine
10
-111.759069758573
20
-5.56245417517126
30
0.000000000000000
11
-110.938987528691
21
-5.11828346312648
31
0.000000000000000
  0
LINE
  5
F1014F
330
F10150
100
AcDbEntity
8
Geo
100
AcDbLine
10
-110.938987528691
20
-5.11828346312648
30
0.000000000000000
11
-110.118905298809
21
-4.67411275108169
31
0.000000000000000
  0
LINE
  5
F10151
330
F10152
100
AcDbEntity
8
Geo
100
AcDbLine
10
-110.118905298809
20
-4.67411275108169
30
0.000000000000000
11
-109.298823068926
21
-4.22994203903691
31
0.000000000000000
  0
LINE
  5
F10153
330
F10154
100
AcDbEntity
8
Geo
100
AcDbLine
10
-109.298823068926
20
-4.22994203903691
30
0.000000000000000
11
-108.478740839044
21
-3.78577132699213
31
0.000000000000000
  0
LINE
  5
F10155
330
F10156
100
AcDbEntity
8
Geo
100
AcDbLine
10
-108.478740839044
20
-3.78577132699213
30
0.000000000000000
11
-107.658658609162
21
-3.34160061494735
31
0.000000000000000
  0
LINE
  5
F10157
330
F10158
100
AcDbEntity
8
Geo
100
AcDbLine
10
-107.658658609162
20
-3.34160061494735
30
0.000000000000000
11
-106.838576379279
21
-2.89742990290256
31
0.000000000000000
  0
LINE
  5
F10159
330
F1015A
100
AcDbEntity
8
Geo
100
AcDbLine
10
-106.838576379279
20
-2.89742990290256
30
0.000000000000000
11
-106.018494149397
21
-2.45325919085778
31
0.000000000000000
  0
LINE
  5
F1015B
330
F1015C
100
AcDbEntity
8
Geo
100
AcDbLine
10
-106.018494149397
20
-2.45325919085778
30
0.000000000000000
11
-105.198411919515
21
-2.00908847881300
31
0.000000000000000
  0
LINE
  5
F1015D
330
F1015E
100
AcDbEntity
8
Geo
100
AcDbLine
10
-105.198411919515
20
-2.00908847881300
30
0.000000000000000
11
-104.378329689632
21
-1.56491776676822
31
0.000000000000000
  0
LINE
  5
F1015F
330
F10160
100
AcDbEntity
8
Geo
100
AcDbLine
10
-104.378329689632
20
-1.56491776676822
30
0.000000000000000
11
-104.174948815109
21
-1.45903398133476
31
0.000000000000000
  0
LINE
  5
F10161
330
F10162
100
AcDbEntity
8
Geo
100
AcDbLine
10
-104.174948815109
20
-1.45903398133476
30
0.000000000000000
11
-103.968209175484
21
-1.35986807213780
31
0.000000000000000
  0
LINE
  5
F10163
330
F10164
100
AcDbEntity
8
Geo
100
AcDbLine
10
-103.968209175484
20
-1.35986807213780
30
0.000000000000000
11
-103.758332594609
21
-1.26752644046633
31
0.000000000000000
  0
LINE
  5
F10165
330
F10166
100
AcDbEntity
8
Geo
100
AcDbLine
10
-103.758332594609
20
-1.26752644046633
30
0.000000000000000
11
-103.545544262159
21
-1.18210816541631
31
0.000000000000000
  0
LINE
  5
F10167
330
F10168
100
AcDbEntity
8
Geo
100
AcDbLine
10
-103.545544262159
20
-1.18210816541631
30
0.000000000000000
11
-103.330072492007
21
-1.10370489758261
31
0.000000000000000
  0
LINE
  5
F10169
330
F1016A
100
AcDbEntity
8
Geo
100
AcDbLine
10
-103.330072492007
20
-1.10370489758261
30
0.000000000000000
11
-103.112148477254
21
-1.03240076072131
31
0.000000000000000
  0
LINE
  5
F1016B
330
F1016C
100
AcDbEntity
8
Geo
100
AcDbLine
10
-103.112148477254
20
-1.03240076072131
30
0.000000000000000
11
-102.892006042168
21
-0.968272261488113
31
0.000000000000000
  0
LINE
  5
F1016D
330
F1016E
100
AcDbEntity
8
Geo
100
AcDbLine
10
-102.892006042168
20
-0.968272261488113
30
0.000000000000000
11
-102.669881391298
21
-0.911388207349537
31
0.000000000000000
  0
LINE
  5
F1016F
330
F10170
100
AcDbEntity
8
Geo
100
AcDbLine
10
-102.669881391298
20
-0.911388207349537
30
0.000000000000000
11
-102.576308555102
21
-0.887337850062739
31
0.000000000000000
  0
LINE
  5
F10171
330
F10172
100
AcDbEntity
8
Geo
100
AcDbLine
10
-102.576308555102
20
-0.887337850062739
30
0.000000000000000
11
-102.483621158179
21
-0.860073554528039
31
0.000000000000000
  0
LINE
  5
F10173
330
F10174
100
AcDbEntity
8
Geo
100
AcDbLine
10
-102.483621158179
20
-0.860073554528039
30
0.000000000000000
11
-102.391929554041
21
-0.829627781585643
31
0.000000000000000
  0
LINE
  5
F10175
330
F10176
100
AcDbEntity
8
Geo
100
AcDbLine
10
-102.391929554041
20
-0.829627781585643
30
0.000000000000000
11
-102.301342910612
21
-0.796036779939259
31
0.000000000000000
  0
LINE
  5
F10177
330
F10178
100
AcDbEntity
8
Geo
100
AcDbLine
10
-102.301342910612
20
-0.796036779939259
30
0.000000000000000
11
-102.211969080249
21
-0.759340542998427
31
0.000000000000000
  0
LINE
  5
F10179
330
F1017A
100
AcDbEntity
8
Geo
100
AcDbLine
10
-102.211969080249
20
-0.759340542998427
30
0.000000000000000
11
-102.123914471336
21
-0.719582761262410
31
0.000000000000000
  0
LINE
  5
F1017B
330
F1017C
100
AcDbEntity
8
Geo
100
AcDbLine
10
-102.123914471336
20
-0.719582761262410
30
0.000000000000000
11
-102.037283921594
21
-0.676810770302315
31
0.000000000000000
  0
LINE
  5
F1017D
330
F1017E
100
AcDbEntity
8
Geo
100
AcDbLine
10
-102.037283921594
20
-0.676810770302315
30
0.000000000000000
11
-101.952180573259
21
-0.631075494403452
31
0.000000000000000
  0
LINE
  5
F1017F
330
F10180
100
AcDbEntity
8
Geo
100
AcDbLine
10
-101.952180573259
20
-0.631075494403452
30
0.000000000000000
11
-101.868705750284
21
-0.582431385934898
31
0.000000000000000
  0
LINE
  5
F10181
330
F10182
100
AcDbEntity
8
Geo
100
AcDbLine
10
-101.868705750284
20
-0.582431385934898
30
0.000000000000000
11
-101.786958837701
21
-0.530936360518575
31
0.000000000000000
  0
LINE
  5
F10183
330
F10184
100
AcDbEntity
8
Geo
100
AcDbLine
10
-101.786958837701
20
-0.530936360518575
30
0.000000000000000
11
-101.707037163296
21
-0.476651728074994
31
0.000000000000000
  0
LINE
  5
F10185
330
F10186
100
AcDbEntity
8
Geo
100
AcDbLine
10
-101.707037163296
20
-0.476651728074994
30
0.000000000000000
11
-101.629035881724
21
-0.419642119827719
31
0.000000000000000
  0
LINE
  5
F10187
330
F10188
100
AcDbEntity
8
Geo
100
AcDbLine
10
-101.629035881724
20
-0.419642119827719
30
0.000000000000000
11
-101.553047861225
21
-0.359975411353489
31
0.000000000000000
  0
LINE
  5
F10189
330
F1018A
100
AcDbEntity
8
Geo
100
AcDbLine
10
-101.553047861225
20
-0.359975411353489
30
0.000000000000000
11
-101.479163573054
21
-0.297722641769663
31
0.000000000000000
  0
LINE
  5
F1018B
330
F1018C
100
AcDbEntity
8
Geo
100
AcDbLine
10
-101.479163573054
20
-0.297722641769663
30
0.000000000000000
11
-101.407470983763
21
-0.232957929155084
31
0.000000000000000
  0
LINE
  5
F1018D
330
F1018E
100
AcDbEntity
8
Geo
100
AcDbLine
10
-101.407470983763
20
-0.232957929155084
30
0.000000000000000
11
-101.338055450468
21
-0.165758382305237
31
0.000000000000000
  0
LINE
  5
F1018F
330
F10190
100
AcDbEntity
8
Geo
100
AcDbLine
10
-101.338055450468
20
-0.165758382305237
30
0.000000000000000
11
-101.270999619229
21
-0.0962040089265184
31
0.000000000000000
  0
LINE
  5
F10191
330
F10192
100
AcDbEntity
8
Geo
100
AcDbLine
10
-101.270999619229
20
-0.0962040089265184
30
0.000000000000000
11
-101.206383326642
21
-0.0243776203792150
31
0.000000000000000
  0
LINE
  5
F10193
330
F10194
100
AcDbEntity
8
Geo
100
AcDbLine
10
-101.206383326642
20
-0.0243776203792150
30
0.000000000000000
11
-101.144283504796
21
0.0496352669176172
31
0.000000000000000
  0
LINE
  5
F10195
330
F10196
100
AcDbEntity
8
Geo
100
AcDbLine
10
-101.144283504796
20
0.0496352669176172
30
0.000000000000000
11
-101.084774089669
21
0.125746533301946
31
0.000000000000000
  0
LINE
  5
F10197
330
F10198
100
AcDbEntity
8
Geo
100
AcDbLine
10
-101.084774089669
20
0.125746533301946
30
0.000000000000000
11
-101.027925933105
21
0.203865560783891
31
0.000000000000000
  0
LINE
  5
F10199
330
F1019A
100
AcDbEntity
8
Geo
100
AcDbLine
10
-101.027925933105
20
0.203865560783891
30
0.000000000000000
11
-100.973806718458
21
0.283899340935429
31
0.000000000000000
  0
LINE
  5
F1019B
330
F1019C
100
AcDbEntity
8
Geo
100
AcDbLine
10
-100.973806718458
20
0.283899340935429
30
0.000000000000000
11
-100.922480880004
21
0.365752585626119
31
0.000000000000000
  0
LINE
  5
F1019D
330
F1019E
100
AcDbEntity
8
Geo
100
AcDbLine
10
-100.922480880004
20
0.365752585626119
30
0.000000000000000
11
-100.874009526231
21
0.449327840473044
31
0.000000000000000
  0
LINE
  5
F1019F
330
F101A0
100
AcDbEntity
8
Geo
100
AcDbLine
10
-100.874009526231
20
0.449327840473044
30
0.000000000000000
11
-100.828450367077
21
0.534525600869895
31
0.000000000000000
  0
LINE
  5
F101A1
330
F101A2
100
AcDbEntity
8
Geo
100
AcDbLine
10
-100.828450367077
20
0.534525600869895
30
0.000000000000000
11
-100.785857645230
21
0.621244430457047
31
0.000000000000000
  0
LINE
  5
F101A3
330
F101A4
100
AcDbEntity
8
Geo
100
AcDbLine
10
-100.785857645230
20
0.621244430457047
30
0.000000000000000
11
-100.746282071535
21
0.709381081891552
31
0.000000000000000
  0
LINE
  5
F101A5
330
F101A6
100
AcDbEntity
8
Geo
100
AcDbLine
10
-100.746282071535
20
0.709381081891552
30
0.000000000000000
11
-100.709770764627
21
0.798830619773359
31
0.000000000000000
  0
LINE
  5
F101A7
330
F101A8
100
AcDbEntity
8
Geo
100
AcDbLine
10
-100.709770764627
20
0.798830619773359
30
0.000000000000000
11
-100.676367194828
21
0.889486545581255
31
0.000000000000000
  0
LINE
  5
F101A9
330
F101AA
100
AcDbEntity
8
Geo
100
AcDbLine
10
-100.676367194828
20
0.889486545581255
30
0.000000000000000
11
-100.646111132392
21
0.981240924469883
31
0.000000000000000
  0
LINE
  5
F101AB
330
F101AC
100
AcDbEntity
8
Geo
100
AcDbLine
10
-100.646111132392
20
0.981240924469883
30
0.000000000000000
11
-100.619038600153
21
1.07398451377686
31
0.000000000000000
  0
LINE
  5
F101AD
330
F101AE
100
AcDbEntity
8
Geo
100
AcDbLine
10
-100.619038600153
20
1.07398451377686
30
0.000000000000000
11
-100.595181830638
21
1.16760689308697
31
0.000000000000000
  0
LINE
  5
F101AF
330
F101B0
100
AcDbEntity
8
Geo
100
AcDbLine
10
-100.595181830638
20
1.16760689308697
30
0.000000000000000
11
-100.574569227691
21
1.26199659569860
31
0.000000000000000
  0
LINE
  5
F101B1
330
F101B2
100
AcDbEntity
8
Geo
100
AcDbLine
10
-100.574569227691
20
1.26199659569860
30
0.000000000000000
11
-100.557225332653
21
1.35704124133584
31
0.000000000000000
  0
LINE
  5
F101B3
330
F101B4
100
AcDbEntity
8
Geo
100
AcDbLine
10
-100.557225332653
20
1.35704124133584
30
0.000000000000000
11
-100.543170795148
21
1.45262766994834
31
0.000000000000000
  0
LINE
  5
F101B5
330
F101B6
100
AcDbEntity
8
Geo
100
AcDbLine
10
-100.543170795148
20
1.45262766994834
30
0.000000000000000
11
-100.532422348492
21
1.54864207643957
31
0.000000000000000
  0
LINE
  5
F101B7
330
F101B8
100
AcDbEntity
8
Geo
100
AcDbLine
10
-100.532422348492
20
1.54864207643957
30
0.000000000000000
11
-100.524992789774
21
1.64497014616293
31
0.000000000000000
  0
LINE
  5
F101B9
330
F101BA
100
AcDbEntity
8
Geo
100
AcDbLine
10
-100.524992789774
20
1.64497014616293
30
0.000000000000000
11
-100.520890964618
21
1.74149719102483
31
0.000000000000000
  0
LINE
  5
F101BB
330
F101BC
100
AcDbEntity
8
Geo
100
AcDbLine
10
-100.520890964618
20
1.74149719102483
30
0.000000000000000
11
-100.520121756653
21
1.83810828603201
31
0.000000000000000
  0
LINE
  5
F101BD
330
F101BE
100
AcDbEntity
8
Geo
100
AcDbLine
10
-100.520121756653
20
1.83810828603201
30
0.000000000000000
11
-100.522686081697
21
1.93468840612124
31
0.000000000000000
  0
LINE
  5
F101BF
330
F101C0
100
AcDbEntity
8
Geo
100
AcDbLine
10
-100.522686081697
20
1.93468840612124
30
0.000000000000000
11
-100.528580886667
21
2.03112256310796
31
0.000000000000000
  0
LINE
  5
F101C1
330
F101C2
100
AcDbEntity
8
Geo
100
AcDbLine
10
-100.528580886667
20
2.03112256310796
30
0.000000000000000
11
-100.537799153215
21
2.12729594259112
31
0.000000000000000
  0
LINE
  5
F101C3
330
F101C4
100
AcDbEntity
8
Geo
100
AcDbLine
10
-100.537799153215
20
2.12729594259112
30
0.000000000000000
11
-100.550329906084
21
2.22309404065121
31
0.000000000000000
  0
LINE
  5
F101C5
330
F101C6
100
AcDbEntity
8
Geo
100
AcDbLine
10
-100.550329906084
20
2.22309404065121
30
0.000000000000000
11
-100.670718915902
21
3.03437462763671
31
0.000000000000000
  0
LINE
  5
F101C7
330
F101C8
100
AcDbEntity
8
Geo
100
AcDbLine
10
-100.670718915902
20
3.03437462763671
30
0.000000000000000
11
-100.791107925721
21
3.84565521462220
31
0.000000000000000
  0
LINE
  5
F101C9
330
F101CA
100
AcDbEntity
8
Geo
100
AcDbLine
10
-100.791107925721
20
3.84565521462220
30
0.000000000000000
11
-100.911496935540
21
4.65693580160769
31
0.000000000000000
  0
LINE
  5
F101CB
330
F101CC
100
AcDbEntity
8
Geo
100
AcDbLine
10
-100.911496935540
20
4.65693580160769
30
0.000000000000000
11
-101.031885945358
21
5.46821638859319
31
0.000000000000000
  0
LINE
  5
F101CD
330
F101CE
100
AcDbEntity
8
Geo
100
AcDbLine
10
-101.031885945358
20
5.46821638859319
30
0.000000000000000
11
-101.152274955177
21
6.27949697557868
31
0.000000000000000
  0
LINE
  5
F101CF
330
F101D0
100
AcDbEntity
8
Geo
100
AcDbLine
10
-101.152274955177
20
6.27949697557868
30
0.000000000000000
11
-99.7717148351192
21
6.04700234143497
31
0.000000000000000
  0
LINE
  5
F101D1
330
F101D2
100
AcDbEntity
8
Geo
100
AcDbLine
10
-99.7717148351192
20
6.04700234143497
30
0.000000000000000
11
-93.7257085010313
21
3.89895932326049
31
0.000000000000000
  0
LINE
  5
F101D3
330
F101D4
100
AcDbEntity
8
Geo
100
AcDbLine
10
-93.7257085010313
20
3.89895932326049
30
0.000000000000000
11
-93.7426386958558
21
3.27700408952131
31
0.000000000000000
  0
LINE
  5
F101D5
330
F101D6
100
AcDbEntity
8
Geo
100
AcDbLine
10
-93.7426386958558
20
3.27700408952131
30
0.000000000000000
11
-93.7680166905491
21
2.34470668922859
31
0.000000000000000
  0
LINE
  5
F101D7
330
F101D8
100
AcDbEntity
8
Geo
100
AcDbLine
10
-93.7680166905491
20
2.34470668922859
30
0.000000000000000
11
-93.7933946852425
21
1.41240928893595
31
0.000000000000000
  0
LINE
  5
F101D9
330
F101DA
100
AcDbEntity
8
Geo
100
AcDbLine
10
-93.7933946852425
20
1.41240928893595
30
0.000000000000000
11
-93.8187726799358
21
0.480111888643295
31
0.000000000000000
  0
LINE
  5
F101DB
330
F101DC
100
AcDbEntity
8
Geo
100
AcDbLine
10
-93.8187726799358
20
0.480111888643295
30
0.000000000000000
11
-93.8441506746292
21
-0.452185511649359
31
0.000000000000000
  0
LINE
  5
F101DD
330
F101DE
100
AcDbEntity
8
Geo
100
AcDbLine
10
-93.8441506746292
20
-0.452185511649359
30
0.000000000000000
11
-93.8695286693225
21
-1.38448291194201
31
0.000000000000000
  0
LINE
  5
F101DF
330
F101E0
100
AcDbEntity
8
Geo
100
AcDbLine
10
-93.8695286693225
20
-1.38448291194201
30
0.000000000000000
11
-93.8949066640159
21
-2.31678031223467
31
0.000000000000000
  0
LINE
  5
F101E1
330
F101E2
100
AcDbEntity
8
Geo
100
AcDbLine
10
-93.8949066640159
20
-2.31678031223467
30
0.000000000000000
11
-93.9202846587092
21
-3.24907771252732
31
0.000000000000000
  0
LINE
  5
F101E3
330
F101E4
100
AcDbEntity
8
Geo
100
AcDbLine
10
-93.9202846587092
20
-3.24907771252732
30
0.000000000000000
11
-93.9456626534026
21
-4.18137511281998
31
0.000000000000000
  0
LINE
  5
F101E5
330
F101E6
100
AcDbEntity
8
Geo
100
AcDbLine
10
-93.9456626534026
20
-4.18137511281998
30
0.000000000000000
11
-93.9710406480959
21
-5.11367251311263
31
0.000000000000000
  0
LINE
  5
F101E7
330
F101E8
100
AcDbEntity
8
Geo
100
AcDbLine
10
-93.9710406480959
20
-5.11367251311263
30
0.000000000000000
11
-93.9964186427893
21
-6.04596991340529
31
0.000000000000000
  0
LINE
  5
F101E9
330
F101EA
100
AcDbEntity
8
Geo
100
AcDbLine
10
-93.9964186427893
20
-6.04596991340529
30
0.000000000000000
11
-94.0217966374827
21
-6.97826731369795
31
0.000000000000000
  0
LINE
  5
F101EB
330
F101EC
100
AcDbEntity
8
Geo
100
AcDbLine
10
-94.0217966374827
20
-6.97826731369795
30
0.000000000000000
11
-94.0471746321760
21
-7.91056471399060
31
0.000000000000000
  0
LINE
  5
F101ED
330
F101EE
100
AcDbEntity
8
Geo
100
AcDbLine
10
-94.0471746321760
20
-7.91056471399060
30
0.000000000000000
11
-94.0571670214033
21
-8.13963961068813
31
0.000000000000000
  0
LINE
  5
F101EF
330
F101F0
100
AcDbEntity
8
Geo
100
AcDbLine
10
-94.0571670214033
20
-8.13963961068813
30
0.000000000000000
11
-94.0746566446622
21
-8.36826434517176
31
0.000000000000000
  0
LINE
  5
F101F1
330
F101F2
100
AcDbEntity
8
Geo
100
AcDbLine
10
-94.0746566446622
20
-8.36826434517176
30
0.000000000000000
11
-94.0996247362452
21
-8.59619361170449
31
0.000000000000000
  0
LINE
  5
F101F3
330
F101F4
100
AcDbEntity
8
Geo
100
AcDbLine
10
-94.0996247362452
20
-8.59619361170449
30
0.000000000000000
11
-94.1320445063295
21
-8.82318285076029
31
0.000000000000000
  0
LINE
  5
F101F5
330
F101F6
100
AcDbEntity
8
Geo
100
AcDbLine
10
-94.1320445063295
20
-8.82318285076029
30
0.000000000000000
11
-94.1718811697218
21
-9.04898851142720
31
0.000000000000000
  0
LINE
  5
F101F7
330
F101F8
100
AcDbEntity
8
Geo
100
AcDbLine
10
-94.1718811697218
20
-9.04898851142720
30
0.000000000000000
11
-94.2190919831814
21
-9.27336831272833
31
0.000000000000000
  0
LINE
  5
F101F9
330
F101FA
100
AcDbEntity
8
Geo
100
AcDbLine
10
-94.2190919831814
20
-9.27336831272833
30
0.000000000000000
11
-94.2736262912818
21
-9.49608150358029
31
0.000000000000000
  0
LINE
  5
F101FB
330
F101FC
100
AcDbEntity
8
Geo
100
AcDbLine
10
-94.2736262912818
20
-9.49608150358029
30
0.000000000000000
11
-94.3354255807626
21
-9.71688912110992
31
0.000000000000000
  0
LINE
  5
F101FD
330
F101FE
100
AcDbEntity
8
Geo
100
AcDbLine
10
-94.3354255807626
20
-9.71688912110992
30
0.000000000000000
11
-94.3613837784802
21
-9.80995075300318
31
0.000000000000000
  0
LINE
  5
F101FF
330
F10200
100
AcDbEntity
8
Geo
100
AcDbLine
10
-94.3613837784802
20
-9.80995075300318
30
0.000000000000000
11
-94.3841159043923
21
-9.90385254111656
31
0.000000000000000
  0
LINE
  5
F10201
330
F10202
100
AcDbEntity
8
Geo
100
AcDbLine
10
-94.3841159043923
20
-9.90385254111656
30
0.000000000000000
11
-94.4035948936552
21
-9.99848268608463
31
0.000000000000000
  0
LINE
  5
F10203
330
F10204
100
AcDbEntity
8
Geo
100
AcDbLine
10
-94.4035948936552
20
-9.99848268608463
30
0.000000000000000
11
-94.4197975546054
21
-10.0937285213611
31
0.000000000000000
  0
LINE
  5
F10205
330
F10206
100
AcDbEntity
8
Geo
100
AcDbLine
10
-94.4197975546054
20
-10.0937285213611
30
0.000000000000000
11
-94.4327045963729
21
-10.1894766473594
31
0.000000000000000
  0
LINE
  5
F10207
330
F10208
100
AcDbEntity
8
Geo
100
AcDbLine
10
-94.4327045963729
20
-10.1894766473594
30
0.000000000000000
11
-94.4423006518479
21
-10.2856130664663
31
0.000000000000000
  0
LINE
  5
F10209
330
F1020A
100
AcDbEntity
8
Geo
100
AcDbLine
10
-94.4423006518479
20
-10.2856130664663
30
0.000000000000000
11
-94.4485742959772
21
-10.3820233187672
31
0.000000000000000
  0
LINE
  5
F1020B
330
F1020C
100
AcDbEntity
8
Geo
100
AcDbLine
10
-94.4485742959772
20
-10.3820233187672
30
0.000000000000000
11
-94.4515180593672
21
-10.4785926183219
31
0.000000000000000
  0
LINE
  5
F1020D
330
F1020E
100
AcDbEntity
8
Geo
100
AcDbLine
10
-94.4515180593672
20
-10.4785926183219
30
0.000000000000000
11
-94.4511284371764
21
-10.5752059898287
31
0.000000000000000
  0
LINE
  5
F1020F
330
F10210
100
AcDbEntity
8
Geo
100
AcDbLine
10
-94.4511284371764
20
-10.5752059898287
30
0.000000000000000
11
-94.4474058932886
21
-10.6717484055142
31
0.000000000000000
  0
LINE
  5
F10211
330
F10212
100
AcDbEntity
8
Geo
100
AcDbLine
10
-94.4474058932886
20
-10.6717484055142
30
0.000000000000000
11
-94.4403548597603
21
-10.7681049220845
31
0.000000000000000
  0
LINE
  5
F10213
330
F10214
100
AcDbEntity
8
Geo
100
AcDbLine
10
-94.4403548597603
20
-10.7681049220845
30
0.000000000000000
11
-94.4299837315443
21
-10.8641608175772
31
0.000000000000000
  0
LINE
  5
F10215
330
F10216
100
AcDbEntity
8
Geo
100
AcDbLine
10
-94.4299837315443
20
-10.8641608175772
30
0.000000000000000
11
-94.4163048564945
21
-10.9598017279490
31
0.000000000000000
  0
LINE
  5
F10217
330
F10218
100
AcDbEntity
8
Geo
100
AcDbLine
10
-94.4163048564945
20
-10.9598017279490
30
0.000000000000000
11
-94.3993345206644
21
-11.0549137832374
31
0.000000000000000
  0
LINE
  5
F10219
330
F1021A
100
AcDbEntity
8
Geo
100
AcDbLine
10
-94.3993345206644
20
-11.0549137832374
30
0.000000000000000
11
-94.3790929289172
21
-11.1493837431343
31
0.000000000000000
  0
LINE
  5
F1021B
330
F1021C
100
AcDbEntity
8
Geo
100
AcDbLine
10
-94.3790929289172
20
-11.1493837431343
30
0.000000000000000
11
-94.3556041808696
21
-11.2430991318095
31
0.000000000000000
  0
LINE
  5
F1021D
330
F1021E
100
AcDbEntity
8
Geo
100
AcDbLine
10
-94.3556041808696
20
-11.2430991318095
30
0.000000000000000
11
-94.3288962421993
21
-11.3359483718245
31
0.000000000000000
  0
LINE
  5
F1021F
330
F10220
100
AcDbEntity
8
Geo
100
AcDbLine
10
-94.3288962421993
20
-11.3359483718245
30
0.000000000000000
11
-94.2990009113485
21
-11.4278209169764
31
0.000000000000000
  0
LINE
  5
F10221
330
F10222
100
AcDbEntity
8
Geo
100
AcDbLine
10
-94.2990009113485
20
-11.4278209169764
30
0.000000000000000
11
-94.2659537816653
21
-11.5186073839144
31
0.000000000000000
  0
LINE
  5
F10223
330
F10224
100
AcDbEntity
8
Geo
100
AcDbLine
10
-94.2659537816653
20
-11.5186073839144
30
0.000000000000000
11
-94.2297941990257
21
-11.6081996823708
31
0.000000000000000
  0
LINE
  5
F10225
330
F10226
100
AcDbEntity
8
Geo
100
AcDbLine
10
-94.2297941990257
20
-11.6081996823708
30
0.000000000000000
11
-94.1905652149891
21
-11.6964911438540
31
0.000000000000000
  0
LINE
  5
F10227
330
F10228
100
AcDbEntity
8
Geo
100
AcDbLine
10
-94.1905652149891
20
-11.6964911438540
30
0.000000000000000
11
-94.1483135355406
21
-11.7833766486471
31
0.000000000000000
  0
LINE
  5
F10229
330
F1022A
100
AcDbEntity
8
Geo
100
AcDbLine
10
-94.1483135355406
20
-11.7833766486471
30
0.000000000000000
11
-94.1030894654832
21
-11.8687527509640
31
0.000000000000000
  0
LINE
  5
F1022B
330
F1022C
100
AcDbEntity
8
Geo
100
AcDbLine
10
-94.1030894654832
20
-11.8687527509640
30
0.000000000000000
11
-94.0549468485448
21
-11.9525178021113
31
0.000000000000000
  0
LINE
  5
F1022D
330
F1022E
100
AcDbEntity
8
Geo
100
AcDbLine
10
-94.0549468485448
20
-11.9525178021113
30
0.000000000000000
11
-94.0039430032721
21
-12.0345720715113
31
0.000000000000000
  0
LINE
  5
F1022F
330
F10230
100
AcDbEntity
8
Geo
100
AcDbLine
10
-94.0039430032721
20
-12.0345720715113
30
0.000000000000000
11
-93.9501386547872
21
-12.1148178654415
31
0.000000000000000
  0
LINE
  5
F10231
330
F10232
100
AcDbEntity
8
Geo
100
AcDbLine
10
-93.9501386547872
20
-12.1148178654415
30
0.000000000000000
11
-93.8935978624879
21
-12.1931596433480
31
0.000000000000000
  0
LINE
  5
F10233
330
F10234
100
AcDbEntity
8
Geo
100
AcDbLine
10
-93.8935978624879
20
-12.1931596433480
30
0.000000000000000
11
-93.8343879437793
21
-12.2695041315964
31
0.000000000000000
  0
LINE
  5
F10235
330
F10236
100
AcDbEntity
8
Geo
100
AcDbLine
10
-93.8343879437793
20
-12.2695041315964
30
0.000000000000000
11
-93.7725793939254
21
-12.3437604345230
31
0.000000000000000
  0
LINE
  5
F10237
330
F10238
100
AcDbEntity
8
Geo
100
AcDbLine
10
-93.7725793939254
20
-12.3437604345230
30
0.000000000000000
11
-93.7082458021175
21
-12.4158401426555
31
0.000000000000000
  0
LINE
  5
F10239
330
F1023A
100
AcDbEntity
8
Geo
100
AcDbLine
10
-93.7082458021175
20
-12.4158401426555
30
0.000000000000000
11
-93.6414637638590
21
-12.4856574379728
31
0.000000000000000
  0
LINE
  5
F1023B
330
F1023C
100
AcDbEntity
8
Geo
100
AcDbLine
10
-93.6414637638590
20
-12.4856574379728
30
0.000000000000000
11
-93.5723127897712
21
-12.5531291960801
31
0.000000000000000
  0
LINE
  5
F1023D
330
F1023E
100
AcDbEntity
8
Geo
100
AcDbLine
10
-93.5723127897712
20
-12.5531291960801
30
0.000000000000000
11
-93.5008752109276
21
-12.6181750851765
31
0.000000000000000
  0
LINE
  5
F1023F
330
F10240
100
AcDbEntity
8
Geo
100
AcDbLine
10
-93.5008752109276
20
-12.6181750851765
30
0.000000000000000
11
-93.4272360808308
21
-12.6807176616981
31
0.000000000000000
  0
LINE
  5
F10241
330
F10242
100
AcDbEntity
8
Geo
100
AcDbLine
10
-93.4272360808308
20
-12.6807176616981
30
0.000000000000000
11
-93.3514830741479
21
-12.7406824625223
31
0.000000000000000
  0
LINE
  5
F10243
330
F10244
100
AcDbEntity
8
Geo
100
AcDbLine
10
-93.3514830741479
20
-12.7406824625223
30
0.000000000000000
11
-93.2737063823252
21
-12.7979980936232
31
0.000000000000000
  0
LINE
  5
F10245
330
F10246
100
AcDbEntity
8
Geo
100
AcDbLine
10
-93.2737063823252
20
-12.7979980936232
30
0.000000000000000
11
-93.1939986062064
21
-12.8525963150738
31
0.000000000000000
  0
LINE
  5
F10247
330
F10248
100
AcDbEntity
8
Geo
100
AcDbLine
10
-93.1939986062064
20
-12.8525963150738
30
0.000000000000000
11
-93.1124546457817
21
-12.9044121222916
31
0.000000000000000
  0
LINE
  5
F10249
330
F1024A
100
AcDbEntity
8
Geo
100
AcDbLine
10
-93.1124546457817
20
-12.9044121222916
30
0.000000000000000
11
-93.0291715872006
21
-12.9533838234337
31
0.000000000000000
  0
LINE
  5
F1024B
330
F1024C
100
AcDbEntity
8
Geo
100
AcDbLine
10
-93.0291715872006
20
-12.9533838234337
30
0.000000000000000
11
-92.9442485871808
21
-12.9994531128468
31
0.000000000000000
  0
LINE
  5
F1024D
330
F1024E
100
AcDbEntity
8
Geo
100
AcDbLine
10
-92.9442485871808
20
-12.9994531128468
30
0.000000000000000
11
-92.8577867549526
21
-13.0425651404855
31
0.000000000000000
  0
LINE
  5
F1024F
330
F10250
100
AcDbEntity
8
Geo
100
AcDbLine
10
-92.8577867549526
20
-13.0425651404855
30
0.000000000000000
11
-92.7698890318782
21
-13.0826685772174
31
0.000000000000000
  0
LINE
  5
F10251
330
F10252
100
AcDbEntity
8
Geo
100
AcDbLine
10
-92.7698890318782
20
-13.0826685772174
30
0.000000000000000
11
-92.6806600688897
21
-13.1197156759348
31
0.000000000000000
  0
LINE
  5
F10253
330
F10254
100
AcDbEntity
8
Geo
100
AcDbLine
10
-92.6806600688897
20
-13.1197156759348
30
0.000000000000000
11
-91.9178759660538
21
-13.4210960285881
31
0.000000000000000
  0
LINE
  5
F10255
330
F10256
100
AcDbEntity
8
Geo
100
AcDbLine
10
-91.9178759660538
20
-13.4210960285881
30
0.000000000000000
11
-91.1550918632179
21
-13.7224763812415
31
0.000000000000000
  0
LINE
  5
F10257
330
F10258
100
AcDbEntity
8
Geo
100
AcDbLine
10
-91.1550918632179
20
-13.7224763812415
30
0.000000000000000
11
-90.3923077603820
21
-14.0238567338948
31
0.000000000000000
  0
LINE
  5
F10259
330
F1025A
100
AcDbEntity
8
Geo
100
AcDbLine
10
-90.3923077603820
20
-14.0238567338948
30
0.000000000000000
11
-89.6295236575461
21
-14.3252370865481
31
0.000000000000000
  0
LINE
  5
F1025B
330
F1025C
100
AcDbEntity
8
Geo
100
AcDbLine
10
-89.6295236575461
20
-14.3252370865481
30
0.000000000000000
11
-88.8667395547102
21
-14.6266174392014
31
0.000000000000000
  0
LINE
  5
F1025D
330
F1025E
100
AcDbEntity
8
Geo
100
AcDbLine
10
-88.8667395547102
20
-14.6266174392014
30
0.000000000000000
11
-89.7583658741512
21
-15.7059702575514
31
0.000000000000000
  0
LINE
  5
F1025F
330
F10260
100
AcDbEntity
8
Geo
100
AcDbLine
10
-89.7583658741512
20
-15.7059702575514
30
0.000000000000000
11
-94.6416288633559
21
-19.8679438252258
31
0.000000000000000
  0
LINE
  5
F10261
330
F10262
100
AcDbEntity
8
Geo
100
AcDbLine
10
-94.6416288633559
20
-19.8679438252258
30
0.000000000000000
11
-95.1717927983784
21
-19.5423042295472
31
0.000000000000000
  0
LINE
  5
F10263
330
F10264
100
AcDbEntity
8
Geo
100
AcDbLine
10
-95.1717927983784
20
-19.5423042295472
30
0.000000000000000
11
-95.9664970335674
21
-19.0541775412993
31
0.000000000000000
  0
LINE
  5
F10265
330
F10266
100
AcDbEntity
8
Geo
100
AcDbLine
10
-95.9664970335674
20
-19.0541775412993
30
0.000000000000000
11
-96.7612012687564
21
-18.5660508530514
31
0.000000000000000
  0
LINE
  5
F10267
330
F10268
100
AcDbEntity
8
Geo
100
AcDbLine
10
-96.7612012687564
20
-18.5660508530514
30
0.000000000000000
11
-97.5559055039453
21
-18.0779241648036
31
0.000000000000000
  0
LINE
  5
F10269
330
F1026A
100
AcDbEntity
8
Geo
100
AcDbLine
10
-97.5559055039453
20
-18.0779241648036
30
0.000000000000000
11
-98.3506097391343
21
-17.5897974765557
31
0.000000000000000
  0
LINE
  5
F1026B
330
F1026C
100
AcDbEntity
8
Geo
100
AcDbLine
10
-98.3506097391343
20
-17.5897974765557
30
0.000000000000000
11
-99.1453139743232
21
-17.1016707883078
31
0.000000000000000
  0
LINE
  5
F1026D
330
F1026E
100
AcDbEntity
8
Geo
100
AcDbLine
10
-99.1453139743232
20
-17.1016707883078
30
0.000000000000000
11
-99.9400182095122
21
-16.6135441000600
31
0.000000000000000
  0
LINE
  5
F1026F
330
F10270
100
AcDbEntity
8
Geo
100
AcDbLine
10
-99.9400182095122
20
-16.6135441000600
30
0.000000000000000
11
-100.734722444701
21
-16.1254174118121
31
0.000000000000000
  0
LINE
  5
F10271
330
F10272
100
AcDbEntity
8
Geo
100
AcDbLine
10
-100.734722444701
20
-16.1254174118121
30
0.000000000000000
11
-101.529426679890
21
-15.6372907235642
31
0.000000000000000
  0
LINE
  5
F10273
330
F10274
100
AcDbEntity
8
Geo
100
AcDbLine
10
-101.529426679890
20
-15.6372907235642
30
0.000000000000000
11
-102.324130915079
21
-15.1491640353164
31
0.000000000000000
  0
LINE
  5
F10275
330
F10276
100
AcDbEntity
8
Geo
100
AcDbLine
10
-102.324130915079
20
-15.1491640353164
30
0.000000000000000
11
-103.118835150268
21
-14.6610373470685
31
0.000000000000000
  0
LINE
  5
F10277
330
F10278
100
AcDbEntity
8
Geo
100
AcDbLine
10
-103.118835150268
20
-14.6610373470685
30
0.000000000000000
11
-103.913539385457
21
-14.1729106588206
31
0.000000000000000
  0
LINE
  5
F10279
330
F1027A
100
AcDbEntity
8
Geo
100
AcDbLine
10
-103.913539385457
20
-14.1729106588206
30
0.000000000000000
11
-104.708243620646
21
-13.6847839705727
31
0.000000000000000
  0
LINE
  5
F1027B
330
F1027C
100
AcDbEntity
8
Geo
100
AcDbLine
10
-104.708243620646
20
-13.6847839705727
30
0.000000000000000
11
-104.901632105942
21
-13.5615928593087
31
0.000000000000000
  0
LINE
  5
F1027D
330
F1027E
100
AcDbEntity
8
Geo
100
AcDbLine
10
-104.901632105942
20
-13.5615928593087
30
0.000000000000000
11
-105.090882122308
21
-13.4321340340220
31
0.000000000000000
  0
LINE
  5
F1027F
330
F10280
100
AcDbEntity
8
Geo
100
AcDbLine
10
-105.090882122308
20
-13.4321340340220
30
0.000000000000000
11
-105.275790611600
21
-13.2965463991607
31
0.000000000000000
  0
LINE
  5
F10281
330
F10282
100
AcDbEntity
8
Geo
100
AcDbLine
10
-105.275790611600
20
-13.2965463991607
30
0.000000000000000
11
-105.456159173966
21
-13.1549754351550
31
0.000000000000000
  0
LINE
  5
F10283
330
F10284
100
AcDbEntity
8
Geo
100
AcDbLine
10
-105.456159173966
20
-13.1549754351550
30
0.000000000000000
11
-105.631794280726
21
-13.0075730423218
31
0.000000000000000
  0
LINE
  5
F10285
330
F10286
100
AcDbEntity
8
Geo
100
AcDbLine
10
-105.631794280726
20
-13.0075730423218
30
0.000000000000000
11
-105.802507482019
21
-12.8544973778819
31
0.000000000000000
  0
LINE
  5
F10287
330
F10288
100
AcDbEntity
8
Geo
100
AcDbLine
10
-105.802507482019
20
-12.8544973778819
30
0.000000000000000
11
-105.968115609004
21
-12.6959126862632
31
0.000000000000000
  0
LINE
  5
F10289
330
F1028A
100
AcDbEntity
8
Geo
100
AcDbLine
10
-105.968115609004
20
-12.6959126862632
30
0.000000000000000
11
-106.128440970394
21
-12.5319891228721
31
0.000000000000000
  0
LINE
  5
F1028B
330
F1028C
100
AcDbEntity
8
Geo
100
AcDbLine
10
-106.128440970394
20
-12.5319891228721
30
0.000000000000000
11
-106.196055608872
21
-12.4629778482656
31
0.000000000000000
  0
LINE
  5
F1028D
330
F1028E
100
AcDbEntity
8
Geo
100
AcDbLine
10
-106.196055608872
20
-12.4629778482656
30
0.000000000000000
11
-106.266010879883
21
-12.3963403556870
31
0.000000000000000
  0
LINE
  5
F1028F
330
F10290
100
AcDbEntity
8
Geo
100
AcDbLine
10
-106.266010879883
20
-12.3963403556870
30
0.000000000000000
11
-106.338223494758
21
-12.3321559836613
31
0.000000000000000
  0
LINE
  5
F10291
330
F10292
100
AcDbEntity
8
Geo
100
AcDbLine
10
-106.338223494758
20
-12.3321559836613
30
0.000000000000000
11
-106.412607477237
21
-12.2705011500312
31
0.000000000000000
  0
LINE
  5
F10293
330
F10294
100
AcDbEntity
8
Geo
100
AcDbLine
10
-106.412607477237
20
-12.2705011500312
30
0.000000000000000
11
-106.489074265832
21
-12.2114492609737
31
0.000000000000000
  0
LINE
  5
F10295
330
F10296
100
AcDbEntity
8
Geo
100
AcDbLine
10
-106.489074265832
20
-12.2114492609737
30
0.000000000000000
11
-106.567532819270
21
-12.1550706236028
31
0.000000000000000
  0
LINE
  5
F10297
330
F10298
100
AcDbEntity
8
Geo
100
AcDbLine
10
-106.567532819270
20
-12.1550706236028
30
0.000000000000000
11
-106.647889724883
21
-12.1014323622621
31
0.000000000000000
  0
LINE
  5
F10299
330
F1029A
100
AcDbEntity
8
Geo
100
AcDbLine
10
-106.647889724883
20
-12.1014323622621
30
0.000000000000000
11
-106.730049309829
21
-12.0505983386063
31
0.000000000000000
  0
LINE
  5
F1029B
330
F1029C
100
AcDbEntity
8
Geo
100
AcDbLine
10
-106.730049309829
20
-12.0505983386063
30
0.000000000000000
11
-106.813913754994
21
-12.0026290755679
31
0.000000000000000
  0
LINE
  5
F1029D
330
F1029E
100
AcDbEntity
8
Geo
100
AcDbLine
10
-106.813913754994
20
-12.0026290755679
30
0.000000000000000
11
-106.899383211464
21
-11.9575816852988
31
0.000000000000000
  0
LINE
  5
F1029F
330
F102A0
100
AcDbEntity
8
Geo
100
AcDbLine
10
-106.899383211464
20
-11.9575816852988
30
0.000000000000000
11
-106.986355919399
21
-11.9155098011721
31
0.000000000000000
  0
LINE
  5
F102A1
330
F102A2
100
AcDbEntity
8
Geo
100
AcDbLine
10
-106.986355919399
20
-11.9155098011721
30
0.000000000000000
11
-107.074728329187
21
-11.8764635139267
31
0.000000000000000
  0
LINE
  5
F102A3
330
F102A4
100
AcDbEntity
8
Geo
100
AcDbLine
10
-107.074728329187
20
-11.8764635139267
30
0.000000000000000
11
-107.164395224734
21
-11.8404893120291
31
0.000000000000000
  0
LINE
  5
F102A5
330
F102A6
100
AcDbEntity
8
Geo
100
AcDbLine
10
-107.164395224734
20
-11.8404893120291
30
0.000000000000000
11
-107.255249848735
21
-11.8076300263245
31
0.000000000000000
  0
LINE
  5
F102A7
330
F102A8
100
AcDbEntity
8
Geo
100
AcDbLine
10
-107.255249848735
20
-11.8076300263245
30
0.000000000000000
11
-107.347184029774
21
-11.7779247790422
31
0.000000000000000
  0
LINE
  5
F102A9
330
F102AA
100
AcDbEntity
8
Geo
100
AcDbLine
10
-107.347184029774
20
-11.7779247790422
30
0.000000000000000
11
-107.440088311116
21
-11.7514089372169
31
0.000000000000000
  0
LINE
  5
F102AB
330
F102AC
100
AcDbEntity
8
Geo
100
AcDbLine
10
-107.440088311116
20
-11.7514089372169
30
0.000000000000000
11
-107.533852081026
21
-11.7281140705806
31
0.000000000000000
  0
LINE
  5
F102AD
330
F102AE
100
AcDbEntity
8
Geo
100
AcDbLine
10
-107.533852081026
20
-11.7281140705806
30
0.000000000000000
11
-107.628363704464
21
-11.7080679139759
31
0.000000000000000
  0
LINE
  5
F102AF
330
F102B0
100
AcDbEntity
8
Geo
100
AcDbLine
10
-107.628363704464
20
-11.7080679139759
30
0.000000000000000
11
-107.723510655994
21
-11.6912943343348
31
0.000000000000000
  0
LINE
  5
F102B1
330
F102B2
100
AcDbEntity
8
Geo
100
AcDbLine
10
-107.723510655994
20
-11.6912943343348
30
0.000000000000000
11
-107.819179653760
21
-11.6778133022627
31
0.000000000000000
  0
LINE
  5
F102B3
330
F102B4
100
AcDbEntity
8
Geo
100
AcDbLine
10
-107.819179653760
20
-11.6778133022627
30
0.000000000000000
11
-107.915256794360
21
-11.6676408682615
31
0.000000000000000
  0
LINE
  5
F102B5
330
F102B6
100
AcDbEntity
8
Geo
100
AcDbLine
10
-107.915256794360
20
-11.6676408682615
30
0.000000000000000
11
-108.011627688456
21
-11.6607891436199
31
0.000000000000000
  0
LINE
  5
F102B7
330
F102B8
100
AcDbEntity
8
Geo
100
AcDbLine
10
-108.011627688456
20
-11.6607891436199
30
0.000000000000000
11
-108.108177596967
21
-11.6572662859937
31
0.000000000000000
  0
LINE
  5
F102B9
330
F102BA
100
AcDbEntity
8
Geo
100
AcDbLine
10
-108.108177596967
20
-11.6572662859937
30
0.000000000000000
11
-108.204791567679
21
-11.6570764896934
31
0.000000000000000
  0
LINE
  5
F102BB
330
F102BC
100
AcDbEntity
8
Geo
100
AcDbLine
10
-108.204791567679
20
-11.6570764896934
30
0.000000000000000
11
-108.301354572105
21
-11.6602199806901
31
0.000000000000000
  0
LINE
  5
F102BD
330
F102BE
100
AcDbEntity
8
Geo
100
AcDbLine
10
-108.301354572105
20
-11.6602199806901
30
0.000000000000000
11
-108.397751642438
21
-11.6666930163471
31
0.000000000000000
  0
LINE
  5
F102BF
330
F102C0
100
AcDbEntity
8
Geo
100
AcDbLine
10
-108.397751642438
20
-11.6666930163471
30
0.000000000000000
11
-108.493868008432
21
-11.6764878898751
31
0.000000000000000
  0
LINE
  5
F102C1
330
F102C2
100
AcDbEntity
8
Geo
100
AcDbLine
10
-108.493868008432
20
-11.6764878898751
30
0.000000000000000
11
-108.589589234048
21
-11.6895929395086
31
0.000000000000000
  0
LINE
  5
F102C3
330
F102C4
100
AcDbEntity
8
Geo
100
AcDbLine
10
-108.589589234048
20
-11.6895929395086
30
0.000000000000000
11
-108.684801353701
21
-11.7059925623898
31
0.000000000000000
  0
LINE
  5
F102C5
330
F102C6
100
AcDbEntity
8
Geo
100
AcDbLine
10
-108.684801353701
20
-11.7059925623898
30
0.000000000000000
11
-108.779391007945
21
-11.7256672331459
31
0.000000000000000
  0
LINE
  5
F102C7
330
F102C8
100
AcDbEntity
8
Geo
100
AcDbLine
10
-108.779391007945
20
-11.7256672331459
30
0.000000000000000
11
-108.873245578442
21
-11.7485935271356
31
0.000000000000000
  0
LINE
  5
F102C9
330
F102CA
100
AcDbEntity
8
Geo
100
AcDbLine
10
-108.873245578442
20
-11.7485935271356
30
0.000000000000000
11
-108.966253322045
21
-11.7747441483385
31
0.000000000000000
  0
LINE
  5
F102CB
330
F102CC
100
AcDbEntity
8
Geo
100
AcDbLine
10
-108.966253322045
20
-11.7747441483385
30
0.000000000000000
11
-109.058303503836
21
-11.8040879618537
31
0.000000000000000
  0
LINE
  5
F102CD
330
F102CE
100
AcDbEntity
8
Geo
100
AcDbLine
10
-109.058303503836
20
-11.8040879618537
30
0.000000000000000
11
-109.149286528970
21
-11.8365900309693
31
0.000000000000000
  0
LINE
  5
F102CF
330
F102D0
100
AcDbEntity
8
Geo
100
AcDbLine
10
-109.149286528970
20
-11.8365900309693
30
0.000000000000000
11
-109.239094073159
21
-11.8722116587577
31
0.000000000000000
  0
LINE
  5
F102D1
330
F102D2
100
AcDbEntity
8
Geo
100
AcDbLine
10
-109.239094073159
20
-11.8722116587577
30
0.000000000000000
11
-109.327619211637
21
-11.9109104341479
31
0.000000000000000
  0
LINE
  5
F102D3
330
F102D4
100
AcDbEntity
8
Geo
100
AcDbLine
10
-109.327619211637
20
-11.9109104341479
30
0.000000000000000
11
-109.414756546474
21
-11.9526402824207
31
0.000000000000000
  0
LINE
  5
F102D5
330
F102D6
100
AcDbEntity
8
Geo
100
AcDbLine
10
-109.414756546474
20
-11.9526402824207
30
0.000000000000000
11
-109.500402332055
21
-11.9973515200648
31
0.000000000000000
  0
LINE
  5
F102D7
330
F102D8
100
AcDbEntity
8
Geo
100
AcDbLine
10
-109.500402332055
20
-11.9973515200648
30
0.000000000000000
11
-109.584454598601
21
-12.0449909139298
31
0.000000000000000
  0
LINE
  5
F102D9
330
F102DA
100
AcDbEntity
8
Geo
100
AcDbLine
10
-109.584454598601
20
-12.0449909139298
30
0.000000000000000
11
-109.666813273577
21
-12.0955017446060
31
0.000000000000000
  0
LINE
  5
F102DB
330
F102DC
100
AcDbEntity
8
Geo
100
AcDbLine
10
-109.666813273577
20
-12.0955017446060
30
0.000000000000000
11
-109.747380300835
21
-12.1488238739540
31
0.000000000000000
  0
LINE
  5
F102DD
330
F102DE
100
AcDbEntity
8
Geo
100
AcDbLine
10
-109.747380300835
20
-12.1488238739540
30
0.000000000000000
11
-109.826059757361
21
-12.2048938167053
31
0.000000000000000
  0
LINE
  5
F102DF
330
F102E0
100
AcDbEntity
8
Geo
100
AcDbLine
10
-109.826059757361
20
-12.2048938167053
30
0.000000000000000
11
-109.902757967481
21
-12.2636448160480
31
0.000000000000000
  0
LINE
  5
F102E1
330
F102E2
100
AcDbEntity
8
Geo
100
AcDbLine
10
-109.902757967481
20
-12.2636448160480
30
0.000000000000000
11
-110.545153060498
21
-12.7735450503801
31
0.000000000000000
  0
LINE
  5
F102E3
330
F102E4
100
AcDbEntity
8
Geo
100
AcDbLine
10
-110.545153060498
20
-12.7735450503801
30
0.000000000000000
11
-111.187548153515
21
-13.2834452847123
31
0.000000000000000
  0
LINE
  5
F102E5
330
F102E6
100
AcDbEntity
8
Geo
100
AcDbLine
10
-111.187548153515
20
-13.2834452847123
30
0.000000000000000
11
-111.829943246533
21
-13.7933455190445
31
0.000000000000000
  0
LINE
  5
F102E7
330
F102E8
100
AcDbEntity
8
Geo
100
AcDbLine
10
-111.829943246533
20
-13.7933455190445
30
0.000000000000000
11
-112.472338339550
21
-14.3032457533766
31
0.000000000000000
  0
LINE
  5
F102E9
330
F102EA
100
AcDbEntity
8
Geo
100
AcDbLine
10
-112.472338339550
20
-14.3032457533766
30
0.000000000000000
11
-113.114733432567
21
-14.8131459877088
31
0.000000000000000
  0
LINE
  5
F102EB
330
F102EC
100
AcDbEntity
8
Geo
100
AcDbLine
10
-113.114733432567
20
-14.8131459877088
30
0.000000000000000
11
-113.603667233184
21
-13.5012985352151
31
0.000000000000000
  0
LINE
  5
F102ED
330
F102EE
100
AcDbEntity
8
Geo
100
AcDbLine
10
-113.603667233184
20
-13.5012985352151
30
0.000000000000000
11
-114.766410578067
21
-7.19128194936615
31
0.000000000000000
  0
LINE
  5
F102EF
330
F102F0
100
AcDbEntity
8
Geo
100
AcDbLine
10
-101.091249314151
20
-1.65360164027854
30
0.000000000000000
11
-101.091249314151
21
-1.77741490357375
31
0.000000000000000
  0
LINE
  5
F102F1
330
F102F2
100
AcDbEntity
8
Geo
100
AcDbLine
10
-101.091249314151
20
-1.77741490357375
30
0.000000000000000
11
-101.091249314151
21
-1.90122832600351
31
0.000000000000000
  0
LINE
  5
F102F3
330
F102F4
100
AcDbEntity
8
Geo
100
AcDbLine
10
-101.091249314151
20
-1.90122832600351
30
0.000000000000000
11
-101.091249314151
21
-2.02504191794686
31
0.000000000000000
  0
LINE
  5
F102F5
330
F102F6
100
AcDbEntity
8
Geo
100
AcDbLine
10
-101.091249314151
20
-2.02504191794686
30
0.000000000000000
11
-101.091249314151
21
-2.14885569070547
31
0.000000000000000
  0
LINE
  5
F102F7
330
F102F8
100
AcDbEntity
8
Geo
100
AcDbLine
10
-101.091249314151
20
-2.14885569070547
30
0.000000000000000
11
-101.091249314151
21
-2.27266965660853
31
0.000000000000000
  0
LINE
  5
F102F9
330
F102FA
100
AcDbEntity
8
Geo
100
AcDbLine
10
-101.091249314151
20
-2.27266965660853
30
0.000000000000000
11
-101.091249314151
21
-2.39648382913223
31
0.000000000000000
  0
LINE
  5
F102FB
330
F102FC
100
AcDbEntity
8
Geo
100
AcDbLine
10
-101.091249314151
20
-2.39648382913223
30
0.000000000000000
11
-101.091249314151
21
-2.52029822303634
31
0.000000000000000
  0
LINE
  5
F102FD
330
F102FE
100
AcDbEntity
8
Geo
100
AcDbLine
10
-101.091249314151
20
-2.52029822303634
30
0.000000000000000
11
-101.091249314151
21
-2.64411285452074
31
0.000000000000000
  0
LINE
  5
F102FF
330
F10300
100
AcDbEntity
8
Geo
100
AcDbLine
10
-101.091249314151
20
-2.64411285452074
30
0.000000000000000
11
-101.091249314151
21
-2.76792774140548
31
0.000000000000000
  0
LINE
  5
F10301
330
F10302
100
AcDbEntity
8
Geo
100
AcDbLine
10
-101.091249314151
20
-2.76792774140548
30
0.000000000000000
11
-101.091249314151
21
-2.89174290333853
31
0.000000000000000
  0
LINE
  5
F10303
330
F10304
100
AcDbEntity
8
Geo
100
AcDbLine
10
-101.091249314151
20
-2.89174290333853
30
0.000000000000000
11
-101.091249314151
21
-3.01555836203626
31
0.000000000000000
  0
LINE
  5
F10305
330
F10306
100
AcDbEntity
8
Geo
100
AcDbLine
10
-101.091249314151
20
-3.01555836203626
30
0.000000000000000
11
-101.091249314151
21
-3.13937414156309
31
0.000000000000000
  0
LINE
  5
F10307
330
F10308
100
AcDbEntity
8
Geo
100
AcDbLine
10
-101.091249314151
20
-3.13937414156309
30
0.000000000000000
11
-101.091249314151
21
-3.26319026865757
31
0.000000000000000
  0
LINE
  5
F10309
330
F1030A
100
AcDbEntity
8
Geo
100
AcDbLine
10
-101.091249314151
20
-3.26319026865757
30
0.000000000000000
11
-101.091249314151
21
-3.38700677311457
31
0.000000000000000
  0
LINE
  5
F1030B
330
F1030C
100
AcDbEntity
8
Geo
100
AcDbLine
10
-101.091249314151
20
-3.38700677311457
30
0.000000000000000
11
-101.091249314151
21
-3.51082368823468
31
0.000000000000000
  0
LINE
  5
F1030D
330
F1030E
100
AcDbEntity
8
Geo
100
AcDbLine
10
-101.091249314151
20
-3.51082368823468
30
0.000000000000000
11
-101.091249314151
21
-3.63464105135557
31
0.000000000000000
  0
LINE
  5
F1030F
330
F10310
100
AcDbEntity
8
Geo
100
AcDbLine
10
-101.091249314151
20
-3.63464105135557
30
0.000000000000000
11
-101.091249314151
21
-3.75845890448289
31
0.000000000000000
  0
LINE
  5
F10311
330
F10312
100
AcDbEntity
8
Geo
100
AcDbLine
10
-101.091249314151
20
-3.75845890448289
30
0.000000000000000
11
-101.091249314151
21
-3.88227729504334
31
0.000000000000000
  0
LINE
  5
F10313
330
F10314
100
AcDbEntity
8
Geo
100
AcDbLine
10
-101.091249314151
20
-3.88227729504334
30
0.000000000000000
11
-101.091249314151
21
-4.00609627678828
31
0.000000000000000
  0
LINE
  5
F10315
330
F10316
100
AcDbEntity
8
Geo
100
AcDbLine
10
-101.091249314151
20
-4.00609627678828
30
0.000000000000000
11
-101.091249314151
21
-4.12991591088459
31
0.000000000000000
  0
LINE
  5
F10317
330
F10318
100
AcDbEntity
8
Geo
100
AcDbLine
10
-101.091249314151
20
-4.12991591088459
30
0.000000000000000
11
-101.091249314151
21
-4.25373626723910
31
0.000000000000000
  0
LINE
  5
F10319
330
F1031A
100
AcDbEntity
8
Geo
100
AcDbLine
10
-101.091249314151
20
-4.25373626723910
30
0.000000000000000
11
-101.091249314151
21
-4.37755742611756
31
0.000000000000000
  0
LINE
  5
F1031B
330
F1031C
100
AcDbEntity
8
Geo
100
AcDbLine
10
-101.091249314151
20
-4.37755742611756
30
0.000000000000000
11
-101.091249314151
21
-4.50137948013733
31
0.000000000000000
  0
LINE
  5
F1031D
330
F1031E
100
AcDbEntity
8
Geo
100
AcDbLine
10
-101.091249314151
20
-4.50137948013733
30
0.000000000000000
11
-101.091249314151
21
-4.62520253673842
31
0.000000000000000
  0
LINE
  5
F1031F
330
F10320
100
AcDbEntity
8
Geo
100
AcDbLine
10
-101.091249314151
20
-4.62520253673842
30
0.000000000000000
11
-101.091249314151
21
-4.74902672127268
31
0.000000000000000
  0
LINE
  5
F10321
330
F10322
100
AcDbEntity
8
Geo
100
AcDbLine
10
-101.091249314151
20
-4.74902672127268
30
0.000000000000000
11
-101.091249314151
21
-4.87285218089900
31
0.000000000000000
  0
LINE
  5
F10323
330
F10324
100
AcDbEntity
8
Geo
100
AcDbLine
10
-101.091249314151
20
-4.87285218089900
30
0.000000000000000
11
-101.091249314151
21
-4.99667908954147
31
0.000000000000000
  0
LINE
  5
F10325
330
F10326
100
AcDbEntity
8
Geo
100
AcDbLine
10
-101.091249314151
20
-4.99667908954147
30
0.000000000000000
11
-101.091249314151
21
-5.12050765426480
31
0.000000000000000
  0
LINE
  5
F10327
330
F10328
100
AcDbEntity
8
Geo
100
AcDbLine
10
-101.091249314151
20
-5.12050765426480
30
0.000000000000000
11
-101.091249314151
21
-5.24433812356347
31
0.000000000000000
  0
LINE
  5
F10329
330
F1032A
100
AcDbEntity
8
Geo
100
AcDbLine
10
-101.091249314151
20
-5.24433812356347
30
0.000000000000000
11
-101.091249314151
21
-5.36817079826995
31
0.000000000000000
  0
LINE
  5
F1032B
330
F1032C
100
AcDbEntity
8
Geo
100
AcDbLine
10
-101.091249314151
20
-5.36817079826995
30
0.000000000000000
11
-101.091249314151
21
-5.49200604610151
31
0.000000000000000
  0
LINE
  5
F1032D
330
F1032E
100
AcDbEntity
8
Geo
100
AcDbLine
10
-101.091249314151
20
-5.49200604610151
30
0.000000000000000
11
-101.091249314151
21
-5.61584432134506
31
0.000000000000000
  0
LINE
  5
F1032F
330
F10330
100
AcDbEntity
8
Geo
100
AcDbLine
10
-101.091249314151
20
-5.61584432134506
30
0.000000000000000
11
-101.091249314151
21
-5.73968619192968
31
0.000000000000000
  0
LINE
  5
F10331
330
F10332
100
AcDbEntity
8
Geo
100
AcDbLine
10
-101.091249314151
20
-5.73968619192968
30
0.000000000000000
11
-101.091249314151
21
-5.86353237733849
31
0.000000000000000
  0
LINE
  5
F10333
330
F10334
100
AcDbEntity
8
Geo
100
AcDbLine
10
-101.091249314151
20
-5.86353237733849
30
0.000000000000000
11
-101.091249314151
21
-5.98738380278561
31
0.000000000000000
  0
LINE
  5
F10335
330
F10336
100
AcDbEntity
8
Geo
100
AcDbLine
10
-101.091249314151
20
-5.98738380278561
30
0.000000000000000
11
-101.091249314151
21
-6.08675548377717
31
0.000000000000000
  0
LINE
  5
F10337
330
F10338
100
AcDbEntity
8
Geo
100
AcDbLine
10
-101.091249314151
20
-6.08675548377717
30
0.000000000000000
11
-100.631672362746
21
-6.00446955944656
31
0.0810358162445674
  0
LINE
  5
F10339
330
F1033A
100
AcDbEntity
8
Geo
100
AcDbLine
10
-100.631672362746
20
-6.00446955944656
30
0.0810358162445674
11
-100.631672362746
21
-5.98738380278561
31
0.0810358162445674
  0
LINE
  5
F1033B
330
F1033C
100
AcDbEntity
8
Geo
100
AcDbLine
10
-100.631672362746
20
-5.98738380278561
30
0.0810358162445674
11
-100.631672362746
21
-5.86353237733849
31
0.0810358162445674
  0
LINE
  5
F1033D
330
F1033E
100
AcDbEntity
8
Geo
100
AcDbLine
10
-100.631672362746
20
-5.86353237733849
30
0.0810358162445674
11
-100.631672362746
21
-5.73968619192968
31
0.0810358162445674
  0
LINE
  5
F1033F
330
F10340
100
AcDbEntity
8
Geo
100
AcDbLine
10
-100.631672362746
20
-5.73968619192968
30
0.0810358162445674
11
-100.631672362746
21
-5.61584432134506
31
0.0810358162445674
  0
LINE
  5
F10341
330
F10342
100
AcDbEntity
8
Geo
100
AcDbLine
10
-100.631672362746
20
-5.61584432134506
30
0.0810358162445674
11
-100.631672362746
21
-5.49200604610151
31
0.0810358162445674
  0
LINE
  5
F10343
330
F10344
100
AcDbEntity
8
Geo
100
AcDbLine
10
-100.631672362746
20
-5.49200604610151
30
0.0810358162445674
11
-100.631672362746
21
-5.36817079826995
31
0.0810358162445674
  0
LINE
  5
F10345
330
F10346
100
AcDbEntity
8
Geo
100
AcDbLine
10
-100.631672362746
20
-5.36817079826995
30
0.0810358162445674
11
-100.631672362746
21
-5.24433812356347
31
0.0810358162445674
  0
LINE
  5
F10347
330
F10348
100
AcDbEntity
8
Geo
100
AcDbLine
10
-100.631672362746
20
-5.24433812356347
30
0.0810358162445674
11
-100.631672362746
21
-5.12050765426480
31
0.0810358162445674
  0
LINE
  5
F10349
330
F1034A
100
AcDbEntity
8
Geo
100
AcDbLine
10
-100.631672362746
20
-5.12050765426480
30
0.0810358162445674
11
-100.631672362746
21
-4.99667908954147
31
0.0810358162445674
  0
LINE
  5
F1034B
330
F1034C
100
AcDbEntity
8
Geo
100
AcDbLine
10
-100.631672362746
20
-4.99667908954147
30
0.0810358162445674
11
-100.631672362746
21
-4.87285218089900
31
0.0810358162445674
  0
LINE
  5
F1034D
330
F1034E
100
AcDbEntity
8
Geo
100
AcDbLine
10
-100.631672362746
20
-4.87285218089900
30
0.0810358162445674
11
-100.631672362746
21
-4.74902672127268
31
0.0810358162445674
  0
LINE
  5
F1034F
330
F10350
100
AcDbEntity
8
Geo
100
AcDbLine
10
-100.631672362746
20
-4.74902672127268
30
0.0810358162445674
11
-100.631672362746
21
-4.62520253673842
31
0.0810358162445674
  0
LINE
  5
F10351
330
F10352
100
AcDbEntity
8
Geo
100
AcDbLine
10
-100.631672362746
20
-4.62520253673842
30
0.0810358162445674
11
-100.631672362746
21
-4.50137948013733
31
0.0810358162445674
  0
LINE
  5
F10353
330
F10354
100
AcDbEntity
8
Geo
100
AcDbLine
10
-100.631672362746
20
-4.50137948013733
30
0.0810358162445674
11
-100.631672362746
21
-4.37755742611756
31
0.0810358162445674
  0
LINE
  5
F10355
330
F10356
100
AcDbEntity
8
Geo
100
AcDbLine
10
-100.631672362746
20
-4.37755742611756
30
0.0810358162445674
11
-100.631672362746
21
-4.25373626723910
31
0.0810358162445674
  0
LINE
  5
F10357
330
F10358
100
AcDbEntity
8
Geo
100
AcDbLine
10
-100.631672362746
20
-4.25373626723910
30
0.0810358162445674
11
-100.631672362746
21
-4.12991591088459
31
0.0810358162445674
  0
LINE
  5
F10359
330
F1035A
100
AcDbEntity
8
Geo
100
AcDbLine
10
-100.631672362746
20
-4.12991591088459
30
0.0810358162445674
11
-100.631672362746
21
-4.00609627678828
31
0.0810358162445674
  0
LINE
  5
F1035B
330
F1035C
100
AcDbEntity
8
Geo
100
AcDbLine
10
-100.631672362746
20
-4.00609627678828
30
0.0810358162445674
11
-100.631672362746
21
-3.88227729504334
31
0.0810358162445674
  0
LINE
  5
F1035D
330
F1035E
100
AcDbEntity
8
Geo
100
AcDbLine
10
-100.631672362746
20
-3.88227729504334
30
0.0810358162445674
11
-100.631672362746
21
-3.75845890448289
31
0.0810358162445674
  0
LINE
  5
F1035F
330
F10360
100
AcDbEntity
8
Geo
100
AcDbLine
10
-100.631672362746
20
-3.75845890448289
30
0.0810358162445674
11
-100.631672362746
21
-3.63464105135557
31
0.0810358162445674
  0
LINE
  5
F10361
330
F10362
100
AcDbEntity
8
Geo
100
AcDbLine
10
-100.631672362746
20
-3.63464105135557
30
0.0810358162445674
11
-100.631672362746
21
-3.51082368823468
31
0.0810358162445674
  0
LINE
  5
F10363
330
F10364
100
AcDbEntity
8
Geo
100
AcDbLine
10
-100.631672362746
20
-3.51082368823468
30
0.0810358162445674
11
-100.631672362746
21
-3.38700677311457
31
0.0810358162445674
  0
LINE
  5
F10365
330
F10366
100
AcDbEntity
8
Geo
100
AcDbLine
10
-100.631672362746
20
-3.38700677311457
30
0.0810358162445674
11
-100.631672362746
21
-3.26319026865757
31
0.0810358162445674
  0
LINE
  5
F10367
330
F10368
100
AcDbEntity
8
Geo
100
AcDbLine
10
-100.631672362746
20
-3.26319026865757
30
0.0810358162445674
11
-100.631672362746
21
-3.13937414156309
31
0.0810358162445674
  0
LINE
  5
F10369
330
F1036A
100
AcDbEntity
8
Geo
100
AcDbLine
10
-100.631672362746
20
-3.13937414156309
30
0.0810358162445674
11
-100.631672362746
21
-3.01555836203626
31
0.0810358162445674
  0
LINE
  5
F1036B
330
F1036C
100
AcDbEntity
8
Geo
100
AcDbLine
10
-100.631672362746
20
-3.01555836203626
30
0.0810358162445674
11
-100.631672362746
21
-2.89174290333853
31
0.0810358162445674
  0
LINE
  5
F1036D
330
F1036E
100
AcDbEntity
8
Geo
100
AcDbLine
10
-100.631672362746
20
-2.89174290333853
30
0.0810358162445674
11
-100.631672362746
21
-2.76792774140548
31
0.0810358162445674
  0
LINE
  5
F1036F
330
F10370
100
AcDbEntity
8
Geo
100
AcDbLine
10
-100.631672362746
20
-2.76792774140548
30
0.0810358162445674
11
-100.631672362746
21
-2.64411285452074
31
0.0810358162445674
  0
LINE
  5
F10371
330
F10372
100
AcDbEntity
8
Geo
100
AcDbLine
10
-100.631672362746
20
-2.64411285452074
30
0.0810358162445674
11
-100.631672362746
21
-2.52029822303634
31
0.0810358162445674
  0
LINE
  5
F10373
330
F10374
100
AcDbEntity
8
Geo
100
AcDbLine
10
-100.631672362746
20
-2.52029822303634
30
0.0810358162445674
11
-100.631672362746
21
-2.39648382913223
31
0.0810358162445674
  0
LINE
  5
F10375
330
F10376
100
AcDbEntity
8
Geo
100
AcDbLine
10
-100.631672362746
20
-2.39648382913223
30
0.0810358162445674
11
-100.631672362746
21
-2.27266965660853
31
0.0810358162445674
  0
LINE
  5
F10377
330
F10378
100
AcDbEntity
8
Geo
100
AcDbLine
10
-100.631672362746
20
-2.27266965660853
30
0.0810358162445674
11
-100.631672362746
21
-2.14885569070547
31
0.0810358162445674
  0
LINE
  5
F10379
330
F1037A
100
AcDbEntity
8
Geo
100
AcDbLine
10
-100.631672362746
20
-2.14885569070547
30
0.0810358162445674
11
-100.631672362746
21
-2.02504191794686
31
0.0810358162445674
  0
LINE
  5
F1037B
330
F1037C
100
AcDbEntity
8
Geo
100
AcDbLine
10
-100.631672362746
20
-2.02504191794686
30
0.0810358162445674
11
-100.631672362746
21
-1.90122832600351
31
0.0810358162445674
  0
LINE
  5
F1037D
330
F1037E
100
AcDbEntity
8
Geo
100
AcDbLine
10
-100.631672362746
20
-1.90122832600351
30
0.0810358162445674
11
-100.631672362746
21
-1.77741490357375
31
0.0810358162445674
  0
LINE
  5
F1037F
330
F10380
100
AcDbEntity
8
Geo
100
AcDbLine
10
-100.631672362746
20
-1.77741490357375
30
0.0810358162445674
11
-100.631672362746
21
-1.66749023954061
31
0.0810358162445674
  0
LINE
  5
F10381
330
F10382
100
AcDbEntity
8
Geo
100
AcDbLine
10
-100.631672362746
20
-1.66749023954061
30
0.0810358162445674
11
-100.631672362746
21
-1.66749023954061
31
0.000000000000000
  0
LINE
  5
F10383
330
F10384
100
AcDbEntity
8
Geo
100
AcDbLine
10
-100.631672362746
20
-1.66749023954061
30
0.000000000000000
11
-100.784731378019
21
-1.65898976147701
31
0.000000000000000
  0
LINE
  5
F10385
330
F10386
100
AcDbEntity
8
Geo
100
AcDbLine
10
-100.784731378019
20
-1.65898976147701
30
0.000000000000000
11
-100.937956306085
21
-1.65435924287426
31
0.000000000000000
  0
LINE
  5
F10387
330
F10388
100
AcDbEntity
8
Geo
100
AcDbLine
10
-100.937956306085
20
-1.65435924287426
30
0.000000000000000
11
-101.091249314151
21
-1.65360164027854
31
0.000000000000000
  0
LINE
  5
F10389
330
F1038A
100
AcDbEntity
8
Geo
100
AcDbLine
10
-100.631672362746
20
-1.66749023954061
30
0.0810358162445674
11
-100.631672362746
21
-1.77741490357375
31
0.0810358162445674
  0
LINE
  5
F1038B
330
F1038C
100
AcDbEntity
8
Geo
100
AcDbLine
10
-100.631672362746
20
-1.77741490357375
30
0.0810358162445674
11
-100.631672362746
21
-1.90122832600351
31
0.0810358162445674
  0
LINE
  5
F1038D
330
F1038E
100
AcDbEntity
8
Geo
100
AcDbLine
10
-100.631672362746
20
-1.90122832600351
30
0.0810358162445674
11
-100.631672362746
21
-2.02504191794686
31
0.0810358162445674
  0
LINE
  5
F1038F
330
F10390
100
AcDbEntity
8
Geo
100
AcDbLine
10
-100.631672362746
20
-2.02504191794686
30
0.0810358162445674
11
-100.631672362746
21
-2.14885569070547
31
0.0810358162445674
  0
LINE
  5
F10391
330
F10392
100
AcDbEntity
8
Geo
100
AcDbLine
10
-100.631672362746
20
-2.14885569070547
30
0.0810358162445674
11
-100.631672362746
21
-2.27266965660853
31
0.0810358162445674
  0
LINE
  5
F10393
330
F10394
100
AcDbEntity
8
Geo
100
AcDbLine
10
-100.631672362746
20
-2.27266965660853
30
0.0810358162445674
11
-100.631672362746
21
-2.39648382913223
31
0.0810358162445674
  0
LINE
  5
F10395
330
F10396
100
AcDbEntity
8
Geo
100
AcDbLine
10
-100.631672362746
20
-2.39648382913223
30
0.0810358162445674
11
-100.631672362746
21
-2.52029822303634
31
0.0810358162445674
  0
LINE
  5
F10397
330
F10398
100
AcDbEntity
8
Geo
100
AcDbLine
10
-100.631672362746
20
-2.52029822303634
30
0.0810358162445674
11
-100.631672362746
21
-2.64411285452074
31
0.0810358162445674
  0
LINE
  5
F10399
330
F1039A
100
AcDbEntity
8
Geo
100
AcDbLine
10
-100.631672362746
20
-2.64411285452074
30
0.0810358162445674
11
-100.631672362746
21
-2.76792774140548
31
0.0810358162445674
  0
LINE
  5
F1039B
330
F1039C
100
AcDbEntity
8
Geo
100
AcDbLine
10
-100.631672362746
20
-2.76792774140548
30
0.0810358162445674
11
-100.631672362746
21
-2.89174290333853
31
0.0810358162445674
  0
LINE
  5
F1039D
330
F1039E
100
AcDbEntity
8
Geo
100
AcDbLine
10
-100.631672362746
20
-2.89174290333853
30
0.0810358162445674
11
-100.631672362746
21
-3.01555836203626
31
0.0810358162445674
  0
LINE
  5
F1039F
330
F103A0
100
AcDbEntity
8
Geo
100
AcDbLine
10
-100.631672362746
20
-3.01555836203626
30
0.0810358162445674
11
-100.631672362746
21
-3.13937414156309
31
0.0810358162445674
  0
LINE
  5
F103A1
330
F103A2
100
AcDbEntity
8
Geo
100
AcDbLine
10
-100.631672362746
20
-3.13937414156309
30
0.0810358162445674
11
-100.631672362746
21
-3.26319026865757
31
0.0810358162445674
  0
LINE
  5
F103A3
330
F103A4
100
AcDbEntity
8
Geo
100
AcDbLine
10
-100.631672362746
20
-3.26319026865757
30
0.0810358162445674
11
-100.631672362746
21
-3.38700677311457
31
0.0810358162445674
  0
LINE
  5
F103A5
330
F103A6
100
AcDbEntity
8
Geo
100
AcDbLine
10
-100.631672362746
20
-3.38700677311457
30
0.0810358162445674
11
-100.631672362746
21
-3.51082368823468
31
0.0810358162445674
  0
LINE
  5
F103A7
330
F103A8
100
AcDbEntity
8
Geo
100
AcDbLine
10
-100.631672362746
20
-3.51082368823468
30
0.0810358162445674
11
-100.631672362746
21
-3.63464105135557
31
0.0810358162445674
  0
LINE
  5
F103A9
330
F103AA
100
AcDbEntity
8
Geo
100
AcDbLine
10
-100.631672362746
20
-3.63464105135557
30
0.0810358162445674
11
-100.631672362746
21
-3.75845890448289
31
0.0810358162445674
  0
LINE
  5
F103AB
330
F103AC
100
AcDbEntity
8
Geo
100
AcDbLine
10
-100.631672362746
20
-3.75845890448289
30
0.0810358162445674
11
-100.631672362746
21
-3.88227729504334
31
0.0810358162445674
  0
LINE
  5
F103AD
330
F103AE
100
AcDbEntity
8
Geo
100
AcDbLine
10
-100.631672362746
20
-3.88227729504334
30
0.0810358162445674
11
-100.631672362746
21
-4.00609627678828
31
0.0810358162445674
  0
LINE
  5
F103AF
330
F103B0
100
AcDbEntity
8
Geo
100
AcDbLine
10
-100.631672362746
20
-4.00609627678828
30
0.0810358162445674
11
-100.631672362746
21
-4.12991591088459
31
0.0810358162445674
  0
LINE
  5
F103B1
330
F103B2
100
AcDbEntity
8
Geo
100
AcDbLine
10
-100.631672362746
20
-4.12991591088459
30
0.0810358162445674
11
-100.631672362746
21
-4.25373626723910
31
0.0810358162445674
  0
LINE
  5
F103B3
330
F103B4
100
AcDbEntity
8
Geo
100
AcDbLine
10
-100.631672362746
20
-4.25373626723910
30
0.0810358162445674
11
-100.631672362746
21
-4.37755742611756
31
0.0810358162445674
  0
LINE
  5
F103B5
330
F103B6
100
AcDbEntity
8
Geo
100
AcDbLine
10
-100.631672362746
20
-4.37755742611756
30
0.0810358162445674
11
-100.631672362746
21
-4.50137948013733
31
0.0810358162445674
  0
LINE
  5
F103B7
330
F103B8
100
AcDbEntity
8
Geo
100
AcDbLine
10
-100.631672362746
20
-4.50137948013733
30
0.0810358162445674
11
-100.631672362746
21
-4.62520253673842
31
0.0810358162445674
  0
LINE
  5
F103B9
330
F103BA
100
AcDbEntity
8
Geo
100
AcDbLine
10
-100.631672362746
20
-4.62520253673842
30
0.0810358162445674
11
-100.631672362746
21
-4.74902672127268
31
0.0810358162445674
  0
LINE
  5
F103BB
330
F103BC
100
AcDbEntity
8
Geo
100
AcDbLine
10
-100.631672362746
20
-4.74902672127268
30
0.0810358162445674
11
-100.631672362746
21
-4.87285218089900
31
0.0810358162445674
  0
LINE
  5
F103BD
330
F103BE
100
AcDbEntity
8
Geo
100
AcDbLine
10
-100.631672362746
20
-4.87285218089900
30
0.0810358162445674
11
-100.631672362746
21
-4.99667908954147
31
0.0810358162445674
  0
LINE
  5
F103BF
330
F103C0
100
AcDbEntity
8
Geo
100
AcDbLine
10
-100.631672362746
20
-4.99667908954147
30
0.0810358162445674
11
-100.631672362746
21
-5.12050765426480
31
0.0810358162445674
  0
LINE
  5
F103C1
330
F103C2
100
AcDbEntity
8
Geo
100
AcDbLine
10
-100.631672362746
20
-5.12050765426480
30
0.0810358162445674
11
-100.631672362746
21
-5.24433812356347
31
0.0810358162445674
  0
LINE
  5
F103C3
330
F103C4
100
AcDbEntity
8
Geo
100
AcDbLine
10
-100.631672362746
20
-5.24433812356347
30
0.0810358162445674
11
-100.631672362746
21
-5.36817079826995
31
0.0810358162445674
  0
LINE
  5
F103C5
330
F103C6
100
AcDbEntity
8
Geo
100
AcDbLine
10
-100.631672362746
20
-5.36817079826995
30
0.0810358162445674
11
-100.631672362746
21
-5.49200604610151
31
0.0810358162445674
  0
LINE
  5
F103C7
330
F103C8
100
AcDbEntity
8
Geo
100
AcDbLine
10
-100.631672362746
20
-5.49200604610151
30
0.0810358162445674
11
-100.631672362746
21
-5.61584432134506
31
0.0810358162445674
  0
LINE
  5
F103C9
330
F103CA
100
AcDbEntity
8
Geo
100
AcDbLine
10
-100.631672362746
20
-5.61584432134506
30
0.0810358162445674
11
-100.631672362746
21
-5.73968619192968
31
0.0810358162445674
  0
LINE
  5
F103CB
330
F103CC
100
AcDbEntity
8
Geo
100
AcDbLine
10
-100.631672362746
20
-5.73968619192968
30
0.0810358162445674
11
-100.631672362746
21
-5.85342215044384
31
0.0810358162445674
  0
LINE
  5
F103CD
330
F103CE
100
AcDbEntity
8
Geo
100
AcDbLine
10
-100.631672362746
20
-5.85342215044384
30
0.0810358162445674
11
-100.193149139712
21
-5.77113622611323
31
0.240645216463212
  0
LINE
  5
F103CF
330
F103D0
100
AcDbEntity
8
Geo
100
AcDbLine
10
-100.193149139712
20
-5.77113622611323
30
0.240645216463212
11
-100.193149139712
21
-5.73968619192968
31
0.240645216463212
  0
LINE
  5
F103D1
330
F103D2
100
AcDbEntity
8
Geo
100
AcDbLine
10
-100.193149139712
20
-5.73968619192968
30
0.240645216463212
11
-100.193149139712
21
-5.61584432134506
31
0.240645216463212
  0
LINE
  5
F103D3
330
F103D4
100
AcDbEntity
8
Geo
100
AcDbLine
10
-100.193149139712
20
-5.61584432134506
30
0.240645216463212
11
-100.193149139712
21
-5.49200604610151
31
0.240645216463212
  0
LINE
  5
F103D5
330
F103D6
100
AcDbEntity
8
Geo
100
AcDbLine
10
-100.193149139712
20
-5.49200604610151
30
0.240645216463212
11
-100.193149139712
21
-5.36817079826995
31
0.240645216463212
  0
LINE
  5
F103D7
330
F103D8
100
AcDbEntity
8
Geo
100
AcDbLine
10
-100.193149139712
20
-5.36817079826995
30
0.240645216463212
11
-100.193149139712
21
-5.24433812356347
31
0.240645216463212
  0
LINE
  5
F103D9
330
F103DA
100
AcDbEntity
8
Geo
100
AcDbLine
10
-100.193149139712
20
-5.24433812356347
30
0.240645216463212
11
-100.193149139712
21
-5.12050765426480
31
0.240645216463212
  0
LINE
  5
F103DB
330
F103DC
100
AcDbEntity
8
Geo
100
AcDbLine
10
-100.193149139712
20
-5.12050765426480
30
0.240645216463212
11
-100.193149139712
21
-4.99667908954147
31
0.240645216463212
  0
LINE
  5
F103DD
330
F103DE
100
AcDbEntity
8
Geo
100
AcDbLine
10
-100.193149139712
20
-4.99667908954147
30
0.240645216463212
11
-100.193149139712
21
-4.87285218089900
31
0.240645216463212
  0
LINE
  5
F103DF
330
F103E0
100
AcDbEntity
8
Geo
100
AcDbLine
10
-100.193149139712
20
-4.87285218089900
30
0.240645216463212
11
-100.193149139712
21
-4.74902672127268
31
0.240645216463212
  0
LINE
  5
F103E1
330
F103E2
100
AcDbEntity
8
Geo
100
AcDbLine
10
-100.193149139712
20
-4.74902672127268
30
0.240645216463212
11
-100.193149139712
21
-4.62520253673842
31
0.240645216463212
  0
LINE
  5
F103E3
330
F103E4
100
AcDbEntity
8
Geo
100
AcDbLine
10
-100.193149139712
20
-4.62520253673842
30
0.240645216463212
11
-100.193149139712
21
-4.50137948013733
31
0.240645216463212
  0
LINE
  5
F103E5
330
F103E6
100
AcDbEntity
8
Geo
100
AcDbLine
10
-100.193149139712
20
-4.50137948013733
30
0.240645216463212
11
-100.193149139712
21
-4.37755742611756
31
0.240645216463212
  0
LINE
  5
F103E7
330
F103E8
100
AcDbEntity
8
Geo
100
AcDbLine
10
-100.193149139712
20
-4.37755742611756
30
0.240645216463212
11
-100.193149139712
21
-4.25373626723910
31
0.240645216463212
  0
LINE
  5
F103E9
330
F103EA
100
AcDbEntity
8
Geo
100
AcDbLine
10
-100.193149139712
20
-4.25373626723910
30
0.240645216463212
11
-100.193149139712
21
-4.12991591088459
31
0.240645216463212
  0
LINE
  5
F103EB
330
F103EC
100
AcDbEntity
8
Geo
100
AcDbLine
10
-100.193149139712
20
-4.12991591088459
30
0.240645216463212
11
-100.193149139712
21
-4.00609627678828
31
0.240645216463212
  0
LINE
  5
F103ED
330
F103EE
100
AcDbEntity
8
Geo
100
AcDbLine
10
-100.193149139712
20
-4.00609627678828
30
0.240645216463212
11
-100.193149139712
21
-3.88227729504334
31
0.240645216463212
  0
LINE
  5
F103EF
330
F103F0
100
AcDbEntity
8
Geo
100
AcDbLine
10
-100.193149139712
20
-3.88227729504334
30
0.240645216463212
11
-100.193149139712
21
-3.75845890448289
31
0.240645216463212
  0
LINE
  5
F103F1
330
F103F2
100
AcDbEntity
8
Geo
100
AcDbLine
10
-100.193149139712
20
-3.75845890448289
30
0.240645216463212
11
-100.193149139712
21
-3.63464105135557
31
0.240645216463212
  0
LINE
  5
F103F3
330
F103F4
100
AcDbEntity
8
Geo
100
AcDbLine
10
-100.193149139712
20
-3.63464105135557
30
0.240645216463212
11
-100.193149139712
21
-3.51082368823468
31
0.240645216463212
  0
LINE
  5
F103F5
330
F103F6
100
AcDbEntity
8
Geo
100
AcDbLine
10
-100.193149139712
20
-3.51082368823468
30
0.240645216463212
11
-100.193149139712
21
-3.38700677311457
31
0.240645216463212
  0
LINE
  5
F103F7
330
F103F8
100
AcDbEntity
8
Geo
100
AcDbLine
10
-100.193149139712
20
-3.38700677311457
30
0.240645216463212
11
-100.193149139712
21
-3.26319026865757
31
0.240645216463212
  0
LINE
  5
F103F9
330
F103FA
100
AcDbEntity
8
Geo
100
AcDbLine
10
-100.193149139712
20
-3.26319026865757
30
0.240645216463212
11
-100.193149139712
21
-3.13937414156309
31
0.240645216463212
  0
LINE
  5
F103FB
330
F103FC
100
AcDbEntity
8
Geo
100
AcDbLine
10
-100.193149139712
20
-3.13937414156309
30
0.240645216463212
11
-100.193149139712
21
-3.01555836203626
31
0.240645216463212
  0
LINE
  5
F103FD
330
F103FE
100
AcDbEntity
8
Geo
100
AcDbLine
10
-100.193149139712
20
-3.01555836203626
30
0.240645216463212
11
-100.193149139712
21
-2.89174290333853
31
0.240645216463212
  0
LINE
  5
F103FF
330
F10400
100
AcDbEntity
8
Geo
100
AcDbLine
10
-100.193149139712
20
-2.89174290333853
30
0.240645216463212
11
-100.193149139712
21
-2.76792774140548
31
0.240645216463212
  0
LINE
  5
F10401
330
F10402
100
AcDbEntity
8
Geo
100
AcDbLine
10
-100.193149139712
20
-2.76792774140548
30
0.240645216463212
11
-100.193149139712
21
-2.64411285452074
31
0.240645216463212
  0
LINE
  5
F10403
330
F10404
100
AcDbEntity
8
Geo
100
AcDbLine
10
-100.193149139712
20
-2.64411285452074
30
0.240645216463212
11
-100.193149139712
21
-2.52029822303634
31
0.240645216463212
  0
LINE
  5
F10405
330
F10406
100
AcDbEntity
8
Geo
100
AcDbLine
10
-100.193149139712
20
-2.52029822303634
30
0.240645216463212
11
-100.193149139712
21
-2.39648382913223
31
0.240645216463212
  0
LINE
  5
F10407
330
F10408
100
AcDbEntity
8
Geo
100
AcDbLine
10
-100.193149139712
20
-2.39648382913223
30
0.240645216463212
11
-100.193149139712
21
-2.27266965660853
31
0.240645216463212
  0
LINE
  5
F10409
330
F1040A
100
AcDbEntity
8
Geo
100
AcDbLine
10
-100.193149139712
20
-2.27266965660853
30
0.240645216463212
11
-100.193149139712
21
-2.14885569070547
31
0.240645216463212
  0
LINE
  5
F1040B
330
F1040C
100
AcDbEntity
8
Geo
100
AcDbLine
10
-100.193149139712
20
-2.14885569070547
30
0.240645216463212
11
-100.193149139712
21
-2.02504191794686
31
0.240645216463212
  0
LINE
  5
F1040D
330
F1040E
100
AcDbEntity
8
Geo
100
AcDbLine
10
-100.193149139712
20
-2.02504191794686
30
0.240645216463212
11
-100.193149139712
21
-1.90122832600351
31
0.240645216463212
  0
LINE
  5
F1040F
330
F10410
100
AcDbEntity
8
Geo
100
AcDbLine
10
-100.193149139712
20
-1.90122832600351
30
0.240645216463212
11
-100.193149139712
21
-1.77741490357375
31
0.240645216463212
  0
LINE
  5
F10411
330
F10412
100
AcDbEntity
8
Geo
100
AcDbLine
10
-100.193149139712
20
-1.77741490357375
30
0.240645216463212
11
-100.193149139712
21
-1.71346701893753
31
0.240645216463212
  0
LINE
  5
F10413
330
F10414
100
AcDbEntity
8
Geo
100
AcDbLine
10
-100.193149139712
20
-1.71346701893753
30
0.240645216463212
11
-100.193149139712
21
-1.71346701893753
31
0.000000000000000
  0
LINE
  5
F10415
330
F10416
100
AcDbEntity
8
Geo
100
AcDbLine
10
-100.193149139712
20
-1.71346701893753
30
0.000000000000000
11
-100.338937832408
21
-1.69460046848678
31
0.000000000000000
  0
LINE
  5
F10417
330
F10418
100
AcDbEntity
8
Geo
100
AcDbLine
10
-100.338937832408
20
-1.69460046848678
30
0.000000000000000
11
-100.485140855196
21
-1.67927187521554
31
0.000000000000000
  0
LINE
  5
F10419
330
F1041A
100
AcDbEntity
8
Geo
100
AcDbLine
10
-100.485140855196
20
-1.67927187521554
30
0.000000000000000
11
-100.631672362746
21
-1.66749023954061
31
0.000000000000000
  0
LINE
  5
F1041B
330
F1041C
100
AcDbEntity
8
Geo
100
AcDbLine
10
-95.7675173072824
20
-10.7129178866832
30
0.000000000000000
11
-95.8747427386215
21
-10.6510112550356
31
0.000000000000000
  0
LINE
  5
F1041D
330
F1041E
100
AcDbEntity
8
Geo
100
AcDbLine
10
-95.8747427386215
20
-10.6510112550356
30
0.000000000000000
11
-95.9819683077752
21
-10.5891045438208
31
0.000000000000000
  0
LINE
  5
F1041F
330
F10420
100
AcDbEntity
8
Geo
100
AcDbLine
10
-95.9819683077752
20
-10.5891045438208
30
0.000000000000000
11
-96.0891940237319
21
-10.5271977478491
31
0.000000000000000
  0
LINE
  5
F10421
330
F10422
100
AcDbEntity
8
Geo
100
AcDbLine
10
-96.0891940237319
20
-10.5271977478491
30
0.000000000000000
11
-96.1964198962793
21
-10.4652908614698
31
0.000000000000000
  0
LINE
  5
F10423
330
F10424
100
AcDbEntity
8
Geo
100
AcDbLine
10
-96.1964198962793
20
-10.4652908614698
30
0.000000000000000
11
-96.3036459360947
21
-10.4033838785182
31
0.000000000000000
  0
LINE
  5
F10425
330
F10426
100
AcDbEntity
8
Geo
100
AcDbLine
10
-96.3036459360947
20
-10.4033838785182
30
0.000000000000000
11
-96.4108721548487
21
-10.3414767922564
31
0.000000000000000
  0
LINE
  5
F10427
330
F10428
100
AcDbEntity
8
Geo
100
AcDbLine
10
-96.4108721548487
20
-10.3414767922564
30
0.000000000000000
11
-96.5180985653239
21
-10.2795695953043
31
0.000000000000000
  0
LINE
  5
F10429
330
F1042A
100
AcDbEntity
8
Geo
100
AcDbLine
10
-96.5180985653239
20
-10.2795695953043
30
0.000000000000000
11
-96.6253251815496
21
-10.2176622795621
31
0.000000000000000
  0
LINE
  5
F1042B
330
F1042C
100
AcDbEntity
8
Geo
100
AcDbLine
10
-96.6253251815496
20
-10.2176622795621
30
0.000000000000000
11
-96.7325520189584
21
-10.1557548361198
31
0.000000000000000
  0
LINE
  5
F1042D
330
F1042E
100
AcDbEntity
8
Geo
100
AcDbLine
10
-96.7325520189584
20
-10.1557548361198
30
0.000000000000000
11
-96.8397790945662
21
-10.0938472551532
31
0.000000000000000
  0
LINE
  5
F1042F
330
F10430
100
AcDbEntity
8
Geo
100
AcDbLine
10
-96.8397790945662
20
-10.0938472551532
30
0.000000000000000
11
-96.9470064271796
21
-10.0319395258044
31
0.000000000000000
  0
LINE
  5
F10431
330
F10432
100
AcDbEntity
8
Geo
100
AcDbLine
10
-96.9470064271796
20
-10.0319395258044
30
0.000000000000000
11
-97.0542340376392
21
-9.97003163604096
31
0.000000000000000
  0
LINE
  5
F10433
330
F10434
100
AcDbEntity
8
Geo
100
AcDbLine
10
-97.0542340376392
20
-9.97003163604096
30
0.000000000000000
11
-97.1614619491012
21
-9.90812357249371
31
0.000000000000000
  0
LINE
  5
F10435
330
F10436
100
AcDbEntity
8
Geo
100
AcDbLine
10
-97.1614619491012
20
-9.90812357249371
30
0.000000000000000
11
-97.2686901873688
21
-9.84621532026522
31
0.000000000000000
  0
LINE
  5
F10437
330
F10438
100
AcDbEntity
8
Geo
100
AcDbLine
10
-97.2686901873688
20
-9.84621532026522
30
0.000000000000000
11
-97.3759187812810
21
-9.78430686270516
31
0.000000000000000
  0
LINE
  5
F10439
330
F1043A
100
AcDbEntity
8
Geo
100
AcDbLine
10
-97.3759187812810
20
-9.78430686270516
30
0.000000000000000
11
-97.4831477631733
21
-9.72239818114472
31
0.000000000000000
  0
LINE
  5
F1043B
330
F1043C
100
AcDbEntity
8
Geo
100
AcDbLine
10
-97.4831477631733
20
-9.72239818114472
30
0.000000000000000
11
-97.5903771694236
21
-9.66048925458105
31
0.000000000000000
  0
LINE
  5
F1043D
330
F1043E
100
AcDbEntity
8
Geo
100
AcDbLine
10
-97.5903771694236
20
-9.66048925458105
30
0.000000000000000
11
-97.6976070411047
21
-9.59858005930084
31
0.000000000000000
  0
LINE
  5
F1043F
330
F10440
100
AcDbEntity
8
Geo
100
AcDbLine
10
-97.6976070411047
20
-9.59858005930084
30
0.000000000000000
11
-97.8048374247665
21
-9.53667056842836
31
0.000000000000000
  0
LINE
  5
F10441
330
F10442
100
AcDbEntity
8
Geo
100
AcDbLine
10
-97.8048374247665
20
-9.53667056842836
30
0.000000000000000
11
-97.9120683733812
21
-9.47476075138021
31
0.000000000000000
  0
LINE
  5
F10443
330
F10444
100
AcDbEntity
8
Geo
100
AcDbLine
10
-97.9120683733812
20
-9.47476075138021
30
0.000000000000000
11
-98.0192999474899
21
-9.41285057320295
31
0.000000000000000
  0
LINE
  5
F10445
330
F10446
100
AcDbEntity
8
Geo
100
AcDbLine
10
-98.0192999474899
20
-9.41285057320295
30
0.000000000000000
11
-98.1265322166046
21
-9.35093999376372
31
0.000000000000000
  0
LINE
  5
F10447
330
F10448
100
AcDbEntity
8
Geo
100
AcDbLine
10
-98.1265322166046
20
-9.35093999376372
30
0.000000000000000
11
-98.2337652609345
21
-9.28902896675384
31
0.000000000000000
  0
LINE
  5
F10449
330
F1044A
100
AcDbEntity
8
Geo
100
AcDbLine
10
-98.2337652609345
20
-9.28902896675384
30
0.000000000000000
11
-98.3409991735253
21
-9.22711743845329
31
0.000000000000000
  0
LINE
  5
F1044B
330
F1044C
100
AcDbEntity
8
Geo
100
AcDbLine
10
-98.3409991735253
20
-9.22711743845329
30
0.000000000000000
11
-98.4482340629349
21
-9.16520534618616
31
0.000000000000000
  0
LINE
  5
F1044D
330
F1044E
100
AcDbEntity
8
Geo
100
AcDbLine
10
-98.4482340629349
20
-9.16520534618616
30
0.000000000000000
11
-98.5554700566065
21
-9.10329261637301
31
0.000000000000000
  0
LINE
  5
F1044F
330
F10450
100
AcDbEntity
8
Geo
100
AcDbLine
10
-98.5554700566065
20
-9.10329261637301
30
0.000000000000000
11
-98.6627073051630
21
-9.04137916205177
31
0.000000000000000
  0
LINE
  5
F10451
330
F10452
100
AcDbEntity
8
Geo
100
AcDbLine
10
-98.6627073051630
20
-9.04137916205177
30
0.000000000000000
11
-98.7699459879276
21
-8.97946487969010
31
0.000000000000000
  0
LINE
  5
F10453
330
F10454
100
AcDbEntity
8
Geo
100
AcDbLine
10
-98.7699459879276
20
-8.97946487969010
30
0.000000000000000
11
-98.8771863201028
21
-8.91754964504077
31
0.000000000000000
  0
LINE
  5
F10455
330
F10456
100
AcDbEntity
8
Geo
100
AcDbLine
10
-98.8771863201028
20
-8.91754964504077
30
0.000000000000000
11
-98.9844285622172
21
-8.85563330768753
31
0.000000000000000
  0
LINE
  5
F10457
330
F10458
100
AcDbEntity
8
Geo
100
AcDbLine
10
-98.9844285622172
20
-8.85563330768753
30
0.000000000000000
11
-99.0916730327233
21
-8.79371568377174
31
0.000000000000000
  0
LINE
  5
F10459
330
F1045A
100
AcDbEntity
8
Geo
100
AcDbLine
10
-99.0916730327233
20
-8.79371568377174
30
0.000000000000000
11
-99.1989201250450
21
-8.73179654614997
31
0.000000000000000
  0
LINE
  5
F1045B
330
F1045C
100
AcDbEntity
8
Geo
100
AcDbLine
10
-99.1989201250450
20
-8.73179654614997
30
0.000000000000000
11
-99.3061703310235
21
-8.66987561085766
31
0.000000000000000
  0
LINE
  5
F1045D
330
F1045E
100
AcDbEntity
8
Geo
100
AcDbLine
10
-99.3061703310235
20
-8.66987561085766
30
0.000000000000000
11
-99.4134242737493
21
-8.60795251815325
31
0.000000000000000
  0
LINE
  5
F1045F
330
F10460
100
AcDbEntity
8
Geo
100
AcDbLine
10
-99.4134242737493
20
-8.60795251815325
30
0.000000000000000
11
-99.5206827544814
21
-8.54602680542969
31
0.000000000000000
  0
LINE
  5
F10461
330
F10462
100
AcDbEntity
8
Geo
100
AcDbLine
10
-99.5206827544814
20
-8.54602680542969
30
0.000000000000000
11
-99.6067411546369
21
-8.49634096493391
31
0.000000000000000
  0
LINE
  5
F10463
330
F10464
100
AcDbEntity
8
Geo
100
AcDbLine
10
-99.6067411546369
20
-8.49634096493391
30
0.000000000000000
11
-99.7652679294955
21
-8.93548924201035
31
0.0810358162445674
  0
LINE
  5
F10465
330
F10466
100
AcDbEntity
8
Geo
100
AcDbLine
10
-99.7652679294955
20
-8.93548924201035
30
0.0810358162445674
11
-99.7504712301843
21
-8.94403212034083
31
0.0810358162445674
  0
LINE
  5
F10467
330
F10468
100
AcDbEntity
8
Geo
100
AcDbLine
10
-99.7504712301843
20
-8.94403212034083
30
0.0810358162445674
11
-99.6432127494521
21
-9.00595783306439
31
0.0810358162445674
  0
LINE
  5
F10469
330
F1046A
100
AcDbEntity
8
Geo
100
AcDbLine
10
-99.6432127494521
20
-9.00595783306439
30
0.0810358162445674
11
-99.5359588067263
21
-9.06788092576879
31
0.0810358162445674
  0
LINE
  5
F1046B
330
F1046C
100
AcDbEntity
8
Geo
100
AcDbLine
10
-99.5359588067263
20
-9.06788092576879
30
0.0810358162445674
11
-99.4287086007479
21
-9.12980186106110
31
0.0810358162445674
  0
LINE
  5
F1046D
330
F1046E
100
AcDbEntity
8
Geo
100
AcDbLine
10
-99.4287086007479
20
-9.12980186106110
30
0.0810358162445674
11
-99.3214615084261
21
-9.19172099868288
31
0.0810358162445674
  0
LINE
  5
F1046F
330
F10470
100
AcDbEntity
8
Geo
100
AcDbLine
10
-99.3214615084261
20
-9.19172099868288
30
0.0810358162445674
11
-99.2142170379200
21
-9.25363862259866
31
0.0810358162445674
  0
LINE
  5
F10471
330
F10472
100
AcDbEntity
8
Geo
100
AcDbLine
10
-99.2142170379200
20
-9.25363862259866
30
0.0810358162445674
11
-99.1069747958056
21
-9.31555495995190
31
0.0810358162445674
  0
LINE
  5
F10473
330
F10474
100
AcDbEntity
8
Geo
100
AcDbLine
10
-99.1069747958056
20
-9.31555495995190
30
0.0810358162445674
11
-98.9997344636304
21
-9.37747019460124
31
0.0810358162445674
  0
LINE
  5
F10475
330
F10476
100
AcDbEntity
8
Geo
100
AcDbLine
10
-98.9997344636304
20
-9.37747019460124
30
0.0810358162445674
11
-98.8924957808659
21
-9.43938447696291
31
0.0810358162445674
  0
LINE
  5
F10477
330
F10478
100
AcDbEntity
8
Geo
100
AcDbLine
10
-98.8924957808659
20
-9.43938447696291
30
0.0810358162445674
11
-98.7852585323094
21
-9.50129793128414
31
0.0810358162445674
  0
LINE
  5
F10479
330
F1047A
100
AcDbEntity
8
Geo
100
AcDbLine
10
-98.7852585323094
20
-9.50129793128414
30
0.0810358162445674
11
-98.6780225386377
21
-9.56321066109730
31
0.0810358162445674
  0
LINE
  5
F1047B
330
F1047C
100
AcDbEntity
8
Geo
100
AcDbLine
10
-98.6780225386377
20
-9.56321066109730
30
0.0810358162445674
11
-98.5707876492282
21
-9.62512275336443
31
0.0810358162445674
  0
LINE
  5
F1047D
330
F1047E
100
AcDbEntity
8
Geo
100
AcDbLine
10
-98.5707876492282
20
-9.62512275336443
30
0.0810358162445674
11
-98.4635537366374
21
-9.68703428166497
31
0.0810358162445674
  0
LINE
  5
F1047F
330
F10480
100
AcDbEntity
8
Geo
100
AcDbLine
10
-98.4635537366374
20
-9.68703428166497
30
0.0810358162445674
11
-98.3563206923075
21
-9.74894530867486
31
0.0810358162445674
  0
LINE
  5
F10481
330
F10482
100
AcDbEntity
8
Geo
100
AcDbLine
10
-98.3563206923075
20
-9.74894530867486
30
0.0810358162445674
11
-98.2490884231927
21
-9.81085588811409
31
0.0810358162445674
  0
LINE
  5
F10483
330
F10484
100
AcDbEntity
8
Geo
100
AcDbLine
10
-98.2490884231927
20
-9.81085588811409
30
0.0810358162445674
11
-98.1418568490841
21
-9.87276606629134
31
0.0810358162445674
  0
LINE
  5
F10485
330
F10486
100
AcDbEntity
8
Geo
100
AcDbLine
10
-98.1418568490841
20
-9.87276606629134
30
0.0810358162445674
11
-98.0346259004694
21
-9.93467588333950
31
0.0810358162445674
  0
LINE
  5
F10487
330
F10488
100
AcDbEntity
8
Geo
100
AcDbLine
10
-98.0346259004694
20
-9.93467588333950
30
0.0810358162445674
11
-97.9273955168075
21
-9.99658537421198
31
0.0810358162445674
  0
LINE
  5
F10489
330
F1048A
100
AcDbEntity
8
Geo
100
AcDbLine
10
-97.9273955168075
20
-9.99658537421198
30
0.0810358162445674
11
-97.8201656451265
21
-10.0584945694922
31
0.0810358162445674
  0
LINE
  5
F1048B
330
F1048C
100
AcDbEntity
8
Geo
100
AcDbLine
10
-97.8201656451265
20
-10.0584945694922
30
0.0810358162445674
11
-97.7129362388762
21
-10.1204034960559
31
0.0810358162445674
  0
LINE
  5
F1048D
330
F1048E
100
AcDbEntity
8
Geo
100
AcDbLine
10
-97.7129362388762
20
-10.1204034960559
30
0.0810358162445674
11
-97.6057072569839
21
-10.1823121776163
31
0.0810358162445674
  0
LINE
  5
F1048F
330
F10490
100
AcDbEntity
8
Geo
100
AcDbLine
10
-97.6057072569839
20
-10.1823121776163
30
0.0810358162445674
11
-97.4984786630716
21
-10.2442206351764
31
0.0810358162445674
  0
LINE
  5
F10491
330
F10492
100
AcDbEntity
8
Geo
100
AcDbLine
10
-97.4984786630716
20
-10.2442206351764
30
0.0810358162445674
11
-97.3912504248041
21
-10.3061288874049
31
0.0810358162445674
  0
LINE
  5
F10493
330
F10494
100
AcDbEntity
8
Geo
100
AcDbLine
10
-97.3912504248041
20
-10.3061288874049
30
0.0810358162445674
11
-97.2840225133421
21
-10.3680369509521
31
0.0810358162445674
  0
LINE
  5
F10495
330
F10496
100
AcDbEntity
8
Geo
100
AcDbLine
10
-97.2840225133421
20
-10.3680369509521
30
0.0810358162445674
11
-97.1767949028824
21
-10.4299448407155
31
0.0810358162445674
  0
LINE
  5
F10497
330
F10498
100
AcDbEntity
8
Geo
100
AcDbLine
10
-97.1767949028824
20
-10.4299448407155
30
0.0810358162445674
11
-97.0695675702690
21
-10.4918525700644
31
0.0810358162445674
  0
LINE
  5
F10499
330
F1049A
100
AcDbEntity
8
Geo
100
AcDbLine
10
-97.0695675702690
20
-10.4918525700644
30
0.0810358162445674
11
-96.9623404946613
21
-10.5537601510309
31
0.0810358162445674
  0
LINE
  5
F1049B
330
F1049C
100
AcDbEntity
8
Geo
100
AcDbLine
10
-96.9623404946613
20
-10.5537601510309
30
0.0810358162445674
11
-96.8551136572524
21
-10.6156675944733
31
0.0810358162445674
  0
LINE
  5
F1049D
330
F1049E
100
AcDbEntity
8
Geo
100
AcDbLine
10
-96.8551136572524
20
-10.6156675944733
30
0.0810358162445674
11
-96.7478870410267
21
-10.6775749102155
31
0.0810358162445674
  0
LINE
  5
F1049F
330
F104A0
100
AcDbEntity
8
Geo
100
AcDbLine
10
-96.7478870410267
20
-10.6775749102155
30
0.0810358162445674
11
-96.6406606305516
21
-10.7394821071675
31
0.0810358162445674
  0
LINE
  5
F104A1
330
F104A2
100
AcDbEntity
8
Geo
100
AcDbLine
10
-96.6406606305516
20
-10.7394821071675
30
0.0810358162445674
11
-96.5334344117975
21
-10.8013891934294
31
0.0810358162445674
  0
LINE
  5
F104A3
330
F104A4
100
AcDbEntity
8
Geo
100
AcDbLine
10
-96.5334344117975
20
-10.8013891934294
30
0.0810358162445674
11
-96.4262083719822
21
-10.8632961763809
31
0.0810358162445674
  0
LINE
  5
F104A5
330
F104A6
100
AcDbEntity
8
Geo
100
AcDbLine
10
-96.4262083719822
20
-10.8632961763809
30
0.0810358162445674
11
-96.3189824994348
21
-10.9252030627602
31
0.0810358162445674
  0
LINE
  5
F104A7
330
F104A8
100
AcDbEntity
8
Geo
100
AcDbLine
10
-96.3189824994348
20
-10.9252030627602
30
0.0810358162445674
11
-96.2117567834781
21
-10.9871098587319
31
0.0810358162445674
  0
LINE
  5
F104A9
330
F104AA
100
AcDbEntity
8
Geo
100
AcDbLine
10
-96.2117567834781
20
-10.9871098587319
30
0.0810358162445674
11
-96.1045312143244
21
-11.0490165699468
31
0.0810358162445674
  0
LINE
  5
F104AB
330
F104AC
100
AcDbEntity
8
Geo
100
AcDbLine
10
-96.1045312143244
20
-11.0490165699468
30
0.0810358162445674
11
-96.0093336627692
21
-11.1039789019633
31
0.0810358162445674
  0
LINE
  5
F104AD
330
F104AE
100
AcDbEntity
8
Geo
100
AcDbLine
10
-96.0093336627692
20
-11.1039789019633
30
0.0810358162445674
11
-96.0093336627692
21
-11.1039789019633
31
0.000000000000000
  0
LINE
  5
F104AF
330
F104B0
100
AcDbEntity
8
Geo
100
AcDbLine
10
-96.0093336627692
20
-11.1039789019633
30
0.000000000000000
11
-95.9254425251854
21
-10.9756761454906
31
0.000000000000000
  0
LINE
  5
F104B1
330
F104B2
100
AcDbEntity
8
Geo
100
AcDbLine
10
-95.9254425251854
20
-10.9756761454906
30
0.000000000000000
11
-95.8448199144093
21
-10.8452947245930
31
0.000000000000000
  0
LINE
  5
F104B3
330
F104B4
100
AcDbEntity
8
Geo
100
AcDbLine
10
-95.8448199144093
20
-10.8452947245930
30
0.000000000000000
11
-95.7675173072824
21
-10.7129178866832
31
0.000000000000000
  0
LINE
  5
F104B5
330
F104B6
100
AcDbEntity
8
Geo
100
AcDbLine
10
-96.0093336627692
20
-11.1039789019633
30
0.0810358162445674
11
-96.1045312143244
21
-11.0490165699468
31
0.0810358162445674
  0
LINE
  5
F104B7
330
F104B8
100
AcDbEntity
8
Geo
100
AcDbLine
10
-96.1045312143244
20
-11.0490165699468
30
0.0810358162445674
11
-96.2117567834781
21
-10.9871098587319
31
0.0810358162445674
  0
LINE
  5
F104B9
330
F104BA
100
AcDbEntity
8
Geo
100
AcDbLine
10
-96.2117567834781
20
-10.9871098587319
30
0.0810358162445674
11
-96.3189824994348
21
-10.9252030627602
31
0.0810358162445674
  0
LINE
  5
F104BB
330
F104BC
100
AcDbEntity
8
Geo
100
AcDbLine
10
-96.3189824994348
20
-10.9252030627602
30
0.0810358162445674
11
-96.4262083719822
21
-10.8632961763809
31
0.0810358162445674
  0
LINE
  5
F104BD
330
F104BE
100
AcDbEntity
8
Geo
100
AcDbLine
10
-96.4262083719822
20
-10.8632961763809
30
0.0810358162445674
11
-96.5334344117975
21
-10.8013891934294
31
0.0810358162445674
  0
LINE
  5
F104BF
330
F104C0
100
AcDbEntity
8
Geo
100
AcDbLine
10
-96.5334344117975
20
-10.8013891934294
30
0.0810358162445674
11
-96.6406606305516
21
-10.7394821071675
31
0.0810358162445674
  0
LINE
  5
F104C1
330
F104C2
100
AcDbEntity
8
Geo
100
AcDbLine
10
-96.6406606305516
20
-10.7394821071675
30
0.0810358162445674
11
-96.7478870410267
21
-10.6775749102155
31
0.0810358162445674
  0
LINE
  5
F104C3
330
F104C4
100
AcDbEntity
8
Geo
100
AcDbLine
10
-96.7478870410267
20
-10.6775749102155
30
0.0810358162445674
11
-96.8551136572524
21
-10.6156675944733
31
0.0810358162445674
  0
LINE
  5
F104C5
330
F104C6
100
AcDbEntity
8
Geo
100
AcDbLine
10
-96.8551136572524
20
-10.6156675944733
30
0.0810358162445674
11
-96.9623404946613
21
-10.5537601510309
31
0.0810358162445674
  0
LINE
  5
F104C7
330
F104C8
100
AcDbEntity
8
Geo
100
AcDbLine
10
-96.9623404946613
20
-10.5537601510309
30
0.0810358162445674
11
-97.0695675702690
21
-10.4918525700644
31
0.0810358162445674
  0
LINE
  5
F104C9
330
F104CA
100
AcDbEntity
8
Geo
100
AcDbLine
10
-97.0695675702690
20
-10.4918525700644
30
0.0810358162445674
11
-97.1767949028824
21
-10.4299448407155
31
0.0810358162445674
  0
LINE
  5
F104CB
330
F104CC
100
AcDbEntity
8
Geo
100
AcDbLine
10
-97.1767949028824
20
-10.4299448407155
30
0.0810358162445674
11
-97.2840225133421
21
-10.3680369509521
31
0.0810358162445674
  0
LINE
  5
F104CD
330
F104CE
100
AcDbEntity
8
Geo
100
AcDbLine
10
-97.2840225133421
20
-10.3680369509521
30
0.0810358162445674
11
-97.3912504248041
21
-10.3061288874049
31
0.0810358162445674
  0
LINE
  5
F104CF
330
F104D0
100
AcDbEntity
8
Geo
100
AcDbLine
10
-97.3912504248041
20
-10.3061288874049
30
0.0810358162445674
11
-97.4984786630716
21
-10.2442206351764
31
0.0810358162445674
  0
LINE
  5
F104D1
330
F104D2
100
AcDbEntity
8
Geo
100
AcDbLine
10
-97.4984786630716
20
-10.2442206351764
30
0.0810358162445674
11
-97.6057072569839
21
-10.1823121776163
31
0.0810358162445674
  0
LINE
  5
F104D3
330
F104D4
100
AcDbEntity
8
Geo
100
AcDbLine
10
-97.6057072569839
20
-10.1823121776163
30
0.0810358162445674
11
-97.7129362388762
21
-10.1204034960559
31
0.0810358162445674
  0
LINE
  5
F104D5
330
F104D6
100
AcDbEntity
8
Geo
100
AcDbLine
10
-97.7129362388762
20
-10.1204034960559
30
0.0810358162445674
11
-97.8201656451265
21
-10.0584945694922
31
0.0810358162445674
  0
LINE
  5
F104D7
330
F104D8
100
AcDbEntity
8
Geo
100
AcDbLine
10
-97.8201656451265
20
-10.0584945694922
30
0.0810358162445674
11
-97.9273955168075
21
-9.99658537421198
31
0.0810358162445674
  0
LINE
  5
F104D9
330
F104DA
100
AcDbEntity
8
Geo
100
AcDbLine
10
-97.9273955168075
20
-9.99658537421198
30
0.0810358162445674
11
-98.0346259004694
21
-9.93467588333950
31
0.0810358162445674
  0
LINE
  5
F104DB
330
F104DC
100
AcDbEntity
8
Geo
100
AcDbLine
10
-98.0346259004694
20
-9.93467588333950
30
0.0810358162445674
11
-98.1418568490841
21
-9.87276606629134
31
0.0810358162445674
  0
LINE
  5
F104DD
330
F104DE
100
AcDbEntity
8
Geo
100
AcDbLine
10
-98.1418568490841
20
-9.87276606629134
30
0.0810358162445674
11
-98.2490884231927
21
-9.81085588811409
31
0.0810358162445674
  0
LINE
  5
F104DF
330
F104E0
100
AcDbEntity
8
Geo
100
AcDbLine
10
-98.2490884231927
20
-9.81085588811409
30
0.0810358162445674
11
-98.3563206923075
21
-9.74894530867486
31
0.0810358162445674
  0
LINE
  5
F104E1
330
F104E2
100
AcDbEntity
8
Geo
100
AcDbLine
10
-98.3563206923075
20
-9.74894530867486
30
0.0810358162445674
11
-98.4635537366374
21
-9.68703428166497
31
0.0810358162445674
  0
LINE
  5
F104E3
330
F104E4
100
AcDbEntity
8
Geo
100
AcDbLine
10
-98.4635537366374
20
-9.68703428166497
30
0.0810358162445674
11
-98.5707876492282
21
-9.62512275336443
31
0.0810358162445674
  0
LINE
  5
F104E5
330
F104E6
100
AcDbEntity
8
Geo
100
AcDbLine
10
-98.5707876492282
20
-9.62512275336443
30
0.0810358162445674
11
-98.6780225386377
21
-9.56321066109730
31
0.0810358162445674
  0
LINE
  5
F104E7
330
F104E8
100
AcDbEntity
8
Geo
100
AcDbLine
10
-98.6780225386377
20
-9.56321066109730
30
0.0810358162445674
11
-98.7852585323094
21
-9.50129793128414
31
0.0810358162445674
  0
LINE
  5
F104E9
330
F104EA
100
AcDbEntity
8
Geo
100
AcDbLine
10
-98.7852585323094
20
-9.50129793128414
30
0.0810358162445674
11
-98.8924957808659
21
-9.43938447696291
31
0.0810358162445674
  0
LINE
  5
F104EB
330
F104EC
100
AcDbEntity
8
Geo
100
AcDbLine
10
-98.8924957808659
20
-9.43938447696291
30
0.0810358162445674
11
-98.9997344636304
21
-9.37747019460124
31
0.0810358162445674
  0
LINE
  5
F104ED
330
F104EE
100
AcDbEntity
8
Geo
100
AcDbLine
10
-98.9997344636304
20
-9.37747019460124
30
0.0810358162445674
11
-99.1069747958056
21
-9.31555495995190
31
0.0810358162445674
  0
LINE
  5
F104EF
330
F104F0
100
AcDbEntity
8
Geo
100
AcDbLine
10
-99.1069747958056
20
-9.31555495995190
30
0.0810358162445674
11
-99.2142170379200
21
-9.25363862259866
31
0.0810358162445674
  0
LINE
  5
F104F1
330
F104F2
100
AcDbEntity
8
Geo
100
AcDbLine
10
-99.2142170379200
20
-9.25363862259866
30
0.0810358162445674
11
-99.3214615084261
21
-9.19172099868288
31
0.0810358162445674
  0
LINE
  5
F104F3
330
F104F4
100
AcDbEntity
8
Geo
100
AcDbLine
10
-99.3214615084261
20
-9.19172099868288
30
0.0810358162445674
11
-99.4287086007479
21
-9.12980186106110
31
0.0810358162445674
  0
LINE
  5
F104F5
330
F104F6
100
AcDbEntity
8
Geo
100
AcDbLine
10
-99.4287086007479
20
-9.12980186106110
30
0.0810358162445674
11
-99.5359588067263
21
-9.06788092576879
31
0.0810358162445674
  0
LINE
  5
F104F7
330
F104F8
100
AcDbEntity
8
Geo
100
AcDbLine
10
-99.5359588067263
20
-9.06788092576879
30
0.0810358162445674
11
-99.6344570361234
21
-9.01101294651172
31
0.0810358162445674
  0
LINE
  5
F104F9
330
F104FA
100
AcDbEntity
8
Geo
100
AcDbLine
10
-99.6344570361234
20
-9.01101294651172
30
0.0810358162445674
11
-99.7824569467959
21
-9.43192815997340
31
0.240645216463212
  0
LINE
  5
F104FB
330
F104FC
100
AcDbEntity
8
Geo
100
AcDbLine
10
-99.7824569467959
20
-9.43192815997340
30
0.240645216463212
11
-99.7552204182430
21
-9.44765317706517
31
0.240645216463212
  0
LINE
  5
F104FD
330
F104FE
100
AcDbEntity
8
Geo
100
AcDbLine
10
-99.7552204182430
20
-9.44765317706517
30
0.240645216463212
11
-99.6479702122646
21
-9.50957411235748
31
0.240645216463212
  0
LINE
  5
F104FF
330
F10500
100
AcDbEntity
8
Geo
100
AcDbLine
10
-99.6479702122646
20
-9.50957411235748
30
0.240645216463212
11
-99.5407231199428
21
-9.57149324997925
31
0.240645216463212
  0
LINE
  5
F10501
330
F10502
100
AcDbEntity
8
Geo
100
AcDbLine
10
-99.5407231199428
20
-9.57149324997925
30
0.240645216463212
11
-99.4334786494367
21
-9.63341087389504
31
0.240645216463212
  0
LINE
  5
F10503
330
F10504
100
AcDbEntity
8
Geo
100
AcDbLine
10
-99.4334786494367
20
-9.63341087389504
30
0.240645216463212
11
-99.3262364073223
21
-9.69532721124827
31
0.240645216463212
  0
LINE
  5
F10505
330
F10506
100
AcDbEntity
8
Geo
100
AcDbLine
10
-99.3262364073223
20
-9.69532721124827
30
0.240645216463212
11
-99.2189960751472
21
-9.75724244589760
31
0.240645216463212
  0
LINE
  5
F10507
330
F10508
100
AcDbEntity
8
Geo
100
AcDbLine
10
-99.2189960751472
20
-9.75724244589760
30
0.240645216463212
11
-99.1117573923826
21
-9.81915672825928
31
0.240645216463212
  0
LINE
  5
F10509
330
F1050A
100
AcDbEntity
8
Geo
100
AcDbLine
10
-99.1117573923826
20
-9.81915672825928
30
0.240645216463212
11
-99.0045201438261
21
-9.88107018258051
31
0.240645216463212
  0
LINE
  5
F1050B
330
F1050C
100
AcDbEntity
8
Geo
100
AcDbLine
10
-99.0045201438261
20
-9.88107018258051
30
0.240645216463212
11
-98.8972841501544
21
-9.94298291239367
31
0.240645216463212
  0
LINE
  5
F1050D
330
F1050E
100
AcDbEntity
8
Geo
100
AcDbLine
10
-98.8972841501544
20
-9.94298291239367
30
0.240645216463212
11
-98.7900492607449
21
-10.0048950046608
31
0.240645216463212
  0
LINE
  5
F1050F
330
F10510
100
AcDbEntity
8
Geo
100
AcDbLine
10
-98.7900492607449
20
-10.0048950046608
30
0.240645216463212
11
-98.6828153481541
21
-10.0668065329614
31
0.240645216463212
  0
LINE
  5
F10511
330
F10512
100
AcDbEntity
8
Geo
100
AcDbLine
10
-98.6828153481541
20
-10.0668065329614
30
0.240645216463212
11
-98.5755823038242
21
-10.1287175599712
31
0.240645216463212
  0
LINE
  5
F10513
330
F10514
100
AcDbEntity
8
Geo
100
AcDbLine
10
-98.5755823038242
20
-10.1287175599712
30
0.240645216463212
11
-98.4683500347094
21
-10.1906281394105
31
0.240645216463212
  0
LINE
  5
F10515
330
F10516
100
AcDbEntity
8
Geo
100
AcDbLine
10
-98.4683500347094
20
-10.1906281394105
30
0.240645216463212
11
-98.3611184606008
21
-10.2525383175877
31
0.240645216463212
  0
LINE
  5
F10517
330
F10518
100
AcDbEntity
8
Geo
100
AcDbLine
10
-98.3611184606008
20
-10.2525383175877
30
0.240645216463212
11
-98.2538875119861
21
-10.3144481346359
31
0.240645216463212
  0
LINE
  5
F10519
330
F1051A
100
AcDbEntity
8
Geo
100
AcDbLine
10
-98.2538875119861
20
-10.3144481346359
30
0.240645216463212
11
-98.1466571283242
21
-10.3763576255083
31
0.240645216463212
  0
LINE
  5
F1051B
330
F1051C
100
AcDbEntity
8
Geo
100
AcDbLine
10
-98.1466571283242
20
-10.3763576255083
30
0.240645216463212
11
-98.0394272566432
21
-10.4382668207886
31
0.240645216463212
  0
LINE
  5
F1051D
330
F1051E
100
AcDbEntity
8
Geo
100
AcDbLine
10
-98.0394272566432
20
-10.4382668207886
30
0.240645216463212
11
-97.9321978503929
21
-10.5001757473522
31
0.240645216463212
  0
LINE
  5
F1051F
330
F10520
100
AcDbEntity
8
Geo
100
AcDbLine
10
-97.9321978503929
20
-10.5001757473522
30
0.240645216463212
11
-97.8249688685006
21
-10.5620844289127
31
0.240645216463212
  0
LINE
  5
F10521
330
F10522
100
AcDbEntity
8
Geo
100
AcDbLine
10
-97.8249688685006
20
-10.5620844289127
30
0.240645216463212
11
-97.7177402745884
21
-10.6239928864727
31
0.240645216463212
  0
LINE
  5
F10523
330
F10524
100
AcDbEntity
8
Geo
100
AcDbLine
10
-97.7177402745884
20
-10.6239928864727
30
0.240645216463212
11
-97.6105120363208
21
-10.6859011387012
31
0.240645216463212
  0
LINE
  5
F10525
330
F10526
100
AcDbEntity
8
Geo
100
AcDbLine
10
-97.6105120363208
20
-10.6859011387012
30
0.240645216463212
11
-97.5032841248588
21
-10.7478092022485
31
0.240645216463212
  0
LINE
  5
F10527
330
F10528
100
AcDbEntity
8
Geo
100
AcDbLine
10
-97.5032841248588
20
-10.7478092022485
30
0.240645216463212
11
-97.3960565143992
21
-10.8097170920119
31
0.240645216463212
  0
LINE
  5
F10529
330
F1052A
100
AcDbEntity
8
Geo
100
AcDbLine
10
-97.3960565143992
20
-10.8097170920119
30
0.240645216463212
11
-97.2888291817857
21
-10.8716248213608
31
0.240645216463212
  0
LINE
  5
F1052B
330
F1052C
100
AcDbEntity
8
Geo
100
AcDbLine
10
-97.2888291817857
20
-10.8716248213608
30
0.240645216463212
11
-97.1816021061780
21
-10.9335324023273
31
0.240645216463212
  0
LINE
  5
F1052D
330
F1052E
100
AcDbEntity
8
Geo
100
AcDbLine
10
-97.1816021061780
20
-10.9335324023273
30
0.240645216463212
11
-97.0743752687691
21
-10.9954398457697
31
0.240645216463212
  0
LINE
  5
F1052F
330
F10530
100
AcDbEntity
8
Geo
100
AcDbLine
10
-97.0743752687691
20
-10.9954398457697
30
0.240645216463212
11
-96.9671486525434
21
-11.0573471615119
31
0.240645216463212
  0
LINE
  5
F10531
330
F10532
100
AcDbEntity
8
Geo
100
AcDbLine
10
-96.9671486525434
20
-11.0573471615119
30
0.240645216463212
11
-96.8599222420683
21
-11.1192543584639
31
0.240645216463212
  0
LINE
  5
F10533
330
F10534
100
AcDbEntity
8
Geo
100
AcDbLine
10
-96.8599222420683
20
-11.1192543584639
30
0.240645216463212
11
-96.7526960233142
21
-11.1811614447258
31
0.240645216463212
  0
LINE
  5
F10535
330
F10536
100
AcDbEntity
8
Geo
100
AcDbLine
10
-96.7526960233142
20
-11.1811614447258
30
0.240645216463212
11
-96.6454699834989
21
-11.2430684276773
31
0.240645216463212
  0
LINE
  5
F10537
330
F10538
100
AcDbEntity
8
Geo
100
AcDbLine
10
-96.6454699834989
20
-11.2430684276773
30
0.240645216463212
11
-96.5382441109515
21
-11.3049753140566
31
0.240645216463212
  0
LINE
  5
F10539
330
F1053A
100
AcDbEntity
8
Geo
100
AcDbLine
10
-96.5382441109515
20
-11.3049753140566
30
0.240645216463212
11
-96.4310183949948
21
-11.3668821100283
31
0.240645216463212
  0
LINE
  5
F1053B
330
F1053C
100
AcDbEntity
8
Geo
100
AcDbLine
10
-96.4310183949948
20
-11.3668821100283
30
0.240645216463212
11
-96.3237928258411
21
-11.4287888212432
31
0.240645216463212
  0
LINE
  5
F1053D
330
F1053E
100
AcDbEntity
8
Geo
100
AcDbLine
10
-96.3237928258411
20
-11.4287888212432
30
0.240645216463212
11
-96.2684123332279
21
-11.4607627635613
31
0.240645216463212
  0
LINE
  5
F1053F
330
F10540
100
AcDbEntity
8
Geo
100
AcDbLine
10
-96.2684123332279
20
-11.4607627635613
30
0.240645216463212
11
-96.2684123332279
21
-11.4607627635613
31
0.000000000000000
  0
LINE
  5
F10541
330
F10542
100
AcDbEntity
8
Geo
100
AcDbLine
10
-96.2684123332279
20
-11.4607627635613
30
0.000000000000000
11
-96.1791790749077
21
-11.3439393273273
31
0.000000000000000
  0
LINE
  5
F10543
330
F10544
100
AcDbEntity
8
Geo
100
AcDbLine
10
-96.1791790749077
20
-11.3439393273273
30
0.000000000000000
11
-96.0928026123367
21
-11.2249880921187
31
0.000000000000000
  0
LINE
  5
F10545
330
F10546
100
AcDbEntity
8
Geo
100
AcDbLine
10
-96.0928026123367
20
-11.2249880921187
30
0.000000000000000
11
-96.0093336627692
21
-11.1039789019634
31
0.000000000000000
  0
LINE
  5
F10547
330
F10548
100
AcDbEntity
8
Geo
100
AcDbLine
10
-106.274981321020
20
-10.7937469243698
30
0.000000000000000
11
-106.167755889681
21
-10.7318402927222
31
0.000000000000000
  0
LINE
  5
F10549
330
F1054A
100
AcDbEntity
8
Geo
100
AcDbLine
10
-106.167755889681
20
-10.7318402927222
30
0.000000000000000
11
-106.060530320528
21
-10.6699335815073
31
0.000000000000000
  0
LINE
  5
F1054B
330
F1054C
100
AcDbEntity
8
Geo
100
AcDbLine
10
-106.060530320528
20
-10.6699335815073
30
0.000000000000000
11
-105.953304604571
21
-10.6080267855356
31
0.000000000000000
  0
LINE
  5
F1054D
330
F1054E
100
AcDbEntity
8
Geo
100
AcDbLine
10
-105.953304604571
20
-10.6080267855356
30
0.000000000000000
11
-105.846078732024
21
-10.5461198991563
31
0.000000000000000
  0
LINE
  5
F1054F
330
F10550
100
AcDbEntity
8
Geo
100
AcDbLine
10
-105.846078732024
20
-10.5461198991563
30
0.000000000000000
11
-105.738852692208
21
-10.4842129162048
31
0.000000000000000
  0
LINE
  5
F10551
330
F10552
100
AcDbEntity
8
Geo
100
AcDbLine
10
-105.738852692208
20
-10.4842129162048
30
0.000000000000000
11
-105.631626473454
21
-10.4223058299429
31
0.000000000000000
  0
LINE
  5
F10553
330
F10554
100
AcDbEntity
8
Geo
100
AcDbLine
10
-105.631626473454
20
-10.4223058299429
30
0.000000000000000
11
-105.524400062979
21
-10.3603986329909
31
0.000000000000000
  0
LINE
  5
F10555
330
F10556
100
AcDbEntity
8
Geo
100
AcDbLine
10
-105.524400062979
20
-10.3603986329909
30
0.000000000000000
11
-105.417173446753
21
-10.2984913172487
31
0.000000000000000
  0
LINE
  5
F10557
330
F10558
100
AcDbEntity
8
Geo
100
AcDbLine
10
-105.417173446753
20
-10.2984913172487
30
0.000000000000000
11
-105.309946609344
21
-10.2365838738063
31
0.000000000000000
  0
LINE
  5
F10559
330
F1055A
100
AcDbEntity
8
Geo
100
AcDbLine
10
-105.309946609344
20
-10.2365838738063
30
0.000000000000000
11
-105.202719533737
21
-10.1746762928398
31
0.000000000000000
  0
LINE
  5
F1055B
330
F1055C
100
AcDbEntity
8
Geo
100
AcDbLine
10
-105.202719533737
20
-10.1746762928398
30
0.000000000000000
11
-105.095492201123
21
-10.1127685634909
31
0.000000000000000
  0
LINE
  5
F1055D
330
F1055E
100
AcDbEntity
8
Geo
100
AcDbLine
10
-105.095492201123
20
-10.1127685634909
30
0.000000000000000
11
-104.988264590664
21
-10.0508606737275
31
0.000000000000000
  0
LINE
  5
F1055F
330
F10560
100
AcDbEntity
8
Geo
100
AcDbLine
10
-104.988264590664
20
-10.0508606737275
30
0.000000000000000
11
-104.881036679202
21
-9.98895261018026
31
0.000000000000000
  0
LINE
  5
F10561
330
F10562
100
AcDbEntity
8
Geo
100
AcDbLine
10
-104.881036679202
20
-9.98895261018026
30
0.000000000000000
11
-104.773808440934
21
-9.92704435795176
31
0.000000000000000
  0
LINE
  5
F10563
330
F10564
100
AcDbEntity
8
Geo
100
AcDbLine
10
-104.773808440934
20
-9.92704435795176
30
0.000000000000000
11
-104.666579847022
21
-9.86513590039170
31
0.000000000000000
  0
LINE
  5
F10565
330
F10566
100
AcDbEntity
8
Geo
100
AcDbLine
10
-104.666579847022
20
-9.86513590039170
30
0.000000000000000
11
-104.559350865130
21
-9.80322721883126
31
0.000000000000000
  0
LINE
  5
F10567
330
F10568
100
AcDbEntity
8
Geo
100
AcDbLine
10
-104.559350865130
20
-9.80322721883126
30
0.000000000000000
11
-104.452121458879
21
-9.74131829226760
31
0.000000000000000
  0
LINE
  5
F10569
330
F1056A
100
AcDbEntity
8
Geo
100
AcDbLine
10
-104.452121458879
20
-9.74131829226760
30
0.000000000000000
11
-104.344891587198
21
-9.67940909698737
31
0.000000000000000
  0
LINE
  5
F1056B
330
F1056C
100
AcDbEntity
8
Geo
100
AcDbLine
10
-104.344891587198
20
-9.67940909698737
30
0.000000000000000
11
-104.237661203536
21
-9.61749960611490
31
0.000000000000000
  0
LINE
  5
F1056D
330
F1056E
100
AcDbEntity
8
Geo
100
AcDbLine
10
-104.237661203536
20
-9.61749960611490
30
0.000000000000000
11
-104.130430254922
21
-9.55558978906674
31
0.000000000000000
  0
LINE
  5
F1056F
330
F10570
100
AcDbEntity
8
Geo
100
AcDbLine
10
-104.130430254922
20
-9.55558978906674
30
0.000000000000000
11
-104.023198680813
21
-9.49367961088949
31
0.000000000000000
  0
LINE
  5
F10571
330
F10572
100
AcDbEntity
8
Geo
100
AcDbLine
10
-104.023198680813
20
-9.49367961088949
30
0.000000000000000
11
-103.915966411698
21
-9.43176903145026
31
0.000000000000000
  0
LINE
  5
F10573
330
F10574
100
AcDbEntity
8
Geo
100
AcDbLine
10
-103.915966411698
20
-9.43176903145026
30
0.000000000000000
11
-103.808733367368
21
-9.36985800444038
31
0.000000000000000
  0
LINE
  5
F10575
330
F10576
100
AcDbEntity
8
Geo
100
AcDbLine
10
-103.808733367368
20
-9.36985800444038
30
0.000000000000000
11
-103.701499454778
21
-9.30794647613983
31
0.000000000000000
  0
LINE
  5
F10577
330
F10578
100
AcDbEntity
8
Geo
100
AcDbLine
10
-103.701499454778
20
-9.30794647613983
30
0.000000000000000
11
-103.594264565368
21
-9.24603438387270
31
0.000000000000000
  0
LINE
  5
F10579
330
F1057A
100
AcDbEntity
8
Geo
100
AcDbLine
10
-103.594264565368
20
-9.24603438387270
30
0.000000000000000
11
-103.487028571696
21
-9.18412165405954
31
0.000000000000000
  0
LINE
  5
F1057B
330
F1057C
100
AcDbEntity
8
Geo
100
AcDbLine
10
-103.487028571696
20
-9.18412165405954
30
0.000000000000000
11
-103.379791323140
21
-9.12220819973830
31
0.000000000000000
  0
LINE
  5
F1057D
330
F1057E
100
AcDbEntity
8
Geo
100
AcDbLine
10
-103.379791323140
20
-9.12220819973830
30
0.000000000000000
11
-103.272552640375
21
-9.06029391737663
31
0.000000000000000
  0
LINE
  5
F1057F
330
F10580
100
AcDbEntity
8
Geo
100
AcDbLine
10
-103.272552640375
20
-9.06029391737663
30
0.000000000000000
11
-103.165312308200
21
-8.99837868272730
31
0.000000000000000
  0
LINE
  5
F10581
330
F10582
100
AcDbEntity
8
Geo
100
AcDbLine
10
-103.165312308200
20
-8.99837868272730
30
0.000000000000000
11
-103.058070066086
21
-8.93646234537407
31
0.000000000000000
  0
LINE
  5
F10583
330
F10584
100
AcDbEntity
8
Geo
100
AcDbLine
10
-103.058070066086
20
-8.93646234537407
30
0.000000000000000
11
-102.950825595580
21
-8.87454472145829
31
0.000000000000000
  0
LINE
  5
F10585
330
F10586
100
AcDbEntity
8
Geo
100
AcDbLine
10
-102.950825595580
20
-8.87454472145829
30
0.000000000000000
11
-102.843578503258
21
-8.81262558383651
31
0.000000000000000
  0
LINE
  5
F10587
330
F10588
100
AcDbEntity
8
Geo
100
AcDbLine
10
-102.843578503258
20
-8.81262558383651
30
0.000000000000000
11
-102.736328297279
21
-8.75070464854420
31
0.000000000000000
  0
LINE
  5
F10589
330
F1058A
100
AcDbEntity
8
Geo
100
AcDbLine
10
-102.736328297279
20
-8.75070464854420
30
0.000000000000000
11
-102.629074354554
21
-8.68878155583979
31
0.000000000000000
  0
LINE
  5
F1058B
330
F1058C
100
AcDbEntity
8
Geo
100
AcDbLine
10
-102.629074354554
20
-8.68878155583979
30
0.000000000000000
11
-102.521815873822
21
-8.62685584311624
31
0.000000000000000
  0
LINE
  5
F1058D
330
F1058E
100
AcDbEntity
8
Geo
100
AcDbLine
10
-102.521815873822
20
-8.62685584311624
30
0.000000000000000
11
-102.435757473666
21
-8.57717000262045
31
0.000000000000000
  0
LINE
  5
F1058F
330
F10590
100
AcDbEntity
8
Geo
100
AcDbLine
10
-102.435757473666
20
-8.57717000262045
30
0.000000000000000
11
-102.736807650213
21
-8.22030764987462
31
0.0810358162445674
  0
LINE
  5
F10591
330
F10592
100
AcDbEntity
8
Geo
100
AcDbLine
10
-102.736807650213
20
-8.22030764987462
30
0.0810358162445674
11
-102.751604349524
21
-8.22885052820510
31
0.0810358162445674
  0
LINE
  5
F10593
330
F10594
100
AcDbEntity
8
Geo
100
AcDbLine
10
-102.751604349524
20
-8.22885052820510
30
0.0810358162445674
11
-102.858862830256
21
-8.29077624092865
31
0.0810358162445674
  0
LINE
  5
F10595
330
F10596
100
AcDbEntity
8
Geo
100
AcDbLine
10
-102.858862830256
20
-8.29077624092865
30
0.0810358162445674
11
-102.966116772982
21
-8.35269933363306
31
0.0810358162445674
  0
LINE
  5
F10597
330
F10598
100
AcDbEntity
8
Geo
100
AcDbLine
10
-102.966116772982
20
-8.35269933363306
30
0.0810358162445674
11
-103.073366978961
21
-8.41462026892537
31
0.0810358162445674
  0
LINE
  5
F10599
330
F1059A
100
AcDbEntity
8
Geo
100
AcDbLine
10
-103.073366978961
20
-8.41462026892537
30
0.0810358162445674
11
-103.180614071283
21
-8.47653940654714
31
0.0810358162445674
  0
LINE
  5
F1059B
330
F1059C
100
AcDbEntity
8
Geo
100
AcDbLine
10
-103.180614071283
20
-8.47653940654714
30
0.0810358162445674
11
-103.287858541789
21
-8.53845703046293
31
0.0810358162445674
  0
LINE
  5
F1059D
330
F1059E
100
AcDbEntity
8
Geo
100
AcDbLine
10
-103.287858541789
20
-8.53845703046293
30
0.0810358162445674
11
-103.395100783903
21
-8.60037336781616
31
0.0810358162445674
  0
LINE
  5
F1059F
330
F105A0
100
AcDbEntity
8
Geo
100
AcDbLine
10
-103.395100783903
20
-8.60037336781616
30
0.0810358162445674
11
-103.502341116078
21
-8.66228860246549
31
0.0810358162445674
  0
LINE
  5
F105A1
330
F105A2
100
AcDbEntity
8
Geo
100
AcDbLine
10
-103.502341116078
20
-8.66228860246549
30
0.0810358162445674
11
-103.609579798843
21
-8.72420288482716
31
0.0810358162445674
  0
LINE
  5
F105A3
330
F105A4
100
AcDbEntity
8
Geo
100
AcDbLine
10
-103.609579798843
20
-8.72420288482716
30
0.0810358162445674
11
-103.716817047399
21
-8.78611633914840
31
0.0810358162445674
  0
LINE
  5
F105A5
330
F105A6
100
AcDbEntity
8
Geo
100
AcDbLine
10
-103.716817047399
20
-8.78611633914840
30
0.0810358162445674
11
-103.824053041071
21
-8.84802906896156
31
0.0810358162445674
  0
LINE
  5
F105A7
330
F105A8
100
AcDbEntity
8
Geo
100
AcDbLine
10
-103.824053041071
20
-8.84802906896156
30
0.0810358162445674
11
-103.931287930480
21
-8.90994116122869
31
0.0810358162445674
  0
LINE
  5
F105A9
330
F105AA
100
AcDbEntity
8
Geo
100
AcDbLine
10
-103.931287930480
20
-8.90994116122869
30
0.0810358162445674
11
-104.038521843071
21
-8.97185268952924
31
0.0810358162445674
  0
LINE
  5
F105AB
330
F105AC
100
AcDbEntity
8
Geo
100
AcDbLine
10
-104.038521843071
20
-8.97185268952924
30
0.0810358162445674
11
-104.145754887401
21
-9.03376371653912
31
0.0810358162445674
  0
LINE
  5
F105AD
330
F105AE
100
AcDbEntity
8
Geo
100
AcDbLine
10
-104.145754887401
20
-9.03376371653912
30
0.0810358162445674
11
-104.252987156516
21
-9.09567429597835
31
0.0810358162445674
  0
LINE
  5
F105AF
330
F105B0
100
AcDbEntity
8
Geo
100
AcDbLine
10
-104.252987156516
20
-9.09567429597835
30
0.0810358162445674
11
-104.360218730625
21
-9.15758447415560
31
0.0810358162445674
  0
LINE
  5
F105B1
330
F105B2
100
AcDbEntity
8
Geo
100
AcDbLine
10
-104.360218730625
20
-9.15758447415560
30
0.0810358162445674
11
-104.467449679239
21
-9.21949429120376
31
0.0810358162445674
  0
LINE
  5
F105B3
330
F105B4
100
AcDbEntity
8
Geo
100
AcDbLine
10
-104.467449679239
20
-9.21949429120376
30
0.0810358162445674
11
-104.574680062901
21
-9.28140378207624
31
0.0810358162445674
  0
LINE
  5
F105B5
330
F105B6
100
AcDbEntity
8
Geo
100
AcDbLine
10
-104.574680062901
20
-9.28140378207624
30
0.0810358162445674
11
-104.681909934582
21
-9.34331297735645
31
0.0810358162445674
  0
LINE
  5
F105B7
330
F105B8
100
AcDbEntity
8
Geo
100
AcDbLine
10
-104.681909934582
20
-9.34331297735645
30
0.0810358162445674
11
-104.789139340832
21
-9.40522190392012
31
0.0810358162445674
  0
LINE
  5
F105B9
330
F105BA
100
AcDbEntity
8
Geo
100
AcDbLine
10
-104.789139340832
20
-9.40522190392012
30
0.0810358162445674
11
-104.896368322725
21
-9.46713058548056
31
0.0810358162445674
  0
LINE
  5
F105BB
330
F105BC
100
AcDbEntity
8
Geo
100
AcDbLine
10
-104.896368322725
20
-9.46713058548056
30
0.0810358162445674
11
-105.003596916637
21
-9.52903904304062
31
0.0810358162445674
  0
LINE
  5
F105BD
330
F105BE
100
AcDbEntity
8
Geo
100
AcDbLine
10
-105.003596916637
20
-9.52903904304062
30
0.0810358162445674
11
-105.110825154905
21
-9.59094729526911
31
0.0810358162445674
  0
LINE
  5
F105BF
330
F105C0
100
AcDbEntity
8
Geo
100
AcDbLine
10
-105.110825154905
20
-9.59094729526911
30
0.0810358162445674
11
-105.218053066367
21
-9.65285535881636
31
0.0810358162445674
  0
LINE
  5
F105C1
330
F105C2
100
AcDbEntity
8
Geo
100
AcDbLine
10
-105.218053066367
20
-9.65285535881636
30
0.0810358162445674
11
-105.325280676826
21
-9.71476324857977
31
0.0810358162445674
  0
LINE
  5
F105C3
330
F105C4
100
AcDbEntity
8
Geo
100
AcDbLine
10
-105.325280676826
20
-9.71476324857977
30
0.0810358162445674
11
-105.432508009440
21
-9.77667097792864
31
0.0810358162445674
  0
LINE
  5
F105C5
330
F105C6
100
AcDbEntity
8
Geo
100
AcDbLine
10
-105.432508009440
20
-9.77667097792864
30
0.0810358162445674
11
-105.539735085047
21
-9.83857855889516
31
0.0810358162445674
  0
LINE
  5
F105C7
330
F105C8
100
AcDbEntity
8
Geo
100
AcDbLine
10
-105.539735085047
20
-9.83857855889516
30
0.0810358162445674
11
-105.646961922456
21
-9.90048600233753
31
0.0810358162445674
  0
LINE
  5
F105C9
330
F105CA
100
AcDbEntity
8
Geo
100
AcDbLine
10
-105.646961922456
20
-9.90048600233753
30
0.0810358162445674
11
-105.754188538682
21
-9.96239331807973
31
0.0810358162445674
  0
LINE
  5
F105CB
330
F105CC
100
AcDbEntity
8
Geo
100
AcDbLine
10
-105.754188538682
20
-9.96239331807973
30
0.0810358162445674
11
-105.861414949157
21
-10.0243005150318
31
0.0810358162445674
  0
LINE
  5
F105CD
330
F105CE
100
AcDbEntity
8
Geo
100
AcDbLine
10
-105.861414949157
20
-10.0243005150318
30
0.0810358162445674
11
-105.968641167911
21
-10.0862076012936
31
0.0810358162445674
  0
LINE
  5
F105CF
330
F105D0
100
AcDbEntity
8
Geo
100
AcDbLine
10
-105.968641167911
20
-10.0862076012936
30
0.0810358162445674
11
-106.075867207726
21
-10.1481145842452
31
0.0810358162445674
  0
LINE
  5
F105D1
330
F105D2
100
AcDbEntity
8
Geo
100
AcDbLine
10
-106.075867207726
20
-10.1481145842452
30
0.0810358162445674
11
-106.183093080274
21
-10.2100214706245
31
0.0810358162445674
  0
LINE
  5
F105D3
330
F105D4
100
AcDbEntity
8
Geo
100
AcDbLine
10
-106.183093080274
20
-10.2100214706245
30
0.0810358162445674
11
-106.290318796231
21
-10.2719282665961
31
0.0810358162445674
  0
LINE
  5
F105D5
330
F105D6
100
AcDbEntity
8
Geo
100
AcDbLine
10
-106.290318796231
20
-10.2719282665961
30
0.0810358162445674
11
-106.397544365384
21
-10.3338349778110
31
0.0810358162445674
  0
LINE
  5
F105D7
330
F105D8
100
AcDbEntity
8
Geo
100
AcDbLine
10
-106.397544365384
20
-10.3338349778110
30
0.0810358162445674
11
-106.492741916939
21
-10.3887973098276
31
0.0810358162445674
  0
LINE
  5
F105D9
330
F105DA
100
AcDbEntity
8
Geo
100
AcDbLine
10
-106.492741916939
20
-10.3887973098276
30
0.0810358162445674
11
-106.492741916939
21
-10.3887973098276
31
0.000000000000000
  0
LINE
  5
F105DB
330
F105DC
100
AcDbEntity
8
Geo
100
AcDbLine
10
-106.492741916939
20
-10.3887973098276
30
0.000000000000000
11
-106.423574039250
21
-10.5256005443640
31
0.000000000000000
  0
LINE
  5
F105DD
330
F105DE
100
AcDbEntity
8
Geo
100
AcDbLine
10
-106.423574039250
20
-10.5256005443640
30
0.000000000000000
11
-106.350971721960
21
-10.6606124838643
31
0.000000000000000
  0
LINE
  5
F105DF
330
F105E0
100
AcDbEntity
8
Geo
100
AcDbLine
10
-106.350971721960
20
-10.6606124838643
30
0.000000000000000
11
-106.274981321020
21
-10.7937469243698
31
0.000000000000000
  0
LINE
  5
F105E1
330
F105E2
100
AcDbEntity
8
Geo
100
AcDbLine
10
-106.492741916939
20
-10.3887973098276
30
0.0810358162445674
11
-106.397544365384
21
-10.3338349778110
31
0.0810358162445674
  0
LINE
  5
F105E3
330
F105E4
100
AcDbEntity
8
Geo
100
AcDbLine
10
-106.397544365384
20
-10.3338349778110
30
0.0810358162445674
11
-106.290318796231
21
-10.2719282665961
31
0.0810358162445674
  0
LINE
  5
F105E5
330
F105E6
100
AcDbEntity
8
Geo
100
AcDbLine
10
-106.290318796231
20
-10.2719282665961
30
0.0810358162445674
11
-106.183093080274
21
-10.2100214706245
31
0.0810358162445674
  0
LINE
  5
F105E7
330
F105E8
100
AcDbEntity
8
Geo
100
AcDbLine
10
-106.183093080274
20
-10.2100214706245
30
0.0810358162445674
11
-106.075867207726
21
-10.1481145842452
31
0.0810358162445674
  0
LINE
  5
F105E9
330
F105EA
100
AcDbEntity
8
Geo
100
AcDbLine
10
-106.075867207726
20
-10.1481145842452
30
0.0810358162445674
11
-105.968641167911
21
-10.0862076012936
31
0.0810358162445674
  0
LINE
  5
F105EB
330
F105EC
100
AcDbEntity
8
Geo
100
AcDbLine
10
-105.968641167911
20
-10.0862076012936
30
0.0810358162445674
11
-105.861414949157
21
-10.0243005150318
31
0.0810358162445674
  0
LINE
  5
F105ED
330
F105EE
100
AcDbEntity
8
Geo
100
AcDbLine
10
-105.861414949157
20
-10.0243005150318
30
0.0810358162445674
11
-105.754188538682
21
-9.96239331807973
31
0.0810358162445674
  0
LINE
  5
F105EF
330
F105F0
100
AcDbEntity
8
Geo
100
AcDbLine
10
-105.754188538682
20
-9.96239331807973
30
0.0810358162445674
11
-105.646961922456
21
-9.90048600233753
31
0.0810358162445674
  0
LINE
  5
F105F1
330
F105F2
100
AcDbEntity
8
Geo
100
AcDbLine
10
-105.646961922456
20
-9.90048600233753
30
0.0810358162445674
11
-105.539735085047
21
-9.83857855889516
31
0.0810358162445674
  0
LINE
  5
F105F3
330
F105F4
100
AcDbEntity
8
Geo
100
AcDbLine
10
-105.539735085047
20
-9.83857855889516
30
0.0810358162445674
11
-105.432508009440
21
-9.77667097792864
31
0.0810358162445674
  0
LINE
  5
F105F5
330
F105F6
100
AcDbEntity
8
Geo
100
AcDbLine
10
-105.432508009440
20
-9.77667097792864
30
0.0810358162445674
11
-105.325280676826
21
-9.71476324857977
31
0.0810358162445674
  0
LINE
  5
F105F7
330
F105F8
100
AcDbEntity
8
Geo
100
AcDbLine
10
-105.325280676826
20
-9.71476324857977
30
0.0810358162445674
11
-105.218053066367
21
-9.65285535881636
31
0.0810358162445674
  0
LINE
  5
F105F9
330
F105FA
100
AcDbEntity
8
Geo
100
AcDbLine
10
-105.218053066367
20
-9.65285535881636
30
0.0810358162445674
11
-105.110825154905
21
-9.59094729526911
31
0.0810358162445674
  0
LINE
  5
F105FB
330
F105FC
100
AcDbEntity
8
Geo
100
AcDbLine
10
-105.110825154905
20
-9.59094729526911
30
0.0810358162445674
11
-105.003596916637
21
-9.52903904304062
31
0.0810358162445674
  0
LINE
  5
F105FD
330
F105FE
100
AcDbEntity
8
Geo
100
AcDbLine
10
-105.003596916637
20
-9.52903904304062
30
0.0810358162445674
11
-104.896368322725
21
-9.46713058548056
31
0.0810358162445674
  0
LINE
  5
F105FF
330
F10600
100
AcDbEntity
8
Geo
100
AcDbLine
10
-104.896368322725
20
-9.46713058548056
30
0.0810358162445674
11
-104.789139340832
21
-9.40522190392012
31
0.0810358162445674
  0
LINE
  5
F10601
330
F10602
100
AcDbEntity
8
Geo
100
AcDbLine
10
-104.789139340832
20
-9.40522190392012
30
0.0810358162445674
11
-104.681909934582
21
-9.34331297735645
31
0.0810358162445674
  0
LINE
  5
F10603
330
F10604
100
AcDbEntity
8
Geo
100
AcDbLine
10
-104.681909934582
20
-9.34331297735645
30
0.0810358162445674
11
-104.574680062901
21
-9.28140378207624
31
0.0810358162445674
  0
LINE
  5
F10605
330
F10606
100
AcDbEntity
8
Geo
100
AcDbLine
10
-104.574680062901
20
-9.28140378207624
30
0.0810358162445674
11
-104.467449679239
21
-9.21949429120376
31
0.0810358162445674
  0
LINE
  5
F10607
330
F10608
100
AcDbEntity
8
Geo
100
AcDbLine
10
-104.467449679239
20
-9.21949429120376
30
0.0810358162445674
11
-104.360218730625
21
-9.15758447415560
31
0.0810358162445674
  0
LINE
  5
F10609
330
F1060A
100
AcDbEntity
8
Geo
100
AcDbLine
10
-104.360218730625
20
-9.15758447415560
30
0.0810358162445674
11
-104.252987156516
21
-9.09567429597835
31
0.0810358162445674
  0
LINE
  5
F1060B
330
F1060C
100
AcDbEntity
8
Geo
100
AcDbLine
10
-104.252987156516
20
-9.09567429597835
30
0.0810358162445674
11
-104.145754887401
21
-9.03376371653912
31
0.0810358162445674
  0
LINE
  5
F1060D
330
F1060E
100
AcDbEntity
8
Geo
100
AcDbLine
10
-104.145754887401
20
-9.03376371653912
30
0.0810358162445674
11
-104.038521843071
21
-8.97185268952924
31
0.0810358162445674
  0
LINE
  5
F1060F
330
F10610
100
AcDbEntity
8
Geo
100
AcDbLine
10
-104.038521843071
20
-8.97185268952924
30
0.0810358162445674
11
-103.931287930480
21
-8.90994116122869
31
0.0810358162445674
  0
LINE
  5
F10611
330
F10612
100
AcDbEntity
8
Geo
100
AcDbLine
10
-103.931287930480
20
-8.90994116122869
30
0.0810358162445674
11
-103.824053041071
21
-8.84802906896156
31
0.0810358162445674
  0
LINE
  5
F10613
330
F10614
100
AcDbEntity
8
Geo
100
AcDbLine
10
-103.824053041071
20
-8.84802906896156
30
0.0810358162445674
11
-103.716817047399
21
-8.78611633914840
31
0.0810358162445674
  0
LINE
  5
F10615
330
F10616
100
AcDbEntity
8
Geo
100
AcDbLine
10
-103.716817047399
20
-8.78611633914840
30
0.0810358162445674
11
-103.609579798843
21
-8.72420288482716
31
0.0810358162445674
  0
LINE
  5
F10617
330
F10618
100
AcDbEntity
8
Geo
100
AcDbLine
10
-103.609579798843
20
-8.72420288482716
30
0.0810358162445674
11
-103.502341116078
21
-8.66228860246549
31
0.0810358162445674
  0
LINE
  5
F10619
330
F1061A
100
AcDbEntity
8
Geo
100
AcDbLine
10
-103.502341116078
20
-8.66228860246549
30
0.0810358162445674
11
-103.395100783903
21
-8.60037336781616
31
0.0810358162445674
  0
LINE
  5
F1061B
330
F1061C
100
AcDbEntity
8
Geo
100
AcDbLine
10
-103.395100783903
20
-8.60037336781616
30
0.0810358162445674
11
-103.287858541789
21
-8.53845703046293
31
0.0810358162445674
  0
LINE
  5
F1061D
330
F1061E
100
AcDbEntity
8
Geo
100
AcDbLine
10
-103.287858541789
20
-8.53845703046293
30
0.0810358162445674
11
-103.180614071283
21
-8.47653940654714
31
0.0810358162445674
  0
LINE
  5
F1061F
330
F10620
100
AcDbEntity
8
Geo
100
AcDbLine
10
-103.180614071283
20
-8.47653940654714
30
0.0810358162445674
11
-103.073366978961
21
-8.41462026892537
31
0.0810358162445674
  0
LINE
  5
F10621
330
F10622
100
AcDbEntity
8
Geo
100
AcDbLine
10
-103.073366978961
20
-8.41462026892537
30
0.0810358162445674
11
-102.966116772982
21
-8.35269933363306
31
0.0810358162445674
  0
LINE
  5
F10623
330
F10624
100
AcDbEntity
8
Geo
100
AcDbLine
10
-102.966116772982
20
-8.35269933363306
30
0.0810358162445674
11
-102.867618543585
21
-8.29583135437598
31
0.0810358162445674
  0
LINE
  5
F10625
330
F10626
100
AcDbEntity
8
Geo
100
AcDbLine
10
-102.867618543585
20
-8.29583135437598
30
0.0810358162445674
11
-103.158141855946
21
-7.95720206524491
31
0.240645216463212
  0
LINE
  5
F10627
330
F10628
100
AcDbEntity
8
Geo
100
AcDbLine
10
-103.158141855946
20
-7.95720206524491
30
0.240645216463212
11
-103.185378384499
21
-7.97292708233669
31
0.240645216463212
  0
LINE
  5
F10629
330
F1062A
100
AcDbEntity
8
Geo
100
AcDbLine
10
-103.185378384499
20
-7.97292708233669
30
0.240645216463212
11
-103.292628590477
21
-8.03484801762899
31
0.240645216463212
  0
LINE
  5
F1062B
330
F1062C
100
AcDbEntity
8
Geo
100
AcDbLine
10
-103.292628590477
20
-8.03484801762899
30
0.240645216463212
11
-103.399875682799
21
-8.09676715525077
31
0.240645216463212
  0
LINE
  5
F1062D
330
F1062E
100
AcDbEntity
8
Geo
100
AcDbLine
10
-103.399875682799
20
-8.09676715525077
30
0.240645216463212
11
-103.507120153305
21
-8.15868477916655
31
0.240645216463212
  0
LINE
  5
F1062F
330
F10630
100
AcDbEntity
8
Geo
100
AcDbLine
10
-103.507120153305
20
-8.15868477916655
30
0.240645216463212
11
-103.614362395420
21
-8.22060111651979
31
0.240645216463212
  0
LINE
  5
F10631
330
F10632
100
AcDbEntity
8
Geo
100
AcDbLine
10
-103.614362395420
20
-8.22060111651979
30
0.240645216463212
11
-103.721602727595
21
-8.28251635116912
31
0.240645216463212
  0
LINE
  5
F10633
330
F10634
100
AcDbEntity
8
Geo
100
AcDbLine
10
-103.721602727595
20
-8.28251635116912
30
0.240645216463212
11
-103.828841410359
21
-8.34443063353079
31
0.240645216463212
  0
LINE
  5
F10635
330
F10636
100
AcDbEntity
8
Geo
100
AcDbLine
10
-103.828841410359
20
-8.34443063353079
30
0.240645216463212
11
-103.936078658916
21
-8.40634408785203
31
0.240645216463212
  0
LINE
  5
F10637
330
F10638
100
AcDbEntity
8
Geo
100
AcDbLine
10
-103.936078658916
20
-8.40634408785203
30
0.240645216463212
11
-104.043314652588
21
-8.46825681766518
31
0.240645216463212
  0
LINE
  5
F10639
330
F1063A
100
AcDbEntity
8
Geo
100
AcDbLine
10
-104.043314652588
20
-8.46825681766518
30
0.240645216463212
11
-104.150549541997
21
-8.53016890993232
31
0.240645216463212
  0
LINE
  5
F1063B
330
F1063C
100
AcDbEntity
8
Geo
100
AcDbLine
10
-104.150549541997
20
-8.53016890993232
30
0.240645216463212
11
-104.257783454588
21
-8.59208043823286
31
0.240645216463212
  0
LINE
  5
F1063D
330
F1063E
100
AcDbEntity
8
Geo
100
AcDbLine
10
-104.257783454588
20
-8.59208043823286
30
0.240645216463212
11
-104.365016498918
21
-8.65399146524274
31
0.240645216463212
  0
LINE
  5
F1063F
330
F10640
100
AcDbEntity
8
Geo
100
AcDbLine
10
-104.365016498918
20
-8.65399146524274
30
0.240645216463212
11
-104.472248768033
21
-8.71590204468197
31
0.240645216463212
  0
LINE
  5
F10641
330
F10642
100
AcDbEntity
8
Geo
100
AcDbLine
10
-104.472248768033
20
-8.71590204468197
30
0.240645216463212
11
-104.579480342141
21
-8.77781222285923
31
0.240645216463212
  0
LINE
  5
F10643
330
F10644
100
AcDbEntity
8
Geo
100
AcDbLine
10
-104.579480342141
20
-8.77781222285923
30
0.240645216463212
11
-104.686711290756
21
-8.83972203990739
31
0.240645216463212
  0
LINE
  5
F10645
330
F10646
100
AcDbEntity
8
Geo
100
AcDbLine
10
-104.686711290756
20
-8.83972203990739
30
0.240645216463212
11
-104.793941674418
21
-8.90163153077986
31
0.240645216463212
  0
LINE
  5
F10647
330
F10648
100
AcDbEntity
8
Geo
100
AcDbLine
10
-104.793941674418
20
-8.90163153077986
30
0.240645216463212
11
-104.901171546099
21
-8.96354072606008
31
0.240645216463212
  0
LINE
  5
F10649
330
F1064A
100
AcDbEntity
8
Geo
100
AcDbLine
10
-104.901171546099
20
-8.96354072606008
30
0.240645216463212
11
-105.008400952349
21
-9.02544965262374
31
0.240645216463212
  0
LINE
  5
F1064B
330
F1064C
100
AcDbEntity
8
Geo
100
AcDbLine
10
-105.008400952349
20
-9.02544965262374
30
0.240645216463212
11
-105.115629934241
21
-9.08735833418419
31
0.240645216463212
  0
LINE
  5
F1064D
330
F1064E
100
AcDbEntity
8
Geo
100
AcDbLine
10
-105.115629934241
20
-9.08735833418419
30
0.240645216463212
11
-105.222858528154
21
-9.14926679174424
31
0.240645216463212
  0
LINE
  5
F1064F
330
F10650
100
AcDbEntity
8
Geo
100
AcDbLine
10
-105.222858528154
20
-9.14926679174424
30
0.240645216463212
11
-105.330086766421
21
-9.21117504397274
31
0.240645216463212
  0
LINE
  5
F10651
330
F10652
100
AcDbEntity
8
Geo
100
AcDbLine
10
-105.330086766421
20
-9.21117504397274
30
0.240645216463212
11
-105.437314677883
21
-9.27308310751998
31
0.240645216463212
  0
LINE
  5
F10653
330
F10654
100
AcDbEntity
8
Geo
100
AcDbLine
10
-105.437314677883
20
-9.27308310751998
30
0.240645216463212
11
-105.544542288343
21
-9.33499099728339
31
0.240645216463212
  0
LINE
  5
F10655
330
F10656
100
AcDbEntity
8
Geo
100
AcDbLine
10
-105.544542288343
20
-9.33499099728339
30
0.240645216463212
11
-105.651769620956
21
-9.39689872663227
31
0.240645216463212
  0
LINE
  5
F10657
330
F10658
100
AcDbEntity
8
Geo
100
AcDbLine
10
-105.651769620956
20
-9.39689872663227
30
0.240645216463212
11
-105.758996696564
21
-9.45880630759878
31
0.240645216463212
  0
LINE
  5
F10659
330
F1065A
100
AcDbEntity
8
Geo
100
AcDbLine
10
-105.758996696564
20
-9.45880630759878
30
0.240645216463212
11
-105.866223533973
21
-9.52071375104116
31
0.240645216463212
  0
LINE
  5
F1065B
330
F1065C
100
AcDbEntity
8
Geo
100
AcDbLine
10
-105.866223533973
20
-9.52071375104116
30
0.240645216463212
11
-105.973450150199
21
-9.58262106678336
31
0.240645216463212
  0
LINE
  5
F1065D
330
F1065E
100
AcDbEntity
8
Geo
100
AcDbLine
10
-105.973450150199
20
-9.58262106678336
30
0.240645216463212
11
-106.080676560674
21
-9.64452826373541
31
0.240645216463212
  0
LINE
  5
F1065F
330
F10660
100
AcDbEntity
8
Geo
100
AcDbLine
10
-106.080676560674
20
-9.64452826373541
30
0.240645216463212
11
-106.187902779428
21
-9.70643534999726
31
0.240645216463212
  0
LINE
  5
F10661
330
F10662
100
AcDbEntity
8
Geo
100
AcDbLine
10
-106.187902779428
20
-9.70643534999726
30
0.240645216463212
11
-106.295128819243
21
-9.76834233294879
31
0.240645216463212
  0
LINE
  5
F10663
330
F10664
100
AcDbEntity
8
Geo
100
AcDbLine
10
-106.295128819243
20
-9.76834233294879
30
0.240645216463212
11
-106.402354691791
21
-9.83024921932810
31
0.240645216463212
  0
LINE
  5
F10665
330
F10666
100
AcDbEntity
8
Geo
100
AcDbLine
10
-106.402354691791
20
-9.83024921932810
30
0.240645216463212
11
-106.509580407747
21
-9.89215601529978
31
0.240645216463212
  0
LINE
  5
F10667
330
F10668
100
AcDbEntity
8
Geo
100
AcDbLine
10
-106.509580407747
20
-9.89215601529978
30
0.240645216463212
11
-106.616805976901
21
-9.95406272651466
31
0.240645216463212
  0
LINE
  5
F10669
330
F1066A
100
AcDbEntity
8
Geo
100
AcDbLine
10
-106.616805976901
20
-9.95406272651466
30
0.240645216463212
11
-106.672186469514
21
-9.98603666883277
31
0.240645216463212
  0
LINE
  5
F1066B
330
F1066C
100
AcDbEntity
8
Geo
100
AcDbLine
10
-106.672186469514
20
-9.98603666883277
30
0.240645216463212
11
-106.672186469514
21
-9.98603666883277
31
0.000000000000000
  0
LINE
  5
F1066D
330
F1066E
100
AcDbEntity
8
Geo
100
AcDbLine
10
-106.672186469514
20
-9.98603666883277
30
0.000000000000000
11
-106.615631035138
21
-10.1217266555175
31
0.000000000000000
  0
LINE
  5
F1066F
330
F10670
100
AcDbEntity
8
Geo
100
AcDbLine
10
-106.615631035138
20
-10.1217266555175
30
0.000000000000000
11
-106.555804474922
21
-10.2560064839973
31
0.000000000000000
  0
LINE
  5
F10671
330
F10672
100
AcDbEntity
8
Geo
100
AcDbLine
10
-106.555804474922
20
-10.2560064839973
30
0.000000000000000
11
-106.492741916939
21
-10.3887973098276
31
0.000000000000000
  0
LINE
  5
F10673
330
F10674
100
AcDbEntity
8
Geo
100
AcDbLine
10
-101.091249314151
20
-1.65360164027854
30
0.000000000000000
11
-101.091249314151
21
-2.08462215044384
31
0.000000000000000
  0
LINE
  5
F10675
330
F10676
100
AcDbEntity
8
Geo
100
AcDbLine
10
-101.091249314151
20
-2.08462215044384
30
0.000000000000000
11
-101.091249314151
21
-2.51582215044384
31
0.000000000000000
  0
LINE
  5
F10677
330
F10678
100
AcDbEntity
8
Geo
100
AcDbLine
10
-101.091249314151
20
-2.51582215044384
30
0.000000000000000
11
-101.091249314151
21
-2.94702215044384
31
0.000000000000000
  0
LINE
  5
F10679
330
F1067A
100
AcDbEntity
8
Geo
100
AcDbLine
10
-101.091249314151
20
-2.94702215044384
30
0.000000000000000
11
-101.091249314151
21
-3.37822215044384
31
0.000000000000000
  0
LINE
  5
F1067B
330
F1067C
100
AcDbEntity
8
Geo
100
AcDbLine
10
-101.091249314151
20
-3.37822215044384
30
0.000000000000000
11
-101.091249314151
21
-3.80942215044384
31
0.000000000000000
  0
LINE
  5
F1067D
330
F1067E
100
AcDbEntity
8
Geo
100
AcDbLine
10
-101.091249314151
20
-3.80942215044384
30
0.000000000000000
11
-101.091249314151
21
-4.24062215044384
31
0.000000000000000
  0
LINE
  5
F1067F
330
F10680
100
AcDbEntity
8
Geo
100
AcDbLine
10
-101.091249314151
20
-4.24062215044384
30
0.000000000000000
11
-101.091249314151
21
-4.67182215044384
31
0.000000000000000
  0
LINE
  5
F10681
330
F10682
100
AcDbEntity
8
Geo
100
AcDbLine
10
-101.091249314151
20
-4.67182215044384
30
0.000000000000000
11
-101.091249314151
21
-5.10302215044384
31
0.000000000000000
  0
LINE
  5
F10683
330
F10684
100
AcDbEntity
8
Geo
100
AcDbLine
10
-101.091249314151
20
-5.10302215044384
30
0.000000000000000
11
-101.091249314151
21
-5.53422215044384
31
0.000000000000000
  0
LINE
  5
F10685
330
F10686
100
AcDbEntity
8
Geo
100
AcDbLine
10
-101.091249314151
20
-5.53422215044384
30
0.000000000000000
11
-101.091249314151
21
-5.96542215044384
31
0.000000000000000
  0
LINE
  5
F10687
330
F10688
100
AcDbEntity
8
Geo
100
AcDbLine
10
-101.091249314151
20
-5.96542215044384
30
0.000000000000000
11
-101.091467790503
21
-5.97816816491327
31
0.000000000000000
  0
LINE
  5
F10689
330
F1068A
100
AcDbEntity
8
Geo
100
AcDbLine
10
-101.091467790503
20
-5.97816816491327
30
0.000000000000000
11
-101.092122964825
21
-5.99089931809999
31
0.000000000000000
  0
LINE
  5
F1068B
330
F1068C
100
AcDbEntity
8
Geo
100
AcDbLine
10
-101.092122964825
20
-5.99089931809999
30
0.000000000000000
11
-101.093214073213
21
-6.00360076604886
31
0.000000000000000
  0
LINE
  5
F1068D
330
F1068E
100
AcDbEntity
8
Geo
100
AcDbLine
10
-101.093214073213
20
-6.00360076604886
30
0.000000000000000
11
-101.094739843482
21
-6.01625769943977
31
0.000000000000000
  0
LINE
  5
F1068F
330
F10690
100
AcDbEntity
8
Geo
100
AcDbLine
10
-101.094739843482
20
-6.01625769943977
30
0.000000000000000
11
-101.096698496655
21
-6.02885536085455
31
0.000000000000000
  0
LINE
  5
F10691
330
F10692
100
AcDbEntity
8
Geo
100
AcDbLine
10
-101.096698496655
20
-6.02885536085455
30
0.000000000000000
11
-101.099087749028
21
-6.04137906198349
31
0.000000000000000
  0
LINE
  5
F10693
330
F10694
100
AcDbEntity
8
Geo
100
AcDbLine
10
-101.099087749028
20
-6.04137906198349
30
0.000000000000000
11
-101.101904814840
21
-6.05381420075132
31
0.000000000000000
  0
LINE
  5
F10695
330
F10696
100
AcDbEntity
8
Geo
100
AcDbLine
10
-101.101904814840
20
-6.05381420075132
30
0.000000000000000
11
-101.105146409518
21
-6.06614627834246
31
0.000000000000000
  0
LINE
  5
F10697
330
F10698
100
AcDbEntity
8
Geo
100
AcDbLine
10
-101.105146409518
20
-6.06614627834246
30
0.000000000000000
11
-101.108808753509
21
-6.07836091610611
31
0.000000000000000
  0
LINE
  5
F10699
330
F1069A
100
AcDbEntity
8
Geo
100
AcDbLine
10
-101.108808753509
20
-6.07836091610611
30
0.000000000000000
11
-101.112887576682
21
-6.09044387232101
31
0.000000000000000
  0
LINE
  5
F1069B
330
F1069C
100
AcDbEntity
8
Geo
100
AcDbLine
10
-101.112887576682
20
-6.09044387232101
30
0.000000000000000
11
-101.117378123313
21
-6.10238105880071
31
0.000000000000000
  0
LINE
  5
F1069D
330
F1069E
100
AcDbEntity
8
Geo
100
AcDbLine
10
-101.117378123313
20
-6.10238105880071
30
0.000000000000000
11
-101.122275157624
21
-6.11415855731977
31
0.000000000000000
  0
LINE
  5
F1069F
330
F106A0
100
AcDbEntity
8
Geo
100
AcDbLine
10
-101.122275157624
20
-6.11415855731977
30
0.000000000000000
11
-101.127572969893
21
-6.12576263584174
31
0.000000000000000
  0
LINE
  5
F106A1
330
F106A2
100
AcDbEntity
8
Geo
100
AcDbLine
10
-101.127572969893
20
-6.12576263584174
30
0.000000000000000
11
-101.133265383109
21
-6.13717976453014
31
0.000000000000000
  0
LINE
  5
F106A3
330
F106A4
100
AcDbEntity
8
Geo
100
AcDbLine
10
-101.133265383109
20
-6.13717976453014
30
0.000000000000000
11
-101.139345760170
21
-6.14839663152364
31
0.000000000000000
  0
LINE
  5
F106A5
330
F106A6
100
AcDbEntity
8
Geo
100
AcDbLine
10
-101.139345760170
20
-6.14839663152364
30
0.000000000000000
11
-101.145807011631
21
-6.15940015845707
31
0.000000000000000
  0
LINE
  5
F106A7
330
F106A8
100
AcDbEntity
8
Geo
100
AcDbLine
10
-101.145807011631
20
-6.15940015845707
30
0.000000000000000
11
-101.152641603961
21
-6.17017751571026
31
0.000000000000000
  0
LINE
  5
F106A9
330
F106AA
100
AcDbEntity
8
Geo
100
AcDbLine
10
-101.152641603961
20
-6.17017751571026
30
0.000000000000000
11
-101.159841568330
21
-6.18071613736673
31
0.000000000000000
  0
LINE
  5
F106AB
330
F106AC
100
AcDbEntity
8
Geo
100
AcDbLine
10
-101.159841568330
20
-6.18071613736673
30
0.000000000000000
11
-101.167398509903
21
-6.19100373586505
31
0.000000000000000
  0
LINE
  5
F106AD
330
F106AE
100
AcDbEntity
8
Geo
100
AcDbLine
10
-101.167398509903
20
-6.19100373586505
30
0.000000000000000
11
-101.175303617623
21
-6.20102831632557
31
0.000000000000000
  0
LINE
  5
F106AF
330
F106B0
100
AcDbEntity
8
Geo
100
AcDbLine
10
-101.175303617623
20
-6.20102831632557
30
0.000000000000000
11
-101.183547674489
21
-6.21077819053589
31
0.000000000000000
  0
LINE
  5
F106B1
330
F106B2
100
AcDbEntity
8
Geo
100
AcDbLine
10
-101.183547674489
20
-6.21077819053589
30
0.000000000000000
11
-101.192121068300
21
-6.22024199057880
31
0.000000000000000
  0
LINE
  5
F106B3
330
F106B4
100
AcDbEntity
8
Geo
100
AcDbLine
10
-101.192121068300
20
-6.22024199057880
30
0.000000000000000
11
-101.201013802860
21
-6.22940868208682
31
0.000000000000000
  0
LINE
  5
F106B5
330
F106B6
100
AcDbEntity
8
Geo
100
AcDbLine
10
-101.201013802860
20
-6.22940868208682
30
0.000000000000000
11
-101.210215509641
21
-6.23826757710767
31
0.000000000000000
  0
LINE
  5
F106B7
330
F106B8
100
AcDbEntity
8
Geo
100
AcDbLine
10
-101.210215509641
20
-6.23826757710767
30
0.000000000000000
11
-101.219715459862
21
-6.24680834656605
31
0.000000000000000
  0
LINE
  5
F106B9
330
F106BA
100
AcDbEntity
8
Geo
100
AcDbLine
10
-101.219715459862
20
-6.24680834656605
30
0.000000000000000
11
-101.229502577008
21
-6.25502103230683
31
0.000000000000000
  0
LINE
  5
F106BB
330
F106BC
100
AcDbEntity
8
Geo
100
AcDbLine
10
-101.229502577008
20
-6.25502103230683
30
0.000000000000000
11
-101.239565449737
21
-6.26289605870578
31
0.000000000000000
  0
LINE
  5
F106BD
330
F106BE
100
AcDbEntity
8
Geo
100
AcDbLine
10
-101.239565449737
20
-6.26289605870578
30
0.000000000000000
11
-101.249892345191
21
-6.27042424383441
31
0.000000000000000
  0
LINE
  5
F106BF
330
F106C0
100
AcDbEntity
8
Geo
100
AcDbLine
10
-101.249892345191
20
-6.27042424383441
30
0.000000000000000
11
-101.260471222670
21
-6.27759681016560
31
0.000000000000000
  0
LINE
  5
F106C1
330
F106C2
100
AcDbEntity
8
Geo
100
AcDbLine
10
-101.260471222670
20
-6.27759681016560
30
0.000000000000000
11
-101.271289747677
21
-6.28440539480787
31
0.000000000000000
  0
LINE
  5
F106C3
330
F106C4
100
AcDbEntity
8
Geo
100
AcDbLine
10
-101.271289747677
20
-6.28440539480787
30
0.000000000000000
11
-101.282335306296
21
-6.29084205925607
31
0.000000000000000
  0
LINE
  5
F106C5
330
F106C6
100
AcDbEntity
8
Geo
100
AcDbLine
10
-101.282335306296
20
-6.29084205925607
30
0.000000000000000
11
-101.293595019899
21
-6.29689929864739
31
0.000000000000000
  0
LINE
  5
F106C7
330
F106C8
100
AcDbEntity
8
Geo
100
AcDbLine
10
-101.293595019899
20
-6.29689929864739
30
0.000000000000000
11
-101.305055760164
21
-6.30257005051166
31
0.000000000000000
  0
LINE
  5
F106C9
330
F106CA
100
AcDbEntity
8
Geo
100
AcDbLine
10
-101.305055760164
20
-6.30257005051166
30
0.000000000000000
11
-101.316704164381
21
-6.30784770300588
31
0.000000000000000
  0
LINE
  5
F106CB
330
F106CC
100
AcDbEntity
8
Geo
100
AcDbLine
10
-101.316704164381
20
-6.30784770300588
30
0.000000000000000
11
-101.328526651031
21
-6.31272610262330
31
0.000000000000000
  0
LINE
  5
F106CD
330
F106CE
100
AcDbEntity
8
Geo
100
AcDbLine
10
-101.328526651031
20
-6.31272610262330
30
0.000000000000000
11
-101.340509435624
21
-6.31719956136820
31
0.000000000000000
  0
LINE
  5
F106CF
330
F106D0
100
AcDbEntity
8
Geo
100
AcDbLine
10
-101.340509435624
20
-6.31719956136820
30
0.000000000000000
11
-101.352638546768
21
-6.32126286338779
31
0.000000000000000
  0
LINE
  5
F106D1
330
F106D2
100
AcDbEntity
8
Geo
100
AcDbLine
10
-101.352638546768
20
-6.32126286338779
30
0.000000000000000
11
-101.364899842464
21
-6.32491127105369
31
0.000000000000000
  0
LINE
  5
F106D3
330
F106D4
100
AcDbEntity
8
Geo
100
AcDbLine
10
-101.364899842464
20
-6.32491127105369
30
0.000000000000000
11
-101.377279026588
21
-6.32814053048574
31
0.000000000000000
  0
LINE
  5
F106D5
330
F106D6
100
AcDbEntity
8
Geo
100
AcDbLine
10
-101.377279026588
20
-6.32814053048574
30
0.000000000000000
11
-101.389761665566
21
-6.33094687651191
31
0.000000000000000
  0
LINE
  5
F106D7
330
F106D8
100
AcDbEntity
8
Geo
100
AcDbLine
10
-101.389761665566
20
-6.33094687651191
30
0.000000000000000
11
-101.402333205198
21
-6.33332703705826
31
0.000000000000000
  0
LINE
  5
F106D9
330
F106DA
100
AcDbEntity
8
Geo
100
AcDbLine
10
-101.402333205198
20
-6.33332703705826
30
0.000000000000000
11
-101.414978987633
21
-6.33527823696407
31
0.000000000000000
  0
LINE
  5
F106DB
330
F106DC
100
AcDbEntity
8
Geo
100
AcDbLine
10
-101.414978987633
20
-6.33527823696407
30
0.000000000000000
11
-101.427684268453
21
-6.33679820121753
31
0.000000000000000
  0
LINE
  5
F106DD
330
F106DE
100
AcDbEntity
8
Geo
100
AcDbLine
10
-101.427684268453
20
-6.33679820121753
30
0.000000000000000
11
-101.440434233870
21
-6.33788515760831
31
0.000000000000000
  0
LINE
  5
F106DF
330
F106E0
100
AcDbEntity
8
Geo
100
AcDbLine
10
-101.440434233870
20
-6.33788515760831
30
0.000000000000000
11
-101.453214017994
21
-6.33853783879388
31
0.000000000000000
  0
LINE
  5
F106E1
330
F106E2
100
AcDbEntity
8
Geo
100
AcDbLine
10
-101.453214017994
20
-6.33853783879388
30
0.000000000000000
11
-101.466008720168
21
-6.33875548377717
31
0.000000000000000
  0
LINE
  5
F106E3
330
F106E4
100
AcDbEntity
8
Geo
100
AcDbLine
10
-101.466008720168
20
-6.33875548377717
30
0.000000000000000
11
-101.700233348928
21
-6.33875548377717
31
0.000000000000000
  0
LINE
  5
F106E5
330
F106E6
100
AcDbEntity
8
Geo
100
AcDbLine
10
-101.700233348928
20
-6.33875548377717
30
0.000000000000000
11
-101.713078803876
21
-6.33853610819501
31
0.000000000000000
  0
LINE
  5
F106E7
330
F106E8
100
AcDbEntity
8
Geo
100
AcDbLine
10
-101.713078803876
20
-6.33853610819501
30
0.000000000000000
11
-101.725909162506
21
-6.33787823926444
31
0.000000000000000
  0
LINE
  5
F106E9
330
F106EA
100
AcDbEntity
8
Geo
100
AcDbLine
10
-101.725909162506
20
-6.33787823926444
30
0.000000000000000
11
-101.738709346245
21
-6.33678265013039
31
0.000000000000000
  0
LINE
  5
F106EB
330
F106EC
100
AcDbEntity
8
Geo
100
AcDbLine
10
-101.738709346245
20
-6.33678265013039
30
0.000000000000000
11
-101.751464311978
21
-6.33525062835805
31
0.000000000000000
  0
LINE
  5
F106ED
330
F106EE
100
AcDbEntity
8
Geo
100
AcDbLine
10
-101.751464311978
20
-6.33525062835805
30
0.000000000000000
11
-101.764159069735
21
-6.33328397441973
31
0.000000000000000
  0
LINE
  5
F106EF
330
F106F0
100
AcDbEntity
8
Geo
100
AcDbLine
10
-101.764159069735
20
-6.33328397441973
30
0.000000000000000
11
-101.776778700301
21
-6.33088499957896
31
0.000000000000000
  0
LINE
  5
F106F1
330
F106F2
100
AcDbEntity
8
Geo
100
AcDbLine
10
-101.776778700301
20
-6.33088499957896
30
0.000000000000000
11
-101.789308372754
21
-6.32805652317412
31
0.000000000000000
  0
LINE
  5
F106F3
330
F106F4
100
AcDbEntity
8
Geo
100
AcDbLine
10
-101.789308372754
20
-6.32805652317412
30
0.000000000000000
11
-101.801733361894
21
-6.32480186930518
31
0.000000000000000
  0
LINE
  5
F106F5
330
F106F6
100
AcDbEntity
8
Geo
100
AcDbLine
10
-101.801733361894
20
-6.32480186930518
30
0.000000000000000
11
-101.814039065546
21
-6.32112486292706
31
0.000000000000000
  0
LINE
  5
F106F7
330
F106F8
100
AcDbEntity
8
Geo
100
AcDbLine
10
-101.814039065546
20
-6.32112486292706
30
0.000000000000000
11
-101.826211021723
21
-6.31702982535448
31
0.000000000000000
  0
LINE
  5
F106F9
330
F106FA
100
AcDbEntity
8
Geo
100
AcDbLine
10
-101.826211021723
20
-6.31702982535448
30
0.000000000000000
11
-101.838234925621
21
-6.31252156918343
31
0.000000000000000
  0
LINE
  5
F106FB
330
F106FC
100
AcDbEntity
8
Geo
100
AcDbLine
10
-101.838234925621
20
-6.31252156918343
30
0.000000000000000
11
-101.850096646432
21
-6.30760539263530
31
0.000000000000000
  0
LINE
  5
F106FD
330
F106FE
100
AcDbEntity
8
Geo
100
AcDbLine
10
-101.850096646432
20
-6.30760539263530
30
0.000000000000000
11
-101.861782243950
21
-6.30228707333020
31
0.000000000000000
  0
LINE
  5
F106FF
330
F10700
100
AcDbEntity
8
Geo
100
AcDbLine
10
-101.861782243950
20
-6.30228707333020
30
0.000000000000000
11
-101.873277984953
21
-6.29657286149704
31
0.000000000000000
  0
LINE
  5
F10701
330
F10702
100
AcDbEntity
8
Geo
100
AcDbLine
10
-101.873277984953
20
-6.29657286149704
30
0.000000000000000
11
-101.884570359342
21
-6.29046947262804
31
0.000000000000000
  0
LINE
  5
F10703
330
F10704
100
AcDbEntity
8
Geo
100
AcDbLine
10
-101.884570359342
20
-6.29046947262804
30
0.000000000000000
11
-101.895646096022
21
-6.28398407958651
31
0.000000000000000
  0
LINE
  5
F10705
330
F10706
100
AcDbEntity
8
Geo
100
AcDbLine
10
-101.895646096022
20
-6.28398407958651
30
0.000000000000000
11
-101.906492178496
21
-6.27712430417714
31
0.000000000000000
  0
LINE
  5
F10707
330
F10708
100
AcDbEntity
8
Geo
100
AcDbLine
10
-101.906492178496
20
-6.27712430417714
30
0.000000000000000
11
-101.917095860163
21
-6.26989820818863
31
0.000000000000000
  0
LINE
  5
F10709
330
F1070A
100
AcDbEntity
8
Geo
100
AcDbLine
10
-101.917095860163
20
-6.26989820818863
30
0.000000000000000
11
-101.927444679295
21
-6.26231428391927
31
0.000000000000000
  0
LINE
  5
F1070B
330
F1070C
100
AcDbEntity
8
Geo
100
AcDbLine
10
-101.927444679295
20
-6.26231428391927
30
0.000000000000000
11
-101.937526473689
21
-6.25438144419657
31
0.000000000000000
  0
LINE
  5
F1070D
330
F1070E
100
AcDbEntity
8
Geo
100
AcDbLine
10
-101.937526473689
20
-6.25438144419657
30
0.000000000000000
11
-101.947329394954
21
-6.24610901190266
31
0.000000000000000
  0
LINE
  5
F1070F
330
F10710
100
AcDbEntity
8
Geo
100
AcDbLine
10
-101.947329394954
20
-6.24610901190266
30
0.000000000000000
11
-101.956841922439
21
-6.23750670901782
31
0.000000000000000
  0
LINE
  5
F10711
330
F10712
100
AcDbEntity
8
Geo
100
AcDbLine
10
-101.956841922439
20
-6.23750670901782
30
0.000000000000000
11
-101.966052876771
21
-6.22858464519492
31
0.000000000000000
  0
LINE
  5
F10713
330
F10714
100
AcDbEntity
8
Geo
100
AcDbLine
10
-101.966052876771
20
-6.22858464519492
30
0.000000000000000
11
-101.974951432994
21
-6.21935330587832
31
0.000000000000000
  0
LINE
  5
F10715
330
F10716
100
AcDbEntity
8
Geo
100
AcDbLine
10
-101.974951432994
20
-6.21935330587832
30
0.000000000000000
11
-101.983527133290
21
-6.20982353998106
31
0.000000000000000
  0
LINE
  5
F10717
330
F10718
100
AcDbEntity
8
Geo
100
AcDbLine
10
-101.983527133290
20
-6.20982353998106
30
0.000000000000000
11
-101.991769899271
21
-6.20000654713498
31
0.000000000000000
  0
LINE
  5
F10719
330
F1071A
100
AcDbEntity
8
Geo
100
AcDbLine
10
-101.991769899271
20
-6.20000654713498
30
0.000000000000000
11
-101.999670043821
21
-6.18991386452858
31
0.000000000000000
  0
LINE
  5
F1071B
330
F1071C
100
AcDbEntity
8
Geo
100
AcDbLine
10
-101.999670043821
20
-6.18991386452858
30
0.000000000000000
11
-102.007218282482
21
-6.17955735334823
31
0.000000000000000
  0
LINE
  5
F1071D
330
F1071E
100
AcDbEntity
8
Geo
100
AcDbLine
10
-102.007218282482
20
-6.17955735334823
30
0.000000000000000
11
-102.269192451829
21
-5.80684317319674
31
0.000000000000000
  0
LINE
  5
F1071F
330
F10720
100
AcDbEntity
8
Geo
100
AcDbLine
10
-102.269192451829
20
-5.80684317319674
30
0.000000000000000
11
-102.531166621175
21
-5.43412899304525
31
0.000000000000000
  0
LINE
  5
F10721
330
F10722
100
AcDbEntity
8
Geo
100
AcDbLine
10
-102.531166621175
20
-5.43412899304525
30
0.000000000000000
11
-102.793140790521
21
-5.06141481289376
31
0.000000000000000
  0
LINE
  5
F10723
330
F10724
100
AcDbEntity
8
Geo
100
AcDbLine
10
-102.793140790521
20
-5.06141481289376
30
0.000000000000000
11
-103.055114959867
21
-4.68870063274226
31
0.000000000000000
  0
LINE
  5
F10725
330
F10726
100
AcDbEntity
8
Geo
100
AcDbLine
10
-103.055114959867
20
-4.68870063274226
30
0.000000000000000
11
-103.317089129214
21
-4.31598645259077
31
0.000000000000000
  0
LINE
  5
F10727
330
F10728
100
AcDbEntity
8
Geo
100
AcDbLine
10
-103.317089129214
20
-4.31598645259077
30
0.000000000000000
11
-103.579063298560
21
-3.94327227243929
31
0.000000000000000
  0
LINE
  5
F10729
330
F1072A
100
AcDbEntity
8
Geo
100
AcDbLine
10
-103.579063298560
20
-3.94327227243929
30
0.000000000000000
11
-103.841037467906
21
-3.57055809228779
31
0.000000000000000
  0
LINE
  5
F1072B
330
F1072C
100
AcDbEntity
8
Geo
100
AcDbLine
10
-103.841037467906
20
-3.57055809228779
30
0.000000000000000
11
-104.103011637252
21
-3.19784391213630
31
0.000000000000000
  0
LINE
  5
F1072D
330
F1072E
100
AcDbEntity
8
Geo
100
AcDbLine
10
-104.103011637252
20
-3.19784391213630
30
0.000000000000000
11
-104.364985806599
21
-2.82512973198481
31
0.000000000000000
  0
LINE
  5
F1072F
330
F10730
100
AcDbEntity
8
Geo
100
AcDbLine
10
-104.364985806599
20
-2.82512973198481
30
0.000000000000000
11
-104.452286599600
21
-2.70092571763029
31
0.000000000000000
  0
LINE
  5
F10731
330
F10732
100
AcDbEntity
8
Geo
100
AcDbLine
10
-104.452286599600
20
-2.70092571763029
30
0.000000000000000
11
-104.276450052637
21
-2.58594063849697
31
0.000000000000000
  0
LINE
  5
F10733
330
F10734
100
AcDbEntity
8
Geo
100
AcDbLine
10
-104.276450052637
20
-2.58594063849697
30
0.000000000000000
11
-104.096737484115
21
-2.47711301155145
31
0.000000000000000
  0
LINE
  5
F10735
330
F10736
100
AcDbEntity
8
Geo
100
AcDbLine
10
-104.096737484115
20
-2.47711301155145
30
0.000000000000000
11
-103.913364425709
21
-2.37457335521396
31
0.000000000000000
  0
LINE
  5
F10737
330
F10738
100
AcDbEntity
8
Geo
100
AcDbLine
10
-103.913364425709
20
-2.37457335521396
30
0.000000000000000
11
-103.726550799165
21
-2.27844464665799
31
0.000000000000000
  0
LINE
  5
F10739
330
F1073A
100
AcDbEntity
8
Geo
100
AcDbLine
10
-103.726550799165
20
-2.27844464665799
30
0.000000000000000
11
-103.536520652550
21
-2.18884217432211
31
0.000000000000000
  0
LINE
  5
F1073B
330
F1073C
100
AcDbEntity
8
Geo
100
AcDbLine
10
-103.536520652550
20
-2.18884217432211
30
0.000000000000000
11
-103.343501891546
21
-2.10587339964297
31
0.000000000000000
  0
LINE
  5
F1073D
330
F1073E
100
AcDbEntity
8
Geo
100
AcDbLine
10
-103.343501891546
20
-2.10587339964297
30
0.000000000000000
11
-103.147726006120
21
-2.02963782817542
31
0.000000000000000
  0
LINE
  5
F1073F
330
F10740
100
AcDbEntity
8
Geo
100
AcDbLine
10
-103.147726006120
20
-2.02963782817542
30
0.000000000000000
11
-102.949427792896
21
-1.96022689025414
31
0.000000000000000
  0
LINE
  5
F10741
330
F10742
100
AcDbEntity
8
Geo
100
AcDbLine
10
-102.949427792896
20
-1.96022689025414
30
0.000000000000000
11
-102.748845073556
21
-1.89772383134006
31
0.000000000000000
  0
LINE
  5
F10743
330
F10744
100
AcDbEntity
8
Geo
100
AcDbLine
10
-102.748845073556
20
-1.89772383134006
30
0.000000000000000
11
-102.546218409625
21
-1.84220361218293
31
0.000000000000000
  0
LINE
  5
F10745
330
F10746
100
AcDbEntity
8
Geo
100
AcDbLine
10
-102.546218409625
20
-1.84220361218293
30
0.000000000000000
11
-102.341790813954
21
-1.79373281891993
31
0.000000000000000
  0
LINE
  5
F10747
330
F10748
100
AcDbEntity
8
Geo
100
AcDbLine
10
-102.341790813954
20
-1.79373281891993
30
0.000000000000000
11
-102.135807459279
21
-1.75236958321803
31
0.000000000000000
  0
LINE
  5
F10749
330
F1074A
100
AcDbEntity
8
Geo
100
AcDbLine
10
-102.135807459279
20
-1.75236958321803
30
0.000000000000000
11
-101.928515384174
21
-1.71816351255588
31
0.000000000000000
  0
LINE
  5
F1074B
330
F1074C
100
AcDbEntity
8
Geo
100
AcDbLine
10
-101.928515384174
20
-1.71816351255588
30
0.000000000000000
11
-101.720163196784
21
-1.69115563072890
31
0.000000000000000
  0
LINE
  5
F1074D
330
F1074E
100
AcDbEntity
8
Geo
100
AcDbLine
10
-101.720163196784
20
-1.69115563072890
30
0.000000000000000
11
-101.511000776656
21
-1.67137832864895
31
0.000000000000000
  0
LINE
  5
F1074F
330
F10750
100
AcDbEntity
8
Geo
100
AcDbLine
10
-101.511000776656
20
-1.67137832864895
30
0.000000000000000
11
-101.301278975063
21
-1.65885532549743
31
0.000000000000000
  0
LINE
  5
F10751
330
F10752
100
AcDbEntity
8
Geo
100
AcDbLine
10
-101.301278975063
20
-1.65885532549743
30
0.000000000000000
11
-101.091249314151
21
-1.65360164027854
31
0.000000000000000
  0
LINE
  5
F10753
330
F10754
100
AcDbEntity
8
Geo
100
AcDbLine
10
-95.7675173072824
20
-10.7129178866832
30
0.000000000000000
11
-96.1407920186377
21
-10.4974076316006
31
0.000000000000000
  0
LINE
  5
F10755
330
F10756
100
AcDbEntity
8
Geo
100
AcDbLine
10
-96.1407920186377
20
-10.4974076316006
30
0.000000000000000
11
-96.5142221727496
21
-10.2818076316006
31
0.000000000000000
  0
LINE
  5
F10757
330
F10758
100
AcDbEntity
8
Geo
100
AcDbLine
10
-96.5142221727496
20
-10.2818076316006
30
0.000000000000000
11
-96.8876523268614
21
-10.0662076316006
31
0.000000000000000
  0
LINE
  5
F10759
330
F1075A
100
AcDbEntity
8
Geo
100
AcDbLine
10
-96.8876523268614
20
-10.0662076316006
30
0.000000000000000
11
-97.2610824809733
21
-9.85060763160059
31
0.000000000000000
  0
LINE
  5
F1075B
330
F1075C
100
AcDbEntity
8
Geo
100
AcDbLine
10
-97.2610824809733
20
-9.85060763160059
30
0.000000000000000
11
-97.6345126350851
21
-9.63500763160058
31
0.000000000000000
  0
LINE
  5
F1075D
330
F1075E
100
AcDbEntity
8
Geo
100
AcDbLine
10
-97.6345126350851
20
-9.63500763160058
30
0.000000000000000
11
-98.0079427891970
21
-9.41940763160058
31
0.000000000000000
  0
LINE
  5
F1075F
330
F10760
100
AcDbEntity
8
Geo
100
AcDbLine
10
-98.0079427891970
20
-9.41940763160058
30
0.000000000000000
11
-98.3813729433088
21
-9.20380763160058
31
0.000000000000000
  0
LINE
  5
F10761
330
F10762
100
AcDbEntity
8
Geo
100
AcDbLine
10
-98.3813729433088
20
-9.20380763160058
30
0.000000000000000
11
-98.7548030974207
21
-8.98820763160058
31
0.000000000000000
  0
LINE
  5
F10763
330
F10764
100
AcDbEntity
8
Geo
100
AcDbLine
10
-98.7548030974207
20
-8.98820763160058
30
0.000000000000000
11
-99.1282332515325
21
-8.77260763160058
31
0.000000000000000
  0
LINE
  5
F10765
330
F10766
100
AcDbEntity
8
Geo
100
AcDbLine
10
-99.1282332515325
20
-8.77260763160058
30
0.000000000000000
11
-99.5016634056444
21
-8.55700763160058
31
0.000000000000000
  0
LINE
  5
F10767
330
F10768
100
AcDbEntity
8
Geo
100
AcDbLine
10
-99.5016634056444
20
-8.55700763160058
30
0.000000000000000
11
-99.5125925397960
21
-8.55044541829510
31
0.000000000000000
  0
LINE
  5
F10769
330
F1076A
100
AcDbEntity
8
Geo
100
AcDbLine
10
-99.5125925397960
20
-8.55044541829510
30
0.000000000000000
11
-99.5232904547143
21
-8.54351244409527
31
0.000000000000000
  0
LINE
  5
F1076B
330
F1076C
100
AcDbEntity
8
Geo
100
AcDbLine
10
-99.5232904547143
20
-8.54351244409527
30
0.000000000000000
11
-99.5337446771091
21
-8.53621679253888
31
0.000000000000000
  0
LINE
  5
F1076D
330
F1076E
100
AcDbEntity
8
Geo
100
AcDbLine
10
-99.5337446771091
20
-8.53621679253888
30
0.000000000000000
11
-99.5439430178246
21
-8.52856697002928
31
0.000000000000000
  0
LINE
  5
F1076F
330
F10770
100
AcDbEntity
8
Geo
100
AcDbLine
10
-99.5439430178246
20
-8.52856697002928
30
0.000000000000000
11
-99.5538735860519
21
-8.52057189591734
31
0.000000000000000
  0
LINE
  5
F10771
330
F10772
100
AcDbEntity
8
Geo
100
AcDbLine
10
-99.5538735860519
20
-8.52057189591734
30
0.000000000000000
11
-99.5635248031925
21
-8.51224089210183
31
0.000000000000000
  0
LINE
  5
F10773
330
F10774
100
AcDbEntity
8
Geo
100
AcDbLine
10
-99.5635248031925
20
-8.51224089210183
30
0.000000000000000
11
-99.5728854163590
21
-8.50358367216052
31
0.000000000000000
  0
LINE
  5
F10775
330
F10776
100
AcDbEntity
8
Geo
100
AcDbLine
10
-99.5728854163590
20
-8.50358367216052
30
0.000000000000000
11
-99.5819445114951
21
-8.49461033002462
31
0.000000000000000
  0
LINE
  5
F10777
330
F10778
100
AcDbEntity
8
Geo
100
AcDbLine
10
-99.5819445114951
20
-8.49461033002462
30
0.000000000000000
11
-99.5906915261012
21
-8.48533132820965
31
0.000000000000000
  0
LINE
  5
F10779
330
F1077A
100
AcDbEntity
8
Geo
100
AcDbLine
10
-99.5906915261012
20
-8.48533132820965
30
0.000000000000000
11
-99.5991162615495
21
-8.47575748561667
31
0.000000000000000
  0
LINE
  5
F1077B
330
F1077C
100
AcDbEntity
8
Geo
100
AcDbLine
10
-99.5991162615495
20
-8.47575748561667
30
0.000000000000000
11
-99.6072088949754
21
-8.46589996491787
31
0.000000000000000
  0
LINE
  5
F1077D
330
F1077E
100
AcDbEntity
8
Geo
100
AcDbLine
10
-99.6072088949754
20
-8.46589996491787
30
0.000000000000000
11
-99.6149599907302
21
-8.45577025954144
31
0.000000000000000
  0
LINE
  5
F1077F
330
F10780
100
AcDbEntity
8
Geo
100
AcDbLine
10
-99.6149599907302
20
-8.45577025954144
30
0.000000000000000
11
-99.6223605113831
21
-8.44538018027072
31
0.000000000000000
  0
LINE
  5
F10781
330
F10782
100
AcDbEntity
8
Geo
100
AcDbLine
10
-99.6223605113831
20
-8.44538018027072
30
0.000000000000000
11
-99.6294018282579
21
-8.43474184147337
31
0.000000000000000
  0
LINE
  5
F10783
330
F10784
100
AcDbEntity
8
Geo
100
AcDbLine
10
-99.6294018282579
20
-8.43474184147337
30
0.000000000000000
11
-99.6360757314943
21
-8.42386764697654
31
0.000000000000000
  0
LINE
  5
F10785
330
F10786
100
AcDbEntity
8
Geo
100
AcDbLine
10
-99.6360757314943
20
-8.42386764697654
30
0.000000000000000
11
-99.6423744396195
21
-8.41277027560461
31
0.000000000000000
  0
LINE
  5
F10787
330
F10788
100
AcDbEntity
8
Geo
100
AcDbLine
10
-99.6423744396195
20
-8.41277027560461
30
0.000000000000000
11
-99.6482906086217
21
-8.40146266639616
31
0.000000000000000
  0
LINE
  5
F10789
330
F1078A
100
AcDbEntity
8
Geo
100
AcDbLine
10
-99.6482906086217
20
-8.40146266639616
30
0.000000000000000
11
-99.6538173405124
21
-8.38995800351772
31
0.000000000000000
  0
LINE
  5
F1078B
330
F1078C
100
AcDbEntity
8
Geo
100
AcDbLine
10
-99.6538173405124
20
-8.38995800351772
30
0.000000000000000
11
-99.6589481913694
21
-8.37826970089159
31
0.000000000000000
  0
LINE
  5
F1078D
330
F1078E
100
AcDbEntity
8
Geo
100
AcDbLine
10
-99.6589481913694
20
-8.37826970089159
30
0.000000000000000
11
-99.6636771788503
21
-8.36641138655577
31
0.000000000000000
  0
LINE
  5
F1078F
330
F10790
100
AcDbEntity
8
Geo
100
AcDbLine
10
-99.6636771788503
20
-8.36641138655577
30
0.000000000000000
11
-99.6679987891671
21
-8.35439688677433
31
0.000000000000000
  0
LINE
  5
F10791
330
F10792
100
AcDbEntity
8
Geo
100
AcDbLine
10
-99.6679987891671
20
-8.35439688677433
30
0.000000000000000
11
-99.6719079835155
21
-8.34224020991658
31
0.000000000000000
  0
LINE
  5
F10793
330
F10794
100
AcDbEntity
8
Geo
100
AcDbLine
10
-99.6719079835155
20
-8.34224020991658
30
0.000000000000000
11
-99.6754002039498
21
-8.32995553012394
31
0.000000000000000
  0
LINE
  5
F10795
330
F10796
100
AcDbEntity
8
Geo
100
AcDbLine
10
-99.6754002039498
20
-8.32995553012394
30
0.000000000000000
11
-99.6784713786971
21
-8.31755717078353
31
0.000000000000000
  0
LINE
  5
F10797
330
F10798
100
AcDbEntity
8
Geo
100
AcDbLine
10
-99.6784713786971
20
-8.31755717078353
30
0.000000000000000
11
-99.6811179269051
21
-8.30505958782772
31
0.000000000000000
  0
LINE
  5
F10799
330
F1079A
100
AcDbEntity
8
Geo
100
AcDbLine
10
-99.6811179269051
20
-8.30505958782772
30
0.000000000000000
11
-99.6833367628170
21
-8.29247735287920
31
0.000000000000000
  0
LINE
  5
F1079B
330
F1079C
100
AcDbEntity
8
Geo
100
AcDbLine
10
-99.6833367628170
20
-8.29247735287920
30
0.000000000000000
11
-99.6851252993693
21
-8.27982513626108
31
0.000000000000000
  0
LINE
  5
F1079D
330
F1079E
100
AcDbEntity
8
Geo
100
AcDbLine
10
-99.6851252993693
20
-8.27982513626108
30
0.000000000000000
11
-99.6864814512084
21
-8.26711768989199
31
0.000000000000000
  0
LINE
  5
F1079F
330
F107A0
100
AcDbEntity
8
Geo
100
AcDbLine
10
-99.6864814512084
20
-8.26711768989199
30
0.000000000000000
11
-99.6874036371220
21
-8.25436983008594
31
0.000000000000000
  0
LINE
  5
F107A1
330
F107A2
100
AcDbEntity
8
Geo
100
AcDbLine
10
-99.6874036371220
20
-8.25436983008594
30
0.000000000000000
11
-99.6878907818825
21
-8.24159642027723
31
0.000000000000000
  0
LINE
  5
F107A3
330
F107A4
100
AcDbEntity
8
Geo
100
AcDbLine
10
-99.6878907818825
20
-8.24159642027723
30
0.000000000000000
11
-99.6879423175009
21
-8.22881235369033
31
0.000000000000000
  0
LINE
  5
F107A5
330
F107A6
100
AcDbEntity
8
Geo
100
AcDbLine
10
-99.6879423175009
20
-8.22881235369033
30
0.000000000000000
11
-99.6875581838890
21
-8.21603253597499
31
0.000000000000000
  0
LINE
  5
F107A7
330
F107A8
100
AcDbEntity
8
Geo
100
AcDbLine
10
-99.6875581838890
20
-8.21603253597499
30
0.000000000000000
11
-99.6867388289295
21
-8.20327186782702
31
0.000000000000000
  0
LINE
  5
F107A9
330
F107AA
100
AcDbEntity
8
Geo
100
AcDbLine
10
-99.6867388289295
20
-8.20327186782702
30
0.000000000000000
11
-99.6854852079534
21
-8.19054522761465
31
0.000000000000000
  0
LINE
  5
F107AB
330
F107AC
100
AcDbEntity
8
Geo
100
AcDbLine
10
-99.6854852079534
20
-8.19054522761465
30
0.000000000000000
11
-99.6837987826269
21
-8.17786745403108
31
0.000000000000000
  0
LINE
  5
F107AD
330
F107AE
100
AcDbEntity
8
Geo
100
AcDbLine
10
-99.6837987826269
20
-8.17786745403108
30
0.000000000000000
11
-99.6816815192464
21
-8.16525332879320
31
0.000000000000000
  0
LINE
  5
F107AF
330
F107B0
100
AcDbEntity
8
Geo
100
AcDbLine
10
-99.6816815192464
20
-8.16525332879320
30
0.000000000000000
11
-99.6791358864462
21
-8.15271755940678
31
0.000000000000000
  0
LINE
  5
F107B1
330
F107B2
100
AcDbEntity
8
Geo
100
AcDbLine
10
-99.6791358864462
20
-8.15271755940678
30
0.000000000000000
11
-99.6761648523205
21
-8.14027476201817
31
0.000000000000000
  0
LINE
  5
F107B3
330
F107B4
100
AcDbEntity
8
Geo
100
AcDbLine
10
-99.6761648523205
20
-8.14027476201817
30
0.000000000000000
11
-99.6727718809620
21
-8.12793944437253
31
0.000000000000000
  0
LINE
  5
F107B5
330
F107B6
100
AcDbEntity
8
Geo
100
AcDbLine
10
-99.6727718809620
20
-8.12793944437253
30
0.000000000000000
11
-99.6689609284236
21
-8.11572598889845
31
0.000000000000000
  0
LINE
  5
F107B7
330
F107B8
100
AcDbEntity
8
Geo
100
AcDbLine
10
-99.6689609284236
20
-8.11572598889845
30
0.000000000000000
11
-99.6647364381055
21
-8.10364863593867
31
0.000000000000000
  0
LINE
  5
F107B9
330
F107BA
100
AcDbEntity
8
Geo
100
AcDbLine
10
-99.6647364381055
20
-8.10364863593867
30
0.000000000000000
11
-99.6601033355743
21
-8.09172146714650
31
0.000000000000000
  0
LINE
  5
F107BB
330
F107BC
100
AcDbEntity
8
Geo
100
AcDbLine
10
-99.6601033355743
20
-8.09172146714650
30
0.000000000000000
11
-99.6550670228205
21
-8.07995838906721
31
0.000000000000000
  0
LINE
  5
F107BD
330
F107BE
100
AcDbEntity
8
Geo
100
AcDbLine
10
-99.6550670228205
20
-8.07995838906721
30
0.000000000000000
11
-99.6496333719595
21
-8.06837311692366
31
0.000000000000000
  0
LINE
  5
F107BF
330
F107C0
100
AcDbEntity
8
Geo
100
AcDbLine
10
-99.6496333719595
20
-8.06837311692366
30
0.000000000000000
11
-99.6438087183849
21
-8.05697915862494
31
0.000000000000000
  0
LINE
  5
F107C1
330
F107C2
100
AcDbEntity
8
Geo
100
AcDbLine
10
-99.6438087183849
20
-8.05697915862494
30
0.000000000000000
11
-99.6375998533825
21
-8.04578979901673
31
0.000000000000000
  0
LINE
  5
F107C3
330
F107C4
100
AcDbEntity
8
Geo
100
AcDbLine
10
-99.6375998533825
20
-8.04578979901673
30
0.000000000000000
11
-99.5204875390024
21
-7.84294532031849
31
0.000000000000000
  0
LINE
  5
F107C5
330
F107C6
100
AcDbEntity
8
Geo
100
AcDbLine
10
-99.5204875390024
20
-7.84294532031849
30
0.000000000000000
11
-99.5138748267014
21
-7.83193051780165
31
0.000000000000000
  0
LINE
  5
F107C7
330
F107C8
100
AcDbEntity
8
Geo
100
AcDbLine
10
-99.5138748267014
20
-7.83193051780165
30
0.000000000000000
11
-99.5068899161797
21
-7.82114803575296
31
0.000000000000000
  0
LINE
  5
F107C9
330
F107CA
100
AcDbEntity
8
Geo
100
AcDbLine
10
-99.5068899161797
20
-7.82114803575296
30
0.000000000000000
11
-99.4995410162883
21
-7.81061054602925
31
0.000000000000000
  0
LINE
  5
F107CB
330
F107CC
100
AcDbEntity
8
Geo
100
AcDbLine
10
-99.4995410162883
20
-7.81061054602925
30
0.000000000000000
11
-99.4918367636476
21
-7.80033043256593
31
0.000000000000000
  0
LINE
  5
F107CD
330
F107CE
100
AcDbEntity
8
Geo
100
AcDbLine
10
-99.4918367636476
20
-7.80033043256593
30
0.000000000000000
11
-99.4837862124983
21
-7.79031977682306
31
0.000000000000000
  0
LINE
  5
F107CF
330
F107D0
100
AcDbEntity
8
Geo
100
AcDbLine
10
-99.4837862124983
20
-7.79031977682306
30
0.000000000000000
11
-99.4753988240601
21
-7.78059034358686
31
0.000000000000000
  0
LINE
  5
F107D1
330
F107D2
100
AcDbEntity
8
Geo
100
AcDbLine
10
-99.4753988240601
20
-7.78059034358686
30
0.000000000000000
11
-99.4666844554128
21
-7.77115356714349
31
0.000000000000000
  0
LINE
  5
F107D3
330
F107D4
100
AcDbEntity
8
Geo
100
AcDbLine
10
-99.4666844554128
20
-7.77115356714349
30
0.000000000000000
11
-99.4576533479118
21
-7.76202053784112
31
0.000000000000000
  0
LINE
  5
F107D5
330
F107D6
100
AcDbEntity
8
Geo
100
AcDbLine
10
-99.4576533479118
20
-7.76202053784112
30
0.000000000000000
11
-99.4483161151526
21
-7.75320198905629
31
0.000000000000000
  0
LINE
  5
F107D7
330
F107D8
100
AcDbEntity
8
Geo
100
AcDbLine
10
-99.4483161151526
20
-7.75320198905629
30
0.000000000000000
11
-99.4386837304969
21
-7.74470828457975
31
0.000000000000000
  0
LINE
  5
F107D9
330
F107DA
100
AcDbEntity
8
Geo
100
AcDbLine
10
-99.4386837304969
20
-7.74470828457975
30
0.000000000000000
11
-99.4287675141769
21
-7.73654940643666
31
0.000000000000000
  0
LINE
  5
F107DB
330
F107DC
100
AcDbEntity
8
Geo
100
AcDbLine
10
-99.4287675141769
20
-7.73654940643666
30
0.000000000000000
11
-99.4185791199910
21
-7.72873494315547
31
0.000000000000000
  0
LINE
  5
F107DD
330
F107DE
100
AcDbEntity
8
Geo
100
AcDbLine
10
-99.4185791199910
20
-7.72873494315547
30
0.000000000000000
11
-99.4081305216085
21
-7.72127407849921
31
0.000000000000000
  0
LINE
  5
F107DF
330
F107E0
100
AcDbEntity
8
Geo
100
AcDbLine
10
-99.4081305216085
20
-7.72127407849921
30
0.000000000000000
11
-99.3974339984972
21
-7.71417558067248
31
0.000000000000000
  0
LINE
  5
F107E1
330
F107E2
100
AcDbEntity
8
Geo
100
AcDbLine
10
-99.3974339984972
20
-7.71417558067248
30
0.000000000000000
11
-99.3865021214928
21
-7.70744779201686
31
0.000000000000000
  0
LINE
  5
F107E3
330
F107E4
100
AcDbEntity
8
Geo
100
AcDbLine
10
-99.3865021214928
20
-7.70744779201686
30
0.000000000000000
11
-99.3753477380251
21
-7.70109861920674
31
0.000000000000000
  0
LINE
  5
F107E5
330
F107E6
100
AcDbEntity
8
Geo
100
AcDbLine
10
-99.3753477380251
20
-7.70109861920674
30
0.000000000000000
11
-99.3639839570192
21
-7.69513552395720
31
0.000000000000000
  0
LINE
  5
F107E7
330
F107E8
100
AcDbEntity
8
Geo
100
AcDbLine
10
-99.3639839570192
20
-7.69513552395720
30
0.000000000000000
11
-99.3524241334899
21
-7.68956551425480
31
0.000000000000000
  0
LINE
  5
F107E9
330
F107EA
100
AcDbEntity
8
Geo
100
AcDbLine
10
-99.3524241334899
20
-7.68956551425480
30
0.000000000000000
11
-99.3406818528460
21
-7.68439513612162
31
0.000000000000000
  0
LINE
  5
F107EB
330
F107EC
100
AcDbEntity
8
Geo
100
AcDbLine
10
-99.3406818528460
20
-7.68439513612162
30
0.000000000000000
11
-99.3287709149251
21
-7.67963046592219
31
0.000000000000000
  0
LINE
  5
F107ED
330
F107EE
100
AcDbEntity
8
Geo
100
AcDbLine
10
-99.3287709149251
20
-7.67963046592219
30
0.000000000000000
11
-99.3167053177750
21
-7.67527710322241
31
0.000000000000000
  0
LINE
  5
F107EF
330
F107F0
100
AcDbEntity
8
Geo
100
AcDbLine
10
-99.3167053177750
20
-7.67527710322241
30
0.000000000000000
11
-99.3044992412032
21
-7.67134016420874
31
0.000000000000000
  0
LINE
  5
F107F1
330
F107F2
100
AcDbEntity
8
Geo
100
AcDbLine
10
-99.3044992412032
20
-7.67134016420874
30
0.000000000000000
11
-99.2921670301124
21
-7.66782427567560
31
0.000000000000000
  0
LINE
  5
F107F3
330
F107F4
100
AcDbEntity
8
Geo
100
AcDbLine
10
-99.2921670301124
20
-7.66782427567560
30
0.000000000000000
11
-99.2797231776418
21
-7.66473356958778
31
0.000000000000000
  0
LINE
  5
F107F5
330
F107F6
100
AcDbEntity
8
Geo
100
AcDbLine
10
-99.2797231776418
20
-7.66473356958778
30
0.000000000000000
11
-99.2671823081344
21
-7.66207167822444
31
0.000000000000000
  0
LINE
  5
F107F7
330
F107F8
100
AcDbEntity
8
Geo
100
AcDbLine
10
-99.2671823081344
20
-7.66207167822444
30
0.000000000000000
11
-99.2545591599504
21
-7.65984172991043
31
0.000000000000000
  0
LINE
  5
F107F9
330
F107FA
100
AcDbEntity
8
Geo
100
AcDbLine
10
-99.2545591599504
20
-7.65984172991043
30
0.000000000000000
11
-99.2418685681459
21
-7.65804634533971
31
0.000000000000000
  0
LINE
  5
F107FB
330
F107FC
100
AcDbEntity
8
Geo
100
AcDbLine
10
-99.2418685681459
20
-7.65804634533971
30
0.000000000000000
11
-99.2291254470386
21
-7.65668763449553
31
0.000000000000000
  0
LINE
  5
F107FD
330
F107FE
100
AcDbEntity
8
Geo
100
AcDbLine
10
-99.2291254470386
20
-7.65668763449553
30
0.000000000000000
11
-98.7753584140036
21
-7.61616843878209
31
0.000000000000000
  0
LINE
  5
F107FF
330
F10800
100
AcDbEntity
8
Geo
100
AcDbLine
10
-98.7753584140036
20
-7.61616843878209
30
0.000000000000000
11
-98.3215913809686
21
-7.57564924306866
31
0.000000000000000
  0
LINE
  5
F10801
330
F10802
100
AcDbEntity
8
Geo
100
AcDbLine
10
-98.3215913809686
20
-7.57564924306866
30
0.000000000000000
11
-97.8678243479336
21
-7.53513004735523
31
0.000000000000000
  0
LINE
  5
F10803
330
F10804
100
AcDbEntity
8
Geo
100
AcDbLine
10
-97.8678243479336
20
-7.53513004735523
30
0.000000000000000
11
-97.4140573148986
21
-7.49461085164179
31
0.000000000000000
  0
LINE
  5
F10805
330
F10806
100
AcDbEntity
8
Geo
100
AcDbLine
10
-97.4140573148986
20
-7.49461085164179
30
0.000000000000000
11
-96.9602902818636
21
-7.45409165592836
31
0.000000000000000
  0
LINE
  5
F10807
330
F10808
100
AcDbEntity
8
Geo
100
AcDbLine
10
-96.9602902818636
20
-7.45409165592836
30
0.000000000000000
11
-96.5065232488286
21
-7.41357246021492
31
0.000000000000000
  0
LINE
  5
F10809
330
F1080A
100
AcDbEntity
8
Geo
100
AcDbLine
10
-96.5065232488286
20
-7.41357246021492
30
0.000000000000000
11
-96.0527562157936
21
-7.37305326450149
31
0.000000000000000
  0
LINE
  5
F1080B
330
F1080C
100
AcDbEntity
8
Geo
100
AcDbLine
10
-96.0527562157936
20
-7.37305326450149
30
0.000000000000000
11
-95.5989891827585
21
-7.33253406878806
31
0.000000000000000
  0
LINE
  5
F1080D
330
F1080E
100
AcDbEntity
8
Geo
100
AcDbLine
10
-95.5989891827585
20
-7.33253406878806
30
0.000000000000000
11
-95.1452221497235
21
-7.29201487307462
31
0.000000000000000
  0
LINE
  5
F1080F
330
F10810
100
AcDbEntity
8
Geo
100
AcDbLine
10
-95.1452221497235
20
-7.29201487307462
30
0.000000000000000
11
-94.9940079215399
21
-7.27851217574237
31
0.000000000000000
  0
LINE
  5
F10811
330
F10812
100
AcDbEntity
8
Geo
100
AcDbLine
10
-94.9940079215399
20
-7.27851217574237
30
0.000000000000000
11
-94.9823461954359
21
-7.48828363189279
31
0.000000000000000
  0
LINE
  5
F10813
330
F10814
100
AcDbEntity
8
Geo
100
AcDbLine
10
-94.9823461954359
20
-7.48828363189279
30
0.000000000000000
11
-94.9779549901282
21
-7.69833309508454
31
0.000000000000000
  0
LINE
  5
F10815
330
F10816
100
AcDbEntity
8
Geo
100
AcDbLine
10
-94.9779549901282
20
-7.69833309508454
30
0.000000000000000
11
-94.9808395720479
21
-7.90840865020303
31
0.000000000000000
  0
LINE
  5
F10817
330
F10818
100
AcDbEntity
8
Geo
100
AcDbLine
10
-94.9808395720479
20
-7.90840865020303
30
0.000000000000000
11
-94.9909964816775
21
-8.11825835084130
31
0.000000000000000
  0
LINE
  5
F10819
330
F1081A
100
AcDbEntity
8
Geo
100
AcDbLine
10
-94.9909964816775
20
-8.11825835084130
30
0.000000000000000
11
-95.0084135377002
21
-8.32763052146266
31
0.000000000000000
  0
LINE
  5
F1081B
330
F1081C
100
AcDbEntity
8
Geo
100
AcDbLine
10
-95.0084135377002
20
-8.32763052146266
30
0.000000000000000
11
-95.0330698516091
21
-8.53627405923850
31
0.000000000000000
  0
LINE
  5
F1081D
330
F1081E
100
AcDbEntity
8
Geo
100
AcDbLine
10
-95.0330698516091
20
-8.53627405923850
30
0.000000000000000
11
-95.0649358527590
21
-8.74393873519931
31
0.000000000000000
  0
LINE
  5
F1081F
330
F10820
100
AcDbEntity
8
Geo
100
AcDbLine
10
-95.0649358527590
20
-8.74393873519931
30
0.000000000000000
11
-95.1039733238310
21
-8.95037549433756
31
0.000000000000000
  0
LINE
  5
F10821
330
F10822
100
AcDbEntity
8
Geo
100
AcDbLine
10
-95.1039733238310
20
-8.95037549433756
30
0.000000000000000
11
-95.1501354466669
21
-9.15533675430266
31
0.000000000000000
  0
LINE
  5
F10823
330
F10824
100
AcDbEntity
8
Geo
100
AcDbLine
10
-95.1501354466669
20
-9.15533675430266
30
0.000000000000000
11
-95.2033668584188
21
-9.35857670232984
31
0.000000000000000
  0
LINE
  5
F10825
330
F10826
100
AcDbEntity
8
Geo
100
AcDbLine
10
-95.2033668584188
20
-9.35857670232984
30
0.000000000000000
11
-95.2636037179467
21
-9.55985159004662
31
0.000000000000000
  0
LINE
  5
F10827
330
F10828
100
AcDbEntity
8
Geo
100
AcDbLine
10
-95.2636037179467
20
-9.55985159004662
30
0.000000000000000
11
-95.3307737823840
21
-9.75892002580349
31
0.000000000000000
  0
LINE
  5
F10829
330
F1082A
100
AcDbEntity
8
Geo
100
AcDbLine
10
-95.3307737823840
20
-9.75892002580349
30
0.000000000000000
11
-95.4047964937791
21
-9.95554326417809
31
0.000000000000000
  0
LINE
  5
F1082B
330
F1082C
100
AcDbEntity
8
Geo
100
AcDbLine
10
-95.4047964937791
20
-9.95554326417809
30
0.000000000000000
11
-95.4855830757098
21
-10.1494854923058
31
0.000000000000000
  0
LINE
  5
F1082D
330
F1082E
100
AcDbEntity
8
Geo
100
AcDbLine
10
-95.4855830757098
20
-10.1494854923058
30
0.000000000000000
11
-95.5730366397541
21
-10.3405141126933
31
0.000000000000000
  0
LINE
  5
F1082F
330
F10830
100
AcDbEntity
8
Geo
100
AcDbLine
10
-95.5730366397541
20
-10.3405141126933
30
0.000000000000000
11
-95.6670523016895
21
-10.5284000221758
31
0.000000000000000
  0
LINE
  5
F10831
330
F10832
100
AcDbEntity
8
Geo
100
AcDbLine
10
-95.6670523016895
20
-10.5284000221758
30
0.000000000000000
11
-95.7675173072824
21
-10.7129178866832
31
0.000000000000000
  0
LINE
  5
F10833
330
F10834
100
AcDbEntity
8
Geo
100
AcDbLine
10
-106.274981321020
20
-10.7937469243698
30
0.000000000000000
11
-105.901706609665
21
-10.5782366692871
31
0.000000000000000
  0
LINE
  5
F10835
330
F10836
100
AcDbEntity
8
Geo
100
AcDbLine
10
-105.901706609665
20
-10.5782366692871
30
0.000000000000000
11
-105.528276455553
21
-10.3626366692871
31
0.000000000000000
  0
LINE
  5
F10837
330
F10838
100
AcDbEntity
8
Geo
100
AcDbLine
10
-105.528276455553
20
-10.3626366692871
30
0.000000000000000
11
-105.154846301441
21
-10.1470366692871
31
0.000000000000000
  0
LINE
  5
F10839
330
F1083A
100
AcDbEntity
8
Geo
100
AcDbLine
10
-105.154846301441
20
-10.1470366692871
30
0.000000000000000
11
-104.781416147330
21
-9.93143666928712
31
0.000000000000000
  0
LINE
  5
F1083B
330
F1083C
100
AcDbEntity
8
Geo
100
AcDbLine
10
-104.781416147330
20
-9.93143666928712
30
0.000000000000000
11
-104.407985993218
21
-9.71583666928712
31
0.000000000000000
  0
LINE
  5
F1083D
330
F1083E
100
AcDbEntity
8
Geo
100
AcDbLine
10
-104.407985993218
20
-9.71583666928712
30
0.000000000000000
11
-104.034555839106
21
-9.50023666928712
31
0.000000000000000
  0
LINE
  5
F1083F
330
F10840
100
AcDbEntity
8
Geo
100
AcDbLine
10
-104.034555839106
20
-9.50023666928712
30
0.000000000000000
11
-103.661125684994
21
-9.28463666928712
31
0.000000000000000
  0
LINE
  5
F10841
330
F10842
100
AcDbEntity
8
Geo
100
AcDbLine
10
-103.661125684994
20
-9.28463666928712
30
0.000000000000000
11
-103.287695530882
21
-9.06903666928712
31
0.000000000000000
  0
LINE
  5
F10843
330
F10844
100
AcDbEntity
8
Geo
100
AcDbLine
10
-103.287695530882
20
-9.06903666928712
30
0.000000000000000
11
-102.914265376770
21
-8.85343666928711
31
0.000000000000000
  0
LINE
  5
F10845
330
F10846
100
AcDbEntity
8
Geo
100
AcDbLine
10
-102.914265376770
20
-8.85343666928711
30
0.000000000000000
11
-102.540835222659
21
-8.63783666928712
31
0.000000000000000
  0
LINE
  5
F10847
330
F10848
100
AcDbEntity
8
Geo
100
AcDbLine
10
-102.540835222659
20
-8.63783666928712
30
0.000000000000000
11
-102.529687612155
21
-8.63165286812317
31
0.000000000000000
  0
LINE
  5
F10849
330
F1084A
100
AcDbEntity
8
Geo
100
AcDbLine
10
-102.529687612155
20
-8.63165286812317
30
0.000000000000000
11
-102.518334522915
21
-8.62585468913628
31
0.000000000000000
  0
LINE
  5
F1084B
330
F1084C
100
AcDbEntity
8
Geo
100
AcDbLine
10
-102.518334522915
20
-8.62585468913628
30
0.000000000000000
11
-102.506789192133
21
-8.62044889274379
31
0.000000000000000
  0
LINE
  5
F1084D
330
F1084E
100
AcDbEntity
8
Geo
100
AcDbLine
10
-102.506789192133
20
-8.62044889274379
30
0.000000000000000
11
-102.495065081147
21
-8.61544178186248
31
0.000000000000000
  0
LINE
  5
F1084F
330
F10850
100
AcDbEntity
8
Geo
100
AcDbLine
10
-102.495065081147
20
-8.61544178186248
30
0.000000000000000
11
-102.483175859748
21
-8.61083919455965
31
0.000000000000000
  0
LINE
  5
F10851
330
F10852
100
AcDbEntity
8
Geo
100
AcDbLine
10
-102.483175859748
20
-8.61083919455965
30
0.000000000000000
11
-102.471135390234
21
-8.60664649724622
31
0.000000000000000
  0
LINE
  5
F10853
330
F10854
100
AcDbEntity
8
Geo
100
AcDbLine
10
-102.471135390234
20
-8.60664649724622
30
0.000000000000000
11
-102.458957711255
21
-8.60286857841970
31
0.000000000000000
  0
LINE
  5
F10855
330
F10856
100
AcDbEntity
8
Geo
100
AcDbLine
10
-102.458957711255
20
-8.60286857841970
30
0.000000000000000
11
-102.446657021441
21
-8.59950984296445
31
0.000000000000000
  0
LINE
  5
F10857
330
F10858
100
AcDbEntity
8
Geo
100
AcDbLine
10
-102.446657021441
20
-8.59950984296445
30
0.000000000000000
11
-102.434247662844
21
-8.59657420701577
31
0.000000000000000
  0
LINE
  5
F10859
330
F1085A
100
AcDbEntity
8
Geo
100
AcDbLine
10
-102.434247662844
20
-8.59657420701577
30
0.000000000000000
11
-102.421744104223
21
-8.59406509339385
31
0.000000000000000
  0
LINE
  5
F1085B
330
F1085C
100
AcDbEntity
8
Geo
100
AcDbLine
10
-102.421744104223
20
-8.59406509339385
30
0.000000000000000
11
-102.409160924166
21
-8.59198542761295
31
0.000000000000000
  0
LINE
  5
F1085D
330
F1085E
100
AcDbEntity
8
Geo
100
AcDbLine
10
-102.409160924166
20
-8.59198542761295
30
0.000000000000000
11
-102.396512794100
21
-8.59033763447032
31
0.000000000000000
  0
LINE
  5
F1085F
330
F10860
100
AcDbEntity
8
Geo
100
AcDbLine
10
-102.396512794100
20
-8.59033763447032
30
0.000000000000000
11
-102.383814461178
21
-8.58912363521908
31
0.000000000000000
  0
LINE
  5
F10861
330
F10862
100
AcDbEntity
8
Geo
100
AcDbLine
10
-102.383814461178
20
-8.58912363521908
30
0.000000000000000
11
-102.371080731088
21
-8.58834484532803
31
0.000000000000000
  0
LINE
  5
F10863
330
F10864
100
AcDbEntity
8
Geo
100
AcDbLine
10
-102.371080731088
20
-8.58834484532803
30
0.000000000000000
11
-102.358326450790
21
-8.58800217283135
31
0.000000000000000
  0
LINE
  5
F10865
330
F10866
100
AcDbEntity
8
Geo
100
AcDbLine
10
-102.358326450790
20
-8.58800217283135
30
0.000000000000000
11
-102.345566491204
21
-8.58809601726986
31
0.000000000000000
  0
LINE
  5
F10867
330
F10868
100
AcDbEntity
8
Geo
100
AcDbLine
10
-102.345566491204
20
-8.58809601726986
30
0.000000000000000
11
-102.332815729872
21
-8.58862626922512
31
0.000000000000000
  0
LINE
  5
F10869
330
F1086A
100
AcDbEntity
8
Geo
100
AcDbLine
10
-102.332815729872
20
-8.58862626922512
30
0.000000000000000
11
-102.320089033612
21
-8.58959231044708
31
0.000000000000000
  0
LINE
  5
F1086B
330
F1086C
100
AcDbEntity
8
Geo
100
AcDbLine
10
-102.320089033612
20
-8.58959231044708
30
0.000000000000000
11
-102.307401241182
21
-8.59099301457489
31
0.000000000000000
  0
LINE
  5
F1086D
330
F1086E
100
AcDbEntity
8
Geo
100
AcDbLine
10
-102.307401241182
20
-8.59099301457489
30
0.000000000000000
11
-102.294767145981
21
-8.59282674845019
31
0.000000000000000
  0
LINE
  5
F1086F
330
F10870
100
AcDbEntity
8
Geo
100
AcDbLine
10
-102.294767145981
20
-8.59282674845019
30
0.000000000000000
11
-102.282201478798
21
-8.59509137402132
31
0.000000000000000
  0
LINE
  5
F10871
330
F10872
100
AcDbEntity
8
Geo
100
AcDbLine
10
-102.282201478798
20
-8.59509137402132
30
0.000000000000000
11
-102.269718890639
21
-8.59778425083614
31
0.000000000000000
  0
LINE
  5
F10873
330
F10874
100
AcDbEntity
8
Geo
100
AcDbLine
10
-102.269718890639
20
-8.59778425083614
30
0.000000000000000
11
-102.257333935644
21
-8.60090223912077
31
0.000000000000000
  0
LINE
  5
F10875
330
F10876
100
AcDbEntity
8
Geo
100
AcDbLine
10
-102.257333935644
20
-8.60090223912077
30
0.000000000000000
11
-102.245061054117
21
-8.60444170344033
31
0.000000000000000
  0
LINE
  5
F10877
330
F10878
100
AcDbEntity
8
Geo
100
AcDbLine
10
-102.245061054117
20
-8.60444170344033
30
0.000000000000000
11
-102.232914555687
21
-8.60839851693776
31
0.000000000000000
  0
LINE
  5
F10879
330
F1087A
100
AcDbEntity
8
Geo
100
AcDbLine
10
-102.232914555687
20
-8.60839851693776
30
0.000000000000000
11
-102.220908602629
21
-8.61276806614551
31
0.000000000000000
  0
LINE
  5
F1087B
330
F1087C
100
AcDbEntity
8
Geo
100
AcDbLine
10
-102.220908602629
20
-8.61276806614551
30
0.000000000000000
11
-102.209057193348
21
-8.61754525636467
31
0.000000000000000
  0
LINE
  5
F1087D
330
F1087E
100
AcDbEntity
8
Geo
100
AcDbLine
10
-102.209057193348
20
-8.61754525636467
30
0.000000000000000
11
-102.197374146055
21
-8.62272451760514
31
0.000000000000000
  0
LINE
  5
F1087F
330
F10880
100
AcDbEntity
8
Geo
100
AcDbLine
10
-102.197374146055
20
-8.62272451760514
30
0.000000000000000
11
-102.185873082663
21
-8.62829981107999
31
0.000000000000000
  0
LINE
  5
F10881
330
F10882
100
AcDbEntity
8
Geo
100
AcDbLine
10
-102.185873082663
20
-8.62829981107999
30
0.000000000000000
11
-102.174567412895
21
-8.63426463624643
31
0.000000000000000
  0
LINE
  5
F10883
330
F10884
100
AcDbEntity
8
Geo
100
AcDbLine
10
-102.174567412895
20
-8.63426463624643
30
0.000000000000000
11
-102.163470318658
21
-8.64061203838514
31
0.000000000000000
  0
LINE
  5
F10885
330
F10886
100
AcDbEntity
8
Geo
100
AcDbLine
10
-102.163470318658
20
-8.64061203838514
30
0.000000000000000
11
-102.152594738667
21
-8.64733461670914
31
0.000000000000000
  0
LINE
  5
F10887
330
F10888
100
AcDbEntity
8
Geo
100
AcDbLine
10
-102.152594738667
20
-8.64733461670914
30
0.000000000000000
11
-102.141953353361
21
-8.65442453299285
31
0.000000000000000
  0
LINE
  5
F10889
330
F1088A
100
AcDbEntity
8
Geo
100
AcDbLine
10
-102.141953353361
20
-8.65442453299285
30
0.000000000000000
11
-102.131558570120
21
-8.66187352071100
31
0.000000000000000
  0
LINE
  5
F1088B
330
F1088C
100
AcDbEntity
8
Geo
100
AcDbLine
10
-102.131558570120
20
-8.66187352071100
30
0.000000000000000
11
-102.121422508797
21
-8.66967289467715
31
0.000000000000000
  0
LINE
  5
F1088D
330
F1088E
100
AcDbEntity
8
Geo
100
AcDbLine
10
-102.121422508797
20
-8.66967289467715
30
0.000000000000000
11
-102.111556987585
21
-8.67781356117013
31
0.000000000000000
  0
LINE
  5
F1088F
330
F10890
100
AcDbEntity
8
Geo
100
AcDbLine
10
-102.111556987585
20
-8.67781356117013
30
0.000000000000000
11
-102.101973509240
21
-8.68628602853696
31
0.000000000000000
  0
LINE
  5
F10891
330
F10892
100
AcDbEntity
8
Geo
100
AcDbLine
10
-102.101973509240
20
-8.68628602853696
30
0.000000000000000
11
-102.092683247670
21
-8.69508041825967
31
0.000000000000000
  0
LINE
  5
F10893
330
F10894
100
AcDbEntity
8
Geo
100
AcDbLine
10
-102.092683247670
20
-8.69508041825967
30
0.000000000000000
11
-102.083697034905
21
-8.70418647647326
31
0.000000000000000
  0
LINE
  5
F10895
330
F10896
100
AcDbEntity
8
Geo
100
AcDbLine
10
-102.083697034905
20
-8.70418647647326
30
0.000000000000000
11
-102.075025348465
21
-8.71359358592117
31
0.000000000000000
  0
LINE
  5
F10897
330
F10898
100
AcDbEntity
8
Geo
100
AcDbLine
10
-102.075025348465
20
-8.71359358592117
30
0.000000000000000
11
-102.066678299151
21
-8.72329077833460
31
0.000000000000000
  0
LINE
  5
F10899
330
F1089A
100
AcDbEntity
8
Geo
100
AcDbLine
10
-102.066678299151
20
-8.72329077833460
30
0.000000000000000
11
-102.058665619247
21
-8.73326674722096
31
0.000000000000000
  0
LINE
  5
F1089B
330
F1089C
100
AcDbEntity
8
Geo
100
AcDbLine
10
-102.058665619247
20
-8.73326674722096
30
0.000000000000000
11
-102.050996651180
21
-8.74350986104679
31
0.000000000000000
  0
LINE
  5
F1089D
330
F1089E
100
AcDbEntity
8
Geo
100
AcDbLine
10
-102.050996651180
20
-8.74350986104679
30
0.000000000000000
11
-102.043680336625
21
-8.75400817679956
31
0.000000000000000
  0
LINE
  5
F1089F
330
F108A0
100
AcDbEntity
8
Geo
100
AcDbLine
10
-102.043680336625
20
-8.75400817679956
30
0.000000000000000
11
-102.036725206076
21
-8.76474945391271
31
0.000000000000000
  0
LINE
  5
F108A1
330
F108A2
100
AcDbEntity
8
Geo
100
AcDbLine
10
-102.036725206076
20
-8.76474945391271
30
0.000000000000000
11
-102.030139368904
21
-8.77572116853763
31
0.000000000000000
  0
LINE
  5
F108A3
330
F108A4
100
AcDbEntity
8
Geo
100
AcDbLine
10
-102.030139368904
20
-8.77572116853763
30
0.000000000000000
11
-101.913027054524
21
-8.97856564723587
31
0.000000000000000
  0
LINE
  5
F108A5
330
F108A6
100
AcDbEntity
8
Geo
100
AcDbLine
10
-101.913027054524
20
-8.97856564723587
30
0.000000000000000
11
-101.906794311877
21
-8.98979982533488
31
0.000000000000000
  0
LINE
  5
F108A7
330
F108A8
100
AcDbEntity
8
Geo
100
AcDbLine
10
-101.906794311877
20
-8.98979982533488
30
0.000000000000000
11
-101.900948863768
21
-9.00124017631413
31
0.000000000000000
  0
LINE
  5
F108A9
330
F108AA
100
AcDbEntity
8
Geo
100
AcDbLine
10
-101.900948863768
20
-9.00124017631413
30
0.000000000000000
11
-101.895497579921
21
-9.01287325517190
31
0.000000000000000
  0
LINE
  5
F108AB
330
F108AC
100
AcDbEntity
8
Geo
100
AcDbLine
10
-101.895497579921
20
-9.01287325517190
30
0.000000000000000
11
-101.890446866828
21
-9.02468539040755
31
0.000000000000000
  0
LINE
  5
F108AD
330
F108AE
100
AcDbEntity
8
Geo
100
AcDbLine
10
-101.890446866828
20
-9.02468539040755
30
0.000000000000000
11
-101.885802660221
21
-9.03666270008874
31
0.000000000000000
  0
LINE
  5
F108AF
330
F108B0
100
AcDbEntity
8
Geo
100
AcDbLine
10
-101.885802660221
20
-9.03666270008874
30
0.000000000000000
11
-101.881570418093
21
-9.04879110816571
31
0.000000000000000
  0
LINE
  5
F108B1
330
F108B2
100
AcDbEntity
8
Geo
100
AcDbLine
10
-101.881570418093
20
-9.04879110816571
30
0.000000000000000
11
-101.877755114287
21
-9.06105636101392
31
0.000000000000000
  0
LINE
  5
F108B3
330
F108B4
100
AcDbEntity
8
Geo
100
AcDbLine
10
-101.877755114287
20
-9.06105636101392
30
0.000000000000000
11
-101.874361232648
21
-9.07344404418523
31
0.000000000000000
  0
LINE
  5
F108B5
330
F108B6
100
AcDbEntity
8
Geo
100
AcDbLine
10
-101.874361232648
20
-9.07344404418523
30
0.000000000000000
11
-101.871392761756
21
-9.08593959934819
31
0.000000000000000
  0
LINE
  5
F108B7
330
F108B8
100
AcDbEntity
8
Geo
100
AcDbLine
10
-101.871392761756
20
-9.08593959934819
30
0.000000000000000
11
-101.868853190235
21
-9.09852834139731
31
0.000000000000000
  0
LINE
  5
F108B9
330
F108BA
100
AcDbEntity
8
Geo
100
AcDbLine
10
-101.868853190235
20
-9.09852834139731
30
0.000000000000000
11
-101.866745502656
21
-9.11119547571143
31
0.000000000000000
  0
LINE
  5
F108BB
330
F108BC
100
AcDbEntity
8
Geo
100
AcDbLine
10
-101.866745502656
20
-9.11119547571143
30
0.000000000000000
11
-101.865072176031
21
-9.12392611554076
31
0.000000000000000
  0
LINE
  5
F108BD
330
F108BE
100
AcDbEntity
8
Geo
100
AcDbLine
10
-101.865072176031
20
-9.12392611554076
30
0.000000000000000
11
-101.863835176896
21
-9.13670529950212
31
0.000000000000000
  0
LINE
  5
F108BF
330
F108C0
100
AcDbEntity
8
Geo
100
AcDbLine
10
-101.863835176896
20
-9.13670529950212
30
0.000000000000000
11
-101.863035959005
21
-9.14951800916200
31
0.000000000000000
  0
LINE
  5
F108C1
330
F108C2
100
AcDbEntity
8
Geo
100
AcDbLine
10
-101.863035959005
20
-9.14951800916200
30
0.000000000000000
11
-101.862675461620
21
-9.16234918668663
31
0.000000000000000
  0
LINE
  5
F108C3
330
F108C4
100
AcDbEntity
8
Geo
100
AcDbLine
10
-101.862675461620
20
-9.16234918668663
30
0.000000000000000
11
-101.862754108407
21
-9.17518375253828
31
0.000000000000000
  0
LINE
  5
F108C5
330
F108C6
100
AcDbEntity
8
Geo
100
AcDbLine
10
-101.862754108407
20
-9.17518375253828
30
0.000000000000000
11
-101.863271806939
21
-9.18800662319719
31
0.000000000000000
  0
LINE
  5
F108C7
330
F108C8
100
AcDbEntity
8
Geo
100
AcDbLine
10
-101.863271806939
20
-9.18800662319719
30
0.000000000000000
11
-101.864227948802
21
-9.20080272888810
31
0.000000000000000
  0
LINE
  5
F108C9
330
F108CA
100
AcDbEntity
8
Geo
100
AcDbLine
10
-101.864227948802
20
-9.20080272888810
30
0.000000000000000
11
-101.865621410313
21
-9.21355703129064
31
0.000000000000000
  0
LINE
  5
F108CB
330
F108CC
100
AcDbEntity
8
Geo
100
AcDbLine
10
-101.865621410313
20
-9.21355703129064
30
0.000000000000000
11
-101.867450553840
21
-9.22625454121277
31
0.000000000000000
  0
LINE
  5
F108CD
330
F108CE
100
AcDbEntity
8
Geo
100
AcDbLine
10
-101.867450553840
20
-9.22625454121277
30
0.000000000000000
11
-101.869713229725
21
-9.23888033620646
31
0.000000000000000
  0
LINE
  5
F108CF
330
F108D0
100
AcDbEntity
8
Geo
100
AcDbLine
10
-101.869713229725
20
-9.23888033620646
30
0.000000000000000
11
-101.872406778812
21
-9.25141957810497
31
0.000000000000000
  0
LINE
  5
F108D1
330
F108D2
100
AcDbEntity
8
Geo
100
AcDbLine
10
-101.872406778812
20
-9.25141957810497
30
0.000000000000000
11
-101.875528035571
21
-9.26385753046101
31
0.000000000000000
  0
LINE
  5
F108D3
330
F108D4
100
AcDbEntity
8
Geo
100
AcDbLine
10
-101.875528035571
20
-9.26385753046101
30
0.000000000000000
11
-101.879073331819
21
-9.27617957586544
31
0.000000000000000
  0
LINE
  5
F108D5
330
F108D6
100
AcDbEntity
8
Geo
100
AcDbLine
10
-101.879073331819
20
-9.27617957586544
30
0.000000000000000
11
-101.883038501030
21
-9.28837123312603
31
0.000000000000000
  0
LINE
  5
F108D7
330
F108D8
100
AcDbEntity
8
Geo
100
AcDbLine
10
-101.883038501030
20
-9.28837123312603
30
0.000000000000000
11
-101.887418883233
21
-9.30041817428613
31
0.000000000000000
  0
LINE
  5
F108D9
330
F108DA
100
AcDbEntity
8
Geo
100
AcDbLine
10
-101.887418883233
20
-9.30041817428613
30
0.000000000000000
11
-101.892209330487
21
-9.31230624146324
31
0.000000000000000
  0
LINE
  5
F108DB
330
F108DC
100
AcDbEntity
8
Geo
100
AcDbLine
10
-101.892209330487
20
-9.31230624146324
30
0.000000000000000
11
-101.897404212933
21
-9.32402146348777
31
0.000000000000000
  0
LINE
  5
F108DD
330
F108DE
100
AcDbEntity
8
Geo
100
AcDbLine
10
-101.897404212933
20
-9.32402146348777
30
0.000000000000000
11
-102.089197076622
21
-9.73725483935270
31
0.000000000000000
  0
LINE
  5
F108DF
330
F108E0
100
AcDbEntity
8
Geo
100
AcDbLine
10
-102.089197076622
20
-9.73725483935270
30
0.000000000000000
11
-102.280989940311
21
-10.1504882152176
31
0.000000000000000
  0
LINE
  5
F108E1
330
F108E2
100
AcDbEntity
8
Geo
100
AcDbLine
10
-102.280989940311
20
-10.1504882152176
30
0.000000000000000
11
-102.472782804000
21
-10.5637215910826
31
0.000000000000000
  0
LINE
  5
F108E3
330
F108E4
100
AcDbEntity
8
Geo
100
AcDbLine
10
-102.472782804000
20
-10.5637215910826
30
0.000000000000000
11
-102.664575667688
21
-10.9769549669475
31
0.000000000000000
  0
LINE
  5
F108E5
330
F108E6
100
AcDbEntity
8
Geo
100
AcDbLine
10
-102.664575667688
20
-10.9769549669475
30
0.000000000000000
11
-102.856368531377
21
-11.3901883428124
31
0.000000000000000
  0
LINE
  5
F108E7
330
F108E8
100
AcDbEntity
8
Geo
100
AcDbLine
10
-102.856368531377
20
-11.3901883428124
30
0.000000000000000
11
-103.048161395066
21
-11.8034217186773
31
0.000000000000000
  0
LINE
  5
F108E9
330
F108EA
100
AcDbEntity
8
Geo
100
AcDbLine
10
-103.048161395066
20
-11.8034217186773
30
0.000000000000000
11
-103.239954258755
21
-12.2166550945423
31
0.000000000000000
  0
LINE
  5
F108EB
330
F108EC
100
AcDbEntity
8
Geo
100
AcDbLine
10
-103.239954258755
20
-12.2166550945423
30
0.000000000000000
11
-103.431747122443
21
-12.6298884704072
31
0.000000000000000
  0
LINE
  5
F108ED
330
F108EE
100
AcDbEntity
8
Geo
100
AcDbLine
10
-103.431747122443
20
-12.6298884704072
30
0.000000000000000
11
-103.623539986132
21
-13.0431218462721
31
0.000000000000000
  0
LINE
  5
F108EF
330
F108F0
100
AcDbEntity
8
Geo
100
AcDbLine
10
-103.623539986132
20
-13.0431218462721
30
0.000000000000000
11
-103.687453421315
21
-13.1808285579589
31
0.000000000000000
  0
LINE
  5
F108F1
330
F108F2
100
AcDbEntity
8
Geo
100
AcDbLine
10
-103.687453421315
20
-13.1808285579589
30
0.000000000000000
11
-103.874951694382
21
-13.0860421809418
31
0.000000000000000
  0
LINE
  5
F108F3
330
F108F4
100
AcDbEntity
8
Geo
100
AcDbLine
10
-103.874951694382
20
-13.0860421809418
30
0.000000000000000
11
-104.059055468211
21
-12.9848203446956
31
0.000000000000000
  0
LINE
  5
F108F5
330
F108F6
100
AcDbEntity
8
Geo
100
AcDbLine
10
-104.059055468211
20
-12.9848203446956
30
0.000000000000000
11
-104.239543944698
21
-12.8772844459146
31
0.000000000000000
  0
LINE
  5
F108F7
330
F108F8
100
AcDbEntity
8
Geo
100
AcDbLine
10
-104.239543944698
20
-12.8772844459146
30
0.000000000000000
11
-104.416200661612
21
-12.7635634538323
31
0.000000000000000
  0
LINE
  5
F108F9
330
F108FA
100
AcDbEntity
8
Geo
100
AcDbLine
10
-104.416200661612
20
-12.7635634538323
30
0.000000000000000
11
-104.588813752204
21
-12.6437937555468
31
0.000000000000000
  0
LINE
  5
F108FB
330
F108FC
100
AcDbEntity
8
Geo
100
AcDbLine
10
-104.588813752204
20
-12.6437937555468
30
0.000000000000000
11
-104.757176199299
21
-12.5181189924501
31
0.000000000000000
  0
LINE
  5
F108FD
330
F108FE
100
AcDbEntity
8
Geo
100
AcDbLine
10
-104.757176199299
20
-12.5181189924501
30
0.000000000000000
11
-104.921086083575
21
-12.3866898879568
31
0.000000000000000
  0
LINE
  5
F108FF
330
F10900
100
AcDbEntity
8
Geo
100
AcDbLine
10
-104.921086083575
20
-12.3866898879568
30
0.000000000000000
11
-105.080346825728
21
-12.2496640667399
31
0.000000000000000
  0
LINE
  5
F10901
330
F10902
100
AcDbEntity
8
Geo
100
AcDbLine
10
-105.080346825728
20
-12.2496640667399
30
0.000000000000000
11
-105.234767422231
21
-12.1072058656888
31
0.000000000000000
  0
LINE
  5
F10903
330
F10904
100
AcDbEntity
8
Geo
100
AcDbLine
10
-105.234767422231
20
-12.1072058656888
30
0.000000000000000
11
-105.384162674411
21
-11.9594861368188
31
0.000000000000000
  0
LINE
  5
F10905
330
F10906
100
AcDbEntity
8
Geo
100
AcDbLine
10
-105.384162674411
20
-11.9594861368188
30
0.000000000000000
11
-105.528353410553
21
-11.8066820423650
31
0.000000000000000
  0
LINE
  5
F10907
330
F10908
100
AcDbEntity
8
Geo
100
AcDbLine
10
-105.528353410553
20
-11.8066820423650
30
0.000000000000000
11
-105.667166700792
21
-11.6489768423100
31
0.000000000000000
  0
LINE
  5
F10909
330
F1090A
100
AcDbEntity
8
Geo
100
AcDbLine
10
-105.667166700792
20
-11.6489768423100
30
0.000000000000000
11
-105.800436064501
21
-11.4865596745976
31
0.000000000000000
  0
LINE
  5
F1090B
330
F1090C
100
AcDbEntity
8
Geo
100
AcDbLine
10
-105.800436064501
20
-11.4865596745976
30
0.000000000000000
11
-105.928001669961
21
-11.3196253282968
31
0.000000000000000
  0
LINE
  5
F1090D
330
F1090E
100
AcDbEntity
8
Geo
100
AcDbLine
10
-105.928001669961
20
-11.3196253282968
30
0.000000000000000
11
-106.049710526044
21
-11.1483740099893
31
0.000000000000000
  0
LINE
  5
F1090F
330
F10910
100
AcDbEntity
8
Geo
100
AcDbLine
10
-106.049710526044
20
-11.1483740099893
30
0.000000000000000
11
-106.165416665701
21
-10.9730111036584
31
0.000000000000000
  0
LINE
  5
F10911
330
F10912
100
AcDbEntity
8
Geo
100
AcDbLine
10
-106.165416665701
20
-10.9730111036584
30
0.000000000000000
11
-106.274981321020
21
-10.7937469243698
31
0.000000000000000
  0
LINE
  5
F10913
330
F10914
100
AcDbEntity
8
Geo
100
AcDbLine
10
-101.091249314151
20
-5.38675548377717
30
0.000000000000000
11
-101.091249314151
21
-5.36817079826995
31
0.000000000000000
  0
LINE
  5
F10915
330
F10916
100
AcDbEntity
8
Geo
100
AcDbLine
10
-101.091249314151
20
-5.36817079826995
30
0.000000000000000
11
-101.091249314151
21
-5.24433812356347
31
0.000000000000000
  0
LINE
  5
F10917
330
F10918
100
AcDbEntity
8
Geo
100
AcDbLine
10
-101.091249314151
20
-5.24433812356347
30
0.000000000000000
11
-101.091249314151
21
-5.12050765426480
31
0.000000000000000
  0
LINE
  5
F10919
330
F1091A
100
AcDbEntity
8
Geo
100
AcDbLine
10
-101.091249314151
20
-5.12050765426480
30
0.000000000000000
11
-101.091249314151
21
-4.99667908954147
31
0.000000000000000
  0
LINE
  5
F1091B
330
F1091C
100
AcDbEntity
8
Geo
100
AcDbLine
10
-101.091249314151
20
-4.99667908954147
30
0.000000000000000
11
-101.091249314151
21
-4.87285218089900
31
0.000000000000000
  0
LINE
  5
F1091D
330
F1091E
100
AcDbEntity
8
Geo
100
AcDbLine
10
-101.091249314151
20
-4.87285218089900
30
0.000000000000000
11
-101.091249314151
21
-4.74902672127268
31
0.000000000000000
  0
LINE
  5
F1091F
330
F10920
100
AcDbEntity
8
Geo
100
AcDbLine
10
-101.091249314151
20
-4.74902672127268
30
0.000000000000000
11
-101.091249314151
21
-4.62520253673842
31
0.000000000000000
  0
LINE
  5
F10921
330
F10922
100
AcDbEntity
8
Geo
100
AcDbLine
10
-101.091249314151
20
-4.62520253673842
30
0.000000000000000
11
-101.091249314151
21
-4.50137948013733
31
0.000000000000000
  0
LINE
  5
F10923
330
F10924
100
AcDbEntity
8
Geo
100
AcDbLine
10
-101.091249314151
20
-4.50137948013733
30
0.000000000000000
11
-101.091249314151
21
-4.37755742611756
31
0.000000000000000
  0
LINE
  5
F10925
330
F10926
100
AcDbEntity
8
Geo
100
AcDbLine
10
-101.091249314151
20
-4.37755742611756
30
0.000000000000000
11
-101.091249314151
21
-4.25373626723910
31
0.000000000000000
  0
LINE
  5
F10927
330
F10928
100
AcDbEntity
8
Geo
100
AcDbLine
10
-101.091249314151
20
-4.25373626723910
30
0.000000000000000
11
-101.091249314151
21
-4.12991591088459
31
0.000000000000000
  0
LINE
  5
F10929
330
F1092A
100
AcDbEntity
8
Geo
100
AcDbLine
10
-101.091249314151
20
-4.12991591088459
30
0.000000000000000
11
-101.091249314151
21
-4.00609627678828
31
0.000000000000000
  0
LINE
  5
F1092B
330
F1092C
100
AcDbEntity
8
Geo
100
AcDbLine
10
-101.091249314151
20
-4.00609627678828
30
0.000000000000000
11
-101.091249314151
21
-3.88227729504334
31
0.000000000000000
  0
LINE
  5
F1092D
330
F1092E
100
AcDbEntity
8
Geo
100
AcDbLine
10
-101.091249314151
20
-3.88227729504334
30
0.000000000000000
11
-101.091249314151
21
-3.75845890448289
31
0.000000000000000
  0
LINE
  5
F1092F
330
F10930
100
AcDbEntity
8
Geo
100
AcDbLine
10
-101.091249314151
20
-3.75845890448289
30
0.000000000000000
11
-101.091249314151
21
-3.63464105135557
31
0.000000000000000
  0
LINE
  5
F10931
330
F10932
100
AcDbEntity
8
Geo
100
AcDbLine
10
-101.091249314151
20
-3.63464105135557
30
0.000000000000000
11
-101.091249314151
21
-3.51082368823468
31
0.000000000000000
  0
LINE
  5
F10933
330
F10934
100
AcDbEntity
8
Geo
100
AcDbLine
10
-101.091249314151
20
-3.51082368823468
30
0.000000000000000
11
-101.091249314151
21
-3.38700677311457
31
0.000000000000000
  0
LINE
  5
F10935
330
F10936
100
AcDbEntity
8
Geo
100
AcDbLine
10
-101.091249314151
20
-3.38700677311457
30
0.000000000000000
11
-101.091249314151
21
-3.26319026865757
31
0.000000000000000
  0
LINE
  5
F10937
330
F10938
100
AcDbEntity
8
Geo
100
AcDbLine
10
-101.091249314151
20
-3.26319026865757
30
0.000000000000000
11
-101.091249314151
21
-3.13937414156309
31
0.000000000000000
  0
LINE
  5
F10939
330
F1093A
100
AcDbEntity
8
Geo
100
AcDbLine
10
-101.091249314151
20
-3.13937414156309
30
0.000000000000000
11
-101.091249314151
21
-3.01555836203626
31
0.000000000000000
  0
LINE
  5
F1093B
330
F1093C
100
AcDbEntity
8
Geo
100
AcDbLine
10
-101.091249314151
20
-3.01555836203626
30
0.000000000000000
11
-101.091249314151
21
-2.89174290333853
31
0.000000000000000
  0
LINE
  5
F1093D
330
F1093E
100
AcDbEntity
8
Geo
100
AcDbLine
10
-101.091249314151
20
-2.89174290333853
30
0.000000000000000
11
-101.091249314151
21
-2.76792774140548
31
0.000000000000000
  0
LINE
  5
F1093F
330
F10940
100
AcDbEntity
8
Geo
100
AcDbLine
10
-101.091249314151
20
-2.76792774140548
30
0.000000000000000
11
-101.091249314151
21
-2.64411285452074
31
0.000000000000000
  0
LINE
  5
F10941
330
F10942
100
AcDbEntity
8
Geo
100
AcDbLine
10
-101.091249314151
20
-2.64411285452074
30
0.000000000000000
11
-101.091249314151
21
-2.52029822303634
31
0.000000000000000
  0
LINE
  5
F10943
330
F10944
100
AcDbEntity
8
Geo
100
AcDbLine
10
-101.091249314151
20
-2.52029822303634
30
0.000000000000000
11
-101.091249314151
21
-2.39648382913223
31
0.000000000000000
  0
LINE
  5
F10945
330
F10946
100
AcDbEntity
8
Geo
100
AcDbLine
10
-101.091249314151
20
-2.39648382913223
30
0.000000000000000
11
-101.091249314151
21
-2.27266965660853
31
0.000000000000000
  0
LINE
  5
F10947
330
F10948
100
AcDbEntity
8
Geo
100
AcDbLine
10
-101.091249314151
20
-2.27266965660853
30
0.000000000000000
11
-101.091249314151
21
-2.14885569070547
31
0.000000000000000
  0
LINE
  5
F10949
330
F1094A
100
AcDbEntity
8
Geo
100
AcDbLine
10
-101.091249314151
20
-2.14885569070547
30
0.000000000000000
11
-101.091249314151
21
-2.02504191794686
31
0.000000000000000
  0
LINE
  5
F1094B
330
F1094C
100
AcDbEntity
8
Geo
100
AcDbLine
10
-101.091249314151
20
-2.02504191794686
30
0.000000000000000
11
-101.091249314151
21
-1.90122832600351
31
0.000000000000000
  0
LINE
  5
F1094D
330
F1094E
100
AcDbEntity
8
Geo
100
AcDbLine
10
-101.091249314151
20
-1.90122832600351
30
0.000000000000000
11
-101.091249314151
21
-1.77741490357375
31
0.000000000000000
  0
LINE
  5
F1094F
330
F10950
100
AcDbEntity
8
Geo
100
AcDbLine
10
-101.091249314151
20
-1.77741490357375
30
0.000000000000000
11
-101.091249314151
21
-1.65360164027854
31
0.000000000000000
  0
LINE
  5
F10951
330
F10952
100
AcDbEntity
8
Geo
100
AcDbLine
10
-99.0005233719878
20
-8.84634096493391
30
0.000000000000000
11
-98.9844285622172
21
-8.85563330768753
31
0.000000000000000
  0
LINE
  5
F10953
330
F10954
100
AcDbEntity
8
Geo
100
AcDbLine
10
-98.9844285622172
20
-8.85563330768753
30
0.000000000000000
11
-98.8771863201028
21
-8.91754964504077
31
0.000000000000000
  0
LINE
  5
F10955
330
F10956
100
AcDbEntity
8
Geo
100
AcDbLine
10
-98.8771863201028
20
-8.91754964504077
30
0.000000000000000
11
-98.7699459879276
21
-8.97946487969010
31
0.000000000000000
  0
LINE
  5
F10957
330
F10958
100
AcDbEntity
8
Geo
100
AcDbLine
10
-98.7699459879276
20
-8.97946487969010
30
0.000000000000000
11
-98.6627073051630
21
-9.04137916205177
31
0.000000000000000
  0
LINE
  5
F10959
330
F1095A
100
AcDbEntity
8
Geo
100
AcDbLine
10
-98.6627073051630
20
-9.04137916205177
30
0.000000000000000
11
-98.5554700566065
21
-9.10329261637301
31
0.000000000000000
  0
LINE
  5
F1095B
330
F1095C
100
AcDbEntity
8
Geo
100
AcDbLine
10
-98.5554700566065
20
-9.10329261637301
30
0.000000000000000
11
-98.4482340629349
21
-9.16520534618616
31
0.000000000000000
  0
LINE
  5
F1095D
330
F1095E
100
AcDbEntity
8
Geo
100
AcDbLine
10
-98.4482340629349
20
-9.16520534618616
30
0.000000000000000
11
-98.3409991735253
21
-9.22711743845329
31
0.000000000000000
  0
LINE
  5
F1095F
330
F10960
100
AcDbEntity
8
Geo
100
AcDbLine
10
-98.3409991735253
20
-9.22711743845329
30
0.000000000000000
11
-98.2337652609345
21
-9.28902896675384
31
0.000000000000000
  0
LINE
  5
F10961
330
F10962
100
AcDbEntity
8
Geo
100
AcDbLine
10
-98.2337652609345
20
-9.28902896675384
30
0.000000000000000
11
-98.1265322166046
21
-9.35093999376372
31
0.000000000000000
  0
LINE
  5
F10963
330
F10964
100
AcDbEntity
8
Geo
100
AcDbLine
10
-98.1265322166046
20
-9.35093999376372
30
0.000000000000000
11
-98.0192999474899
21
-9.41285057320295
31
0.000000000000000
  0
LINE
  5
F10965
330
F10966
100
AcDbEntity
8
Geo
100
AcDbLine
10
-98.0192999474899
20
-9.41285057320295
30
0.000000000000000
11
-97.9120683733812
21
-9.47476075138021
31
0.000000000000000
  0
LINE
  5
F10967
330
F10968
100
AcDbEntity
8
Geo
100
AcDbLine
10
-97.9120683733812
20
-9.47476075138021
30
0.000000000000000
11
-97.8048374247665
21
-9.53667056842836
31
0.000000000000000
  0
LINE
  5
F10969
330
F1096A
100
AcDbEntity
8
Geo
100
AcDbLine
10
-97.8048374247665
20
-9.53667056842836
30
0.000000000000000
11
-97.6976070411047
21
-9.59858005930084
31
0.000000000000000
  0
LINE
  5
F1096B
330
F1096C
100
AcDbEntity
8
Geo
100
AcDbLine
10
-97.6976070411047
20
-9.59858005930084
30
0.000000000000000
11
-97.5903771694236
21
-9.66048925458105
31
0.000000000000000
  0
LINE
  5
F1096D
330
F1096E
100
AcDbEntity
8
Geo
100
AcDbLine
10
-97.5903771694236
20
-9.66048925458105
30
0.000000000000000
11
-97.4831477631733
21
-9.72239818114472
31
0.000000000000000
  0
LINE
  5
F1096F
330
F10970
100
AcDbEntity
8
Geo
100
AcDbLine
10
-97.4831477631733
20
-9.72239818114472
30
0.000000000000000
11
-97.3759187812810
21
-9.78430686270516
31
0.000000000000000
  0
LINE
  5
F10971
330
F10972
100
AcDbEntity
8
Geo
100
AcDbLine
10
-97.3759187812810
20
-9.78430686270516
30
0.000000000000000
11
-97.2686901873688
21
-9.84621532026522
31
0.000000000000000
  0
LINE
  5
F10973
330
F10974
100
AcDbEntity
8
Geo
100
AcDbLine
10
-97.2686901873688
20
-9.84621532026522
30
0.000000000000000
11
-97.1614619491012
21
-9.90812357249371
31
0.000000000000000
  0
LINE
  5
F10975
330
F10976
100
AcDbEntity
8
Geo
100
AcDbLine
10
-97.1614619491012
20
-9.90812357249371
30
0.000000000000000
11
-97.0542340376392
21
-9.97003163604096
31
0.000000000000000
  0
LINE
  5
F10977
330
F10978
100
AcDbEntity
8
Geo
100
AcDbLine
10
-97.0542340376392
20
-9.97003163604096
30
0.000000000000000
11
-96.9470064271796
21
-10.0319395258044
31
0.000000000000000
  0
LINE
  5
F10979
330
F1097A
100
AcDbEntity
8
Geo
100
AcDbLine
10
-96.9470064271796
20
-10.0319395258044
30
0.000000000000000
11
-96.8397790945662
21
-10.0938472551532
31
0.000000000000000
  0
LINE
  5
F1097B
330
F1097C
100
AcDbEntity
8
Geo
100
AcDbLine
10
-96.8397790945662
20
-10.0938472551532
30
0.000000000000000
11
-96.7325520189584
21
-10.1557548361198
31
0.000000000000000
  0
LINE
  5
F1097D
330
F1097E
100
AcDbEntity
8
Geo
100
AcDbLine
10
-96.7325520189584
20
-10.1557548361198
30
0.000000000000000
11
-96.6253251815496
21
-10.2176622795621
31
0.000000000000000
  0
LINE
  5
F1097F
330
F10980
100
AcDbEntity
8
Geo
100
AcDbLine
10
-96.6253251815496
20
-10.2176622795621
30
0.000000000000000
11
-96.5180985653239
21
-10.2795695953043
31
0.000000000000000
  0
LINE
  5
F10981
330
F10982
100
AcDbEntity
8
Geo
100
AcDbLine
10
-96.5180985653239
20
-10.2795695953043
30
0.000000000000000
11
-96.4108721548487
21
-10.3414767922564
31
0.000000000000000
  0
LINE
  5
F10983
330
F10984
100
AcDbEntity
8
Geo
100
AcDbLine
10
-96.4108721548487
20
-10.3414767922564
30
0.000000000000000
11
-96.3036459360947
21
-10.4033838785182
31
0.000000000000000
  0
LINE
  5
F10985
330
F10986
100
AcDbEntity
8
Geo
100
AcDbLine
10
-96.3036459360947
20
-10.4033838785182
30
0.000000000000000
11
-96.1964198962793
21
-10.4652908614698
31
0.000000000000000
  0
LINE
  5
F10987
330
F10988
100
AcDbEntity
8
Geo
100
AcDbLine
10
-96.1964198962793
20
-10.4652908614698
30
0.000000000000000
11
-96.0891940237319
21
-10.5271977478491
31
0.000000000000000
  0
LINE
  5
F10989
330
F1098A
100
AcDbEntity
8
Geo
100
AcDbLine
10
-96.0891940237319
20
-10.5271977478491
30
0.000000000000000
11
-95.9819683077752
21
-10.5891045438208
31
0.000000000000000
  0
LINE
  5
F1098B
330
F1098C
100
AcDbEntity
8
Geo
100
AcDbLine
10
-95.9819683077752
20
-10.5891045438208
30
0.000000000000000
11
-95.8747427386215
21
-10.6510112550356
31
0.000000000000000
  0
LINE
  5
F1098D
330
F1098E
100
AcDbEntity
8
Geo
100
AcDbLine
10
-95.8747427386215
20
-10.6510112550356
30
0.000000000000000
11
-95.7675173072824
21
-10.7129178866832
31
0.000000000000000
  0
LINE
  5
F1098F
330
F10990
100
AcDbEntity
8
Geo
100
AcDbLine
10
-103.041975256315
20
-8.92717000262045
30
0.000000000000000
11
-103.058070066086
21
-8.93646234537407
31
0.000000000000000
  0
LINE
  5
F10991
330
F10992
100
AcDbEntity
8
Geo
100
AcDbLine
10
-103.058070066086
20
-8.93646234537407
30
0.000000000000000
11
-103.165312308200
21
-8.99837868272730
31
0.000000000000000
  0
LINE
  5
F10993
330
F10994
100
AcDbEntity
8
Geo
100
AcDbLine
10
-103.165312308200
20
-8.99837868272730
30
0.000000000000000
11
-103.272552640375
21
-9.06029391737663
31
0.000000000000000
  0
LINE
  5
F10995
330
F10996
100
AcDbEntity
8
Geo
100
AcDbLine
10
-103.272552640375
20
-9.06029391737663
30
0.000000000000000
11
-103.379791323140
21
-9.12220819973830
31
0.000000000000000
  0
LINE
  5
F10997
330
F10998
100
AcDbEntity
8
Geo
100
AcDbLine
10
-103.379791323140
20
-9.12220819973830
30
0.000000000000000
11
-103.487028571696
21
-9.18412165405954
31
0.000000000000000
  0
LINE
  5
F10999
330
F1099A
100
AcDbEntity
8
Geo
100
AcDbLine
10
-103.487028571696
20
-9.18412165405954
30
0.000000000000000
11
-103.594264565368
21
-9.24603438387270
31
0.000000000000000
  0
LINE
  5
F1099B
330
F1099C
100
AcDbEntity
8
Geo
100
AcDbLine
10
-103.594264565368
20
-9.24603438387270
30
0.000000000000000
11
-103.701499454778
21
-9.30794647613983
31
0.000000000000000
  0
LINE
  5
F1099D
330
F1099E
100
AcDbEntity
8
Geo
100
AcDbLine
10
-103.701499454778
20
-9.30794647613983
30
0.000000000000000
11
-103.808733367368
21
-9.36985800444038
31
0.000000000000000
  0
LINE
  5
F1099F
330
F109A0
100
AcDbEntity
8
Geo
100
AcDbLine
10
-103.808733367368
20
-9.36985800444038
30
0.000000000000000
11
-103.915966411698
21
-9.43176903145026
31
0.000000000000000
  0
LINE
  5
F109A1
330
F109A2
100
AcDbEntity
8
Geo
100
AcDbLine
10
-103.915966411698
20
-9.43176903145026
30
0.000000000000000
11
-104.023198680813
21
-9.49367961088949
31
0.000000000000000
  0
LINE
  5
F109A3
330
F109A4
100
AcDbEntity
8
Geo
100
AcDbLine
10
-104.023198680813
20
-9.49367961088949
30
0.000000000000000
11
-104.130430254922
21
-9.55558978906674
31
0.000000000000000
  0
LINE
  5
F109A5
330
F109A6
100
AcDbEntity
8
Geo
100
AcDbLine
10
-104.130430254922
20
-9.55558978906674
30
0.000000000000000
11
-104.237661203536
21
-9.61749960611490
31
0.000000000000000
  0
LINE
  5
F109A7
330
F109A8
100
AcDbEntity
8
Geo
100
AcDbLine
10
-104.237661203536
20
-9.61749960611490
30
0.000000000000000
11
-104.344891587198
21
-9.67940909698737
31
0.000000000000000
  0
LINE
  5
F109A9
330
F109AA
100
AcDbEntity
8
Geo
100
AcDbLine
10
-104.344891587198
20
-9.67940909698737
30
0.000000000000000
11
-104.452121458879
21
-9.74131829226760
31
0.000000000000000
  0
LINE
  5
F109AB
330
F109AC
100
AcDbEntity
8
Geo
100
AcDbLine
10
-104.452121458879
20
-9.74131829226760
30
0.000000000000000
11
-104.559350865130
21
-9.80322721883126
31
0.000000000000000
  0
LINE
  5
F109AD
330
F109AE
100
AcDbEntity
8
Geo
100
AcDbLine
10
-104.559350865130
20
-9.80322721883126
30
0.000000000000000
11
-104.666579847022
21
-9.86513590039170
31
0.000000000000000
  0
LINE
  5
F109AF
330
F109B0
100
AcDbEntity
8
Geo
100
AcDbLine
10
-104.666579847022
20
-9.86513590039170
30
0.000000000000000
11
-104.773808440934
21
-9.92704435795176
31
0.000000000000000
  0
LINE
  5
F109B1
330
F109B2
100
AcDbEntity
8
Geo
100
AcDbLine
10
-104.773808440934
20
-9.92704435795176
30
0.000000000000000
11
-104.881036679202
21
-9.98895261018026
31
0.000000000000000
  0
LINE
  5
F109B3
330
F109B4
100
AcDbEntity
8
Geo
100
AcDbLine
10
-104.881036679202
20
-9.98895261018026
30
0.000000000000000
11
-104.988264590664
21
-10.0508606737275
31
0.000000000000000
  0
LINE
  5
F109B5
330
F109B6
100
AcDbEntity
8
Geo
100
AcDbLine
10
-104.988264590664
20
-10.0508606737275
30
0.000000000000000
11
-105.095492201123
21
-10.1127685634909
31
0.000000000000000
  0
LINE
  5
F109B7
330
F109B8
100
AcDbEntity
8
Geo
100
AcDbLine
10
-105.095492201123
20
-10.1127685634909
30
0.000000000000000
11
-105.202719533737
21
-10.1746762928398
31
0.000000000000000
  0
LINE
  5
F109B9
330
F109BA
100
AcDbEntity
8
Geo
100
AcDbLine
10
-105.202719533737
20
-10.1746762928398
30
0.000000000000000
11
-105.309946609344
21
-10.2365838738063
31
0.000000000000000
  0
LINE
  5
F109BB
330
F109BC
100
AcDbEntity
8
Geo
100
AcDbLine
10
-105.309946609344
20
-10.2365838738063
30
0.000000000000000
11
-105.417173446753
21
-10.2984913172487
31
0.000000000000000
  0
LINE
  5
F109BD
330
F109BE
100
AcDbEntity
8
Geo
100
AcDbLine
10
-105.417173446753
20
-10.2984913172487
30
0.000000000000000
11
-105.524400062979
21
-10.3603986329909
31
0.000000000000000
  0
LINE
  5
F109BF
330
F109C0
100
AcDbEntity
8
Geo
100
AcDbLine
10
-105.524400062979
20
-10.3603986329909
30
0.000000000000000
11
-105.631626473454
21
-10.4223058299429
31
0.000000000000000
  0
LINE
  5
F109C1
330
F109C2
100
AcDbEntity
8
Geo
100
AcDbLine
10
-105.631626473454
20
-10.4223058299429
30
0.000000000000000
11
-105.738852692208
21
-10.4842129162048
31
0.000000000000000
  0
LINE
  5
F109C3
330
F109C4
100
AcDbEntity
8
Geo
100
AcDbLine
10
-105.738852692208
20
-10.4842129162048
30
0.000000000000000
11
-105.846078732024
21
-10.5461198991563
31
0.000000000000000
  0
LINE
  5
F109C5
330
F109C6
100
AcDbEntity
8
Geo
100
AcDbLine
10
-105.846078732024
20
-10.5461198991563
30
0.000000000000000
11
-105.953304604571
21
-10.6080267855356
31
0.000000000000000
  0
LINE
  5
F109C7
330
F109C8
100
AcDbEntity
8
Geo
100
AcDbLine
10
-105.953304604571
20
-10.6080267855356
30
0.000000000000000
11
-106.060530320528
21
-10.6699335815073
31
0.000000000000000
  0
LINE
  5
F109C9
330
F109CA
100
AcDbEntity
8
Geo
100
AcDbLine
10
-106.060530320528
20
-10.6699335815073
30
0.000000000000000
11
-106.167755889681
21
-10.7318402927222
31
0.000000000000000
  0
LINE
  5
F109CB
330
F109CC
100
AcDbEntity
8
Geo
100
AcDbLine
10
-106.167755889681
20
-10.7318402927222
30
0.000000000000000
11
-106.274981321020
21
-10.7937469243698
31
0.000000000000000
  0
LWPOLYLINE
  5
F109CD
330
F109CE
100
AcDbEntity
8
Rahmen
100
AcDbPolyline
90
   4
70
   1
43
   0.0
 10
-123.586206896552
 20
14.7241379310345
 10
-78.6896551724138
 20
14.7241379310345
 10
-78.6896551724138
 20
-30.1724137931034
 10
-123.586206896552
 20
-30.1724137931034
  0
TEXT
  5
F109CF
330
F109D0
 100
AcDbEntity
8
Text
100
AcDbText
10
-230.758620689655
20
105.500000000000
30
0.000000000000000
40
1.00000000000000
1
 -       
100
AcDbText
  0
LWPOLYLINE
  5
F109D1
330
F109D2
100
AcDbEntity
8
Rahmen
100
AcDbPolyline
90
   4
70
   1
43
   0.0
 10
-122.379310344828
 20
-31.3793103448276
 10
-104.517241379310
 20
-31.3793103448276
 10
-104.517241379310
 20
-35.4827586206897
 10
-122.379310344828
 20
-35.4827586206897
  0
TEXT
  5
F109D3
330
F109D4
 100
AcDbEntity
8
Text
100
AcDbText
10
-120.448275862069
20
-34.0459770114943
30
0.000000000000000
40
2.00000000000000
1
Stirn 28:3
100
AcDbText
  0
LWPOLYLINE
  5
F109D5
330
F109D6
100
AcDbEntity
8
Rahmen
100
AcDbPolyline
90
   4
70
   1
43
   0.0
 10
-230.758620689655
 20
105.000000000000
 10
-230.758620689655
 20
105.000000000000
 10
-230.758620689655
 20
105.000000000000
 10
-230.758620689655
 20
105.000000000000
  0
TEXT
  5
F109D7
330
F109D8
 100
AcDbEntity
8
Text
100
AcDbText
10
-230.758620689655
20
105.500000000000
30
0.000000000000000
40
1.00000000000000
1
 -       
100
AcDbText
  0
LWPOLYLINE
  5
F109D9
330
F109DA
100
AcDbEntity
8
Rahmen
100
AcDbPolyline
90
   4
70
   1
43
   0.0
 10
-134.448275862069
 20
-64.2068965517241
 10
-126.482758620690
 20
-64.2068965517241
 10
-126.482758620690
 20
-68.3103448275862
 10
-134.448275862069
 20
-68.3103448275862
  0
TEXT
  5
F109DB
330
F109DC
 100
AcDbEntity
8
Text
100
AcDbText
10
-132.517241379310
20
-66.8735632183908
30
0.000000000000000
40
2.00000000000000
1

100
AcDbText
  0
LWPOLYLINE
  5
F109DD
330
F109DE
100
AcDbEntity
8
Rahmen
100
AcDbPolyline
90
   4
70
   1
43
   0.0
 10
-126.482758620690
 20
-64.2068965517241
 10
-111.517241379310
 20
-64.2068965517241
 10
-111.517241379310
 20
-68.3103448275862
 10
-126.482758620690
 20
-68.3103448275862
  0
TEXT
  5
F109DF
330
F109E0
 100
AcDbEntity
8
Text
100
AcDbText
10
-124.551724137931
20
-66.8735632183908
30
0.000000000000000
40
2.00000000000000
1

100
AcDbText
  0
LWPOLYLINE
  5
F109E1
330
F109E2
100
AcDbEntity
8
Rahmen
100
AcDbPolyline
90
   4
70
   1
43
   0.0
 10
-111.517241379310
 20
-64.2068965517241
 10
-31.6206896551724
 20
-64.2068965517241
 10
-31.6206896551724
 20
-68.3103448275862
 10
-111.517241379310
 20
-68.3103448275862
  0
TEXT
  5
F109E3
330
F109E4
 100
AcDbEntity
8
Text
100
AcDbText
10
-109.586206896552
20
-66.8735632183908
30
0.000000000000000
40
2.00000000000000
1

100
AcDbText
  0
LWPOLYLINE
  5
F109E5
330
F109E6
100
AcDbEntity
8
Rahmen
100
AcDbPolyline
90
   4
70
   1
43
   0.0
 10
-31.6206896551724
 20
-64.2068965517241
 10
-11.5862068965517
 20
-64.2068965517241
 10
-11.5862068965517
 20
-68.3103448275862
 10
-31.6206896551724
 20
-68.3103448275862
  0
TEXT
  5
F109E7
330
F109E8
 100
AcDbEntity
8
Text
100
AcDbText
10
-29.6896551724138
20
-66.8735632183908
30
0.000000000000000
40
2.00000000000000
1

100
AcDbText
  0
LWPOLYLINE
  5
F109E9
330
F109EA
100
AcDbEntity
8
Rahmen
100
AcDbPolyline
90
   4
70
   1
43
   0.0
 10
-11.5862068965517
 20
-64.2068965517241
 10
8.44827586206898
 20
-64.2068965517241
 10
8.44827586206898
 20
-68.3103448275862
 10
-11.5862068965517
 20
-68.3103448275862
  0
TEXT
  5
F109EB
330
F109EC
 100
AcDbEntity
8
Text
100
AcDbText
10
-9.65517241379311
20
-66.8735632183908
30
0.000000000000000
40
2.00000000000000
1

100
AcDbText
  0
LWPOLYLINE
  5
F109ED
330
F109EE
100
AcDbEntity
8
Rahmen
100
AcDbPolyline
90
   4
70
   1
43
   0.0
 10
-134.448275862069
 20
-68.3103448275862
 10
-126.482758620690
 20
-68.3103448275862
 10
-126.482758620690
 20
-72.1724137931035
 10
-134.448275862069
 20
-72.1724137931035
  0
TEXT
  5
F109EF
330
F109F0
 100
AcDbEntity
8
Text
100
AcDbText
10
-132.517241379310
20
-70.7356321839081
30
0.000000000000000
40
2.00000000000000
1

100
AcDbText
  0
LWPOLYLINE
  5
F109F1
330
F109F2
100
AcDbEntity
8
Rahmen
100
AcDbPolyline
90
   4
70
   1
43
   0.0
 10
-126.482758620690
 20
-68.3103448275862
 10
-111.517241379310
 20
-68.3103448275862
 10
-111.517241379310
 20
-72.1724137931035
 10
-126.482758620690
 20
-72.1724137931035
  0
TEXT
  5
F109F3
330
F109F4
 100
AcDbEntity
8
Text
100
AcDbText
10
-124.551724137931
20
-70.7356321839081
30
0.000000000000000
40
2.00000000000000
1

100
AcDbText
  0
LWPOLYLINE
  5
F109F5
330
F109F6
100
AcDbEntity
8
Rahmen
100
AcDbPolyline
90
   4
70
   1
43
   0.0
 10
-111.517241379310
 20
-68.3103448275862
 10
-31.6206896551724
 20
-68.3103448275862
 10
-31.6206896551724
 20
-72.1724137931035
 10
-111.517241379310
 20
-72.1724137931035
  0
TEXT
  5
F109F7
330
F109F8
 100
AcDbEntity
8
Text
100
AcDbText
10
-109.586206896552
20
-70.7356321839081
30
0.000000000000000
40
2.00000000000000
1

100
AcDbText
  0
LWPOLYLINE
  5
F109F9
330
F109FA
100
AcDbEntity
8
Rahmen
100
AcDbPolyline
90
   4
70
   1
43
   0.0
 10
-31.6206896551724
 20
-68.3103448275862
 10
-11.5862068965517
 20
-68.3103448275862
 10
-11.5862068965517
 20
-72.1724137931035
 10
-31.6206896551724
 20
-72.1724137931035
  0
TEXT
  5
F109FB
330
F109FC
 100
AcDbEntity
8
Text
100
AcDbText
10
-29.6896551724138
20
-70.7356321839081
30
0.000000000000000
40
2.00000000000000
1

100
AcDbText
  0
LWPOLYLINE
  5
F109FD
330
F109FE
100
AcDbEntity
8
Rahmen
100
AcDbPolyline
90
   4
70
   1
43
   0.0
 10
-11.5862068965517
 20
-68.3103448275862
 10
8.44827586206898
 20
-68.3103448275862
 10
8.44827586206898
 20
-72.1724137931035
 10
-11.5862068965517
 20
-72.1724137931035
  0
TEXT
  5
F109FF
330
F10A00
 100
AcDbEntity
8
Text
100
AcDbText
10
-9.65517241379311
20
-70.7356321839081
30
0.000000000000000
40
2.00000000000000
1

100
AcDbText
  0
LWPOLYLINE
  5
F10A01
330
F10A02
100
AcDbEntity
8
Rahmen
100
AcDbPolyline
90
   4
70
   1
43
   0.0
 10
-134.448275862069
 20
-72.1724137931035
 10
-126.482758620690
 20
-72.1724137931035
 10
-126.482758620690
 20
-76.2758620689655
 10
-134.448275862069
 20
-76.2758620689655
  0
TEXT
  5
F10A03
330
F10A04
 100
AcDbEntity
8
Text
100
AcDbText
10
-132.517241379310
20
-74.8390804597701
30
0.000000000000000
40
2.00000000000000
1

100
AcDbText
  0
LWPOLYLINE
  5
F10A05
330
F10A06
100
AcDbEntity
8
Rahmen
100
AcDbPolyline
90
   4
70
   1
43
   0.0
 10
-126.482758620690
 20
-72.1724137931035
 10
-111.517241379310
 20
-72.1724137931035
 10
-111.517241379310
 20
-76.2758620689655
 10
-126.482758620690
 20
-76.2758620689655
  0
TEXT
  5
F10A07
330
F10A08
 100
AcDbEntity
8
Text
100
AcDbText
10
-124.551724137931
20
-74.8390804597701
30
0.000000000000000
40
2.00000000000000
1

100
AcDbText
  0
LWPOLYLINE
  5
F10A09
330
F10A0A
100
AcDbEntity
8
Rahmen
100
AcDbPolyline
90
   4
70
   1
43
   0.0
 10
-111.517241379310
 20
-72.1724137931035
 10
-31.6206896551724
 20
-72.1724137931035
 10
-31.6206896551724
 20
-76.2758620689655
 10
-111.517241379310
 20
-76.2758620689655
  0
TEXT
  5
F10A0B
330
F10A0C
 100
AcDbEntity
8
Text
100
AcDbText
10
-109.586206896552
20
-74.8390804597701
30
0.000000000000000
40
2.00000000000000
1

100
AcDbText
  0
LWPOLYLINE
  5
F10A0D
330
F10A0E
100
AcDbEntity
8
Rahmen
100
AcDbPolyline
90
   4
70
   1
43
   0.0
 10
-31.6206896551724
 20
-72.1724137931035
 10
-11.5862068965517
 20
-72.1724137931035
 10
-11.5862068965517
 20
-76.2758620689655
 10
-31.6206896551724
 20
-76.2758620689655
  0
TEXT
  5
F10A0F
330
F10A10
 100
AcDbEntity
8
Text
100
AcDbText
10
-29.6896551724138
20
-74.8390804597701
30
0.000000000000000
40
2.00000000000000
1

100
AcDbText
  0
LWPOLYLINE
  5
F10A11
330
F10A12
100
AcDbEntity
8
Rahmen
100
AcDbPolyline
90
   4
70
   1
43
   0.0
 10
-11.5862068965517
 20
-72.1724137931035
 10
8.44827586206898
 20
-72.1724137931035
 10
8.44827586206898
 20
-76.2758620689655
 10
-11.5862068965517
 20
-76.2758620689655
  0
TEXT
  5
F10A13
330
F10A14
 100
AcDbEntity
8
Text
100
AcDbText
10
-9.65517241379311
20
-74.8390804597701
30
0.000000000000000
40
2.00000000000000
1

100
AcDbText
  0
LWPOLYLINE
  5
F10A15
330
F10A16
100
AcDbEntity
8
Rahmen
100
AcDbPolyline
90
   4
70
   1
43
   0.0
 10
-134.448275862069
 20
-76.2758620689655
 10
-126.482758620690
 20
-76.2758620689655
 10
-126.482758620690
 20
-80.1379310344828
 10
-134.448275862069
 20
-80.1379310344828
  0
TEXT
  5
F10A17
330
F10A18
 100
AcDbEntity
8
Text
100
AcDbText
10
-132.517241379310
20
-78.7011494252874
30
0.000000000000000
40
2.00000000000000
1
No.
100
AcDbText
  0
LWPOLYLINE
  5
F10A19
330
F10A1A
100
AcDbEntity
8
Rahmen
100
AcDbPolyline
90
   4
70
   1
43
   0.0
 10
-126.482758620690
 20
-76.2758620689655
 10
-111.517241379310
 20
-76.2758620689655
 10
-111.517241379310
 20
-80.1379310344828
 10
-126.482758620690
 20
-80.1379310344828
  0
TEXT
  5
F10A1B
330
F10A1C
 100
AcDbEntity
8
Text
100
AcDbText
10
-124.551724137931
20
-78.7011494252874
30
0.000000000000000
40
2.00000000000000
1
Datum
100
AcDbText
  0
LWPOLYLINE
  5
F10A1D
330
F10A1E
100
AcDbEntity
8
Rahmen
100
AcDbPolyline
90
   4
70
   1
43
   0.0
 10
-111.517241379310
 20
-76.2758620689655
 10
-31.6206896551724
 20
-76.2758620689655
 10
-31.6206896551724
 20
-80.1379310344828
 10
-111.517241379310
 20
-80.1379310344828
  0
TEXT
  5
F10A1F
330
F10A20
 100
AcDbEntity
8
Text
100
AcDbText
10
-109.586206896552
20
-78.7011494252874
30
0.000000000000000
40
2.00000000000000
1
Revision
100
AcDbText
  0
LWPOLYLINE
  5
F10A21
330
F10A22
100
AcDbEntity
8
Rahmen
100
AcDbPolyline
90
   4
70
   1
43
   0.0
 10
-31.6206896551724
 20
-76.2758620689655
 10
-11.5862068965517
 20
-76.2758620689655
 10
-11.5862068965517
 20
-80.1379310344828
 10
-31.6206896551724
 20
-80.1379310344828
  0
TEXT
  5
F10A23
330
F10A24
 100
AcDbEntity
8
Text
100
AcDbText
10
-29.6896551724138
20
-78.7011494252874
30
0.000000000000000
40
2.00000000000000
1
REV
100
AcDbText
  0
LWPOLYLINE
  5
F10A25
330
F10A26
100
AcDbEntity
8
Rahmen
100
AcDbPolyline
90
   4
70
   1
43
   0.0
 10
-11.5862068965517
 20
-76.2758620689655
 10
8.44827586206898
 20
-76.2758620689655
 10
8.44827586206898
 20
-80.1379310344828
 10
-11.5862068965517
 20
-80.1379310344828
  0
TEXT
  5
F10A27
330
F10A28
 100
AcDbEntity
8
Text
100
AcDbText
10
-9.65517241379311
20
-78.7011494252874
30
0.000000000000000
40
2.00000000000000
1
CK
100
AcDbText
  0
LWPOLYLINE
  5
F10A29
330
F10A2A
100
AcDbEntity
8
Rahmen
100
AcDbPolyline
90
   4
70
   1
43
   0.0
 10
-134.931034482759
 20
-80.3793103448276
 10
-103.793103448276
 20
-80.3793103448276
 10
-103.793103448276
 20
-84.4827586206897
 10
-134.931034482759
 20
-84.4827586206897
  0
TEXT
  5
F10A2B
330
F10A2C
 100
AcDbEntity
8
Text
100
AcDbText
10
-133.000000000000
20
-83.0459770114943
30
0.000000000000000
40
2.00000000000000
1
VHM
100
AcDbText
  0
LWPOLYLINE
  5
F10A2D
330
F10A2E
100
AcDbEntity
8
Rahmen
100
AcDbPolyline
90
   4
70
   1
43
   0.0
 10
-103.793103448276
 20
-80.3793103448276
 10
-79.8965517241379
 20
-80.3793103448276
 10
-79.8965517241379
 20
-84.4827586206897
 10
-103.793103448276
 20
-84.4827586206897
  0
TEXT
  5
F10A2F
330
F10A30
 100
AcDbEntity
8
Text
100
AcDbText
10
-101.862068965517
20
-83.0459770114943
30
0.000000000000000
40
2.00000000000000
1

100
AcDbText
  0
LWPOLYLINE
  5
F10A31
330
F10A32
100
AcDbEntity
8
Rahmen
100
AcDbPolyline
90
   4
70
   1
43
   0.0
 10
-79.8965517241379
 20
-80.3793103448276
 10
-46.3448275862069
 20
-80.3793103448276
 10
-46.3448275862069
 20
-84.4827586206897
 10
-79.8965517241379
 20
-84.4827586206897
  0
TEXT
  5
F10A33
330
F10A34
 100
AcDbEntity
8
Text
100
AcDbText
10
-77.9655172413793
20
-83.0459770114943
30
0.000000000000000
40
2.00000000000000
1

100
AcDbText
  0
LWPOLYLINE
  5
F10A35
330
F10A36
100
AcDbEntity
8
Rahmen
100
AcDbPolyline
90
   4
70
   1
43
   0.0
 10
-134.931034482759
 20
-84.4827586206897
 10
-103.793103448276
 20
-84.4827586206897
 10
-103.793103448276
 20
-88.5862068965517
 10
-134.931034482759
 20
-88.5862068965517
  0
TEXT
  5
F10A37
330
F10A38
 100
AcDbEntity
8
Text
100
AcDbText
10
-133.000000000000
20
-87.1494252873563
30
0.000000000000000
40
2.00000000000000
1
Material
100
AcDbText
  0
LWPOLYLINE
  5
F10A39
330
F10A3A
100
AcDbEntity
8
Rahmen
100
AcDbPolyline
90
   4
70
   1
43
   0.0
 10
-103.793103448276
 20
-84.4827586206897
 10
-79.8965517241379
 20
-84.4827586206897
 10
-79.8965517241379
 20
-88.5862068965517
 10
-103.793103448276
 20
-88.5862068965517
  0
TEXT
  5
F10A3B
330
F10A3C
 100
AcDbEntity
8
Text
100
AcDbText
10
-101.862068965517
20
-87.1494252873563
30
0.000000000000000
40
2.00000000000000
1

100
AcDbText
  0
LWPOLYLINE
  5
F10A3D
330
F10A3E
100
AcDbEntity
8
Rahmen
100
AcDbPolyline
90
   4
70
   1
43
   0.0
 10
-79.8965517241379
 20
-84.4827586206897
 10
-46.3448275862069
 20
-84.4827586206897
 10
-46.3448275862069
 20
-88.5862068965517
 10
-79.8965517241379
 20
-88.5862068965517
  0
TEXT
  5
F10A3F
330
F10A40
 100
AcDbEntity
8
Text
100
AcDbText
10
-77.9655172413793
20
-87.1494252873563
30
0.000000000000000
40
2.00000000000000
1

100
AcDbText
  0
LWPOLYLINE
  5
F10A41
330
F10A42
100
AcDbEntity
8
Rahmen
100
AcDbPolyline
90
   4
70
   1
43
   0.0
 10
-134.931034482759
 20
-88.5862068965517
 10
-103.793103448276
 20
-88.5862068965517
 10
-103.793103448276
 20
-92.4482758620690
 10
-134.931034482759
 20
-92.4482758620690
  0
TEXT
  5
F10A43
330
F10A44
 100
AcDbEntity
8
Text
100
AcDbText
10
-133.000000000000
20
-91.0114942528736
30
0.000000000000000
40
2.00000000000000
1
WXS
100
AcDbText
  0
LWPOLYLINE
  5
F10A45
330
F10A46
100
AcDbEntity
8
Rahmen
100
AcDbPolyline
90
   4
70
   1
43
   0.0
 10
-103.793103448276
 20
-88.5862068965517
 10
-79.8965517241379
 20
-88.5862068965517
 10
-79.8965517241379
 20
-92.4482758620690
 10
-103.793103448276
 20
-92.4482758620690
  0
TEXT
  5
F10A47
330
F10A48
 100
AcDbEntity
8
Text
100
AcDbText
10
-101.862068965517
20
-91.0114942528736
30
0.000000000000000
40
2.00000000000000
1

100
AcDbText
  0
LWPOLYLINE
  5
F10A49
330
F10A4A
100
AcDbEntity
8
Rahmen
100
AcDbPolyline
90
   4
70
   1
43
   0.0
 10
-79.8965517241379
 20
-88.5862068965517
 10
-46.3448275862069
 20
-88.5862068965517
 10
-46.3448275862069
 20
-92.4482758620690
 10
-79.8965517241379
 20
-92.4482758620690
  0
TEXT
  5
F10A4B
330
F10A4C
 100
AcDbEntity
8
Text
100
AcDbText
10
-77.9655172413793
20
-91.0114942528736
30
0.000000000000000
40
2.00000000000000
1

100
AcDbText
  0
LWPOLYLINE
  5
F10A4D
330
F10A4E
100
AcDbEntity
8
Rahmen
100
AcDbPolyline
90
   4
70
   1
43
   0.0
 10
-134.931034482759
 20
-92.4482758620690
 10
-103.793103448276
 20
-92.4482758620690
 10
-103.793103448276
 20
-96.5517241379310
 10
-134.931034482759
 20
-96.5517241379310
  0
TEXT
  5
F10A4F
330
F10A50
 100
AcDbEntity
8
Text
100
AcDbText
10
-133.000000000000
20
-95.1149425287356
30
0.000000000000000
40
2.00000000000000
1
Beschichtung
100
AcDbText
  0
LWPOLYLINE
  5
F10A51
330
F10A52
100
AcDbEntity
8
Rahmen
100
AcDbPolyline
90
   4
70
   1
43
   0.0
 10
-103.793103448276
 20
-92.4482758620690
 10
-79.8965517241379
 20
-92.4482758620690
 10
-79.8965517241379
 20
-96.5517241379310
 10
-103.793103448276
 20
-96.5517241379310
  0
TEXT
  5
F10A53
330
F10A54
 100
AcDbEntity
8
Text
100
AcDbText
10
-101.862068965517
20
-95.1149425287356
30
0.000000000000000
40
2.00000000000000
1
Beschriftung
100
AcDbText
  0
LWPOLYLINE
  5
F10A55
330
F10A56
100
AcDbEntity
8
Rahmen
100
AcDbPolyline
90
   4
70
   1
43
   0.0
 10
-79.8965517241379
 20
-92.4482758620690
 10
-46.3448275862069
 20
-92.4482758620690
 10
-46.3448275862069
 20
-96.5517241379310
 10
-79.8965517241379
 20
-96.5517241379310
  0
TEXT
  5
F10A57
330
F10A58
 100
AcDbEntity
8
Text
100
AcDbText
10
-77.9655172413793
20
-95.1149425287356
30
0.000000000000000
40
2.00000000000000
1
Werkzeugnummer
100
AcDbText
  0
LWPOLYLINE
  5
F10A59
330
F10A5A
100
AcDbEntity
8
Rahmen
100
AcDbPolyline
90
   4
70
   1
43
   0.0
 10
8.20689655172416
 20
-64.2068965517241
 10
63.2413793103448
 20
-64.2068965517241
 10
63.2413793103448
 20
-68.3103448275862
 10
8.20689655172416
 20
-68.3103448275862
  0
TEXT
  5
F10A5B
330
F10A5C
 100
AcDbEntity
8
Text
100
AcDbText
10
10.1379310344828
20
-66.8735632183908
30
0.000000000000000
40
2.00000000000000
1

100
AcDbText
  0
LWPOLYLINE
  5
F10A5D
330
F10A5E
100
AcDbEntity
8
Rahmen
100
AcDbPolyline
90
   4
70
   1
43
   0.0
 10
8.20689655172416
 20
-68.3103448275862
 10
63.2413793103448
 20
-68.3103448275862
 10
63.2413793103448
 20
-72.1724137931035
 10
8.20689655172416
 20
-72.1724137931035
  0
TEXT
  5
F10A5F
330
F10A60
 100
AcDbEntity
8
Text
100
AcDbText
10
10.1379310344828
20
-70.7356321839081
30
0.000000000000000
40
2.00000000000000
1

100
AcDbText
  0
LWPOLYLINE
  5
F10A61
330
F10A62
100
AcDbEntity
8
Rahmen
100
AcDbPolyline
90
   4
70
   1
43
   0.0
 10
8.20689655172416
 20
-72.1724137931035
 10
63.2413793103448
 20
-72.1724137931035
 10
63.2413793103448
 20
-76.2758620689655
 10
8.20689655172416
 20
-76.2758620689655
  0
TEXT
  5
F10A63
330
F10A64
 100
AcDbEntity
8
Text
100
AcDbText
10
10.1379310344828
20
-74.8390804597701
30
0.000000000000000
40
2.00000000000000
1

100
AcDbText
  0
LWPOLYLINE
  5
F10A65
330
F10A66
100
AcDbEntity
8
Rahmen
100
AcDbPolyline
90
   4
70
   1
43
   0.0
 10
8.20689655172416
 20
-76.2758620689655
 10
63.2413793103448
 20
-76.2758620689655
 10
63.2413793103448
 20
-80.3793103448276
 10
8.20689655172416
 20
-80.3793103448276
  0
TEXT
  5
F10A67
330
F10A68
 100
AcDbEntity
8
Text
100
AcDbText
10
10.1379310344828
20
-78.9425287356322
30
0.000000000000000
40
2.00000000000000
1

100
AcDbText
  0
LWPOLYLINE
  5
F10A69
330
F10A6A
100
AcDbEntity
8
Rahmen
100
AcDbPolyline
90
   4
70
   1
43
   0.0
 10
-134.689655172414
 20
99.9310344827586
 10
143.379310344828
 20
99.9310344827586
 10
143.379310344828
 20
-100.172413793103
 10
-134.689655172414
 20
-100.172413793103
  0
TEXT
  5
F10A6B
330
F10A6C
 100
AcDbEntity
8
Text
100
AcDbText
10
-133.724137931034
20
-99.6724137931034
30
0.000000000000000
40
1.00000000000000
1
ISBESketcher - ©ISBE GmbH      lizensiert für: OSG GmbH
100
AcDbText
  0
LWPOLYLINE
  5
F10A6D
330
F10A6E
100
AcDbEntity
8
Rahmen
100
AcDbPolyline
90
   4
70
   1
43
   0.0
 10
103.310344827586
 20
-97.0344827586207
 10
143.379310344828
 20
-97.0344827586207
 10
143.379310344828
 20
-100.172413793103
 10
103.310344827586
 20
-100.172413793103
  0
TEXT
  5
F10A6F
330
F10A70
 100
AcDbEntity
8
Text
100
AcDbText
10
104.275862068965
20
-98.0344827586207
30
0.000000000000000
40
0.750000000000000
1
Ers. durch:
100
AcDbText
  0
TEXT
  5
F10A71
330
F10A72
 100
AcDbEntity
8
Text
100
AcDbText
10
128.172413793103
20
-98.0344827586207
30
0.000000000000000
40
0.750000000000000
1
M.Sho
100
AcDbText
  0
LWPOLYLINE
  5
F10A73
330
F10A74
100
AcDbEntity
8
Rahmen
100
AcDbPolyline
90
   4
70
   1
43
   0.0
 10
63.4827586206896
 20
-97.0344827586207
 10
103.310344827586
 20
-97.0344827586207
 10
103.310344827586
 20
-100.172413793103
 10
63.4827586206896
 20
-100.172413793103
  0
TEXT
  5
F10A75
330
F10A76
 100
AcDbEntity
8
Text
100
AcDbText
10
64.4482758620689
20
-98.0344827586207
30
0.000000000000000
40
0.750000000000000
1
Ers. für:
100
AcDbText
  0
TEXT
  5
F10A77
330
F10A78
 100
AcDbEntity
8
Text
100
AcDbText
10
91.2413793103448
20
-99.4827586206897
30
0.000000000000000
40
0.750000000000000
1

100
AcDbText
  0
LWPOLYLINE
  5
F10A79
330
F10A7A
100
AcDbEntity
8
Rahmen
100
AcDbPolyline
90
   4
70
   1
43
   0.0
 10
130.103448275862
 20
-94.1379310344828
 10
143.379310344828
 20
-94.1379310344828
 10
143.379310344828
 20
-97.0344827586207
 10
130.103448275862
 20
-97.0344827586207
  0
TEXT
  5
F10A7B
330
F10A7C
 100
AcDbEntity
8
Text
100
AcDbText
10
131.068965517241
20
-95.1379310344828
30
0.000000000000000
40
0.750000000000000
1
Blätter
100
AcDbText
  0
TEXT
  5
F10A7D
330
F10A7E
 100
AcDbEntity
8
Text
100
AcDbText
10
141.206896551724
20
-96.5862068965517
30
0.000000000000000
40
0.750000000000000
1

100
AcDbText
  0
LWPOLYLINE
  5
F10A7F
330
F10A80
100
AcDbEntity
8
Rahmen
100
AcDbPolyline
90
   4
70
   1
43
   0.0
 10
130.103448275862
 20
-91.0000000000000
 10
143.379310344828
 20
-91.0000000000000
 10
143.379310344828
 20
-94.1379310344828
 10
130.103448275862
 20
-94.1379310344828
  0
TEXT
  5
F10A81
330
F10A82
 100
AcDbEntity
8
Text
100
AcDbText
10
131.068965517241
20
-92.0000000000000
30
0.000000000000000
40
0.750000000000000
1
Blatt
100
AcDbText
  0
TEXT
  5
F10A83
330
F10A84
 100
AcDbEntity
8
Text
100
AcDbText
10
141.206896551724
20
-93.4482758620690
30
0.000000000000000
40
0.750000000000000
1

100
AcDbText
  0
LWPOLYLINE
  5
F10A85
330
F10A86
100
AcDbEntity
8
Rahmen
100
AcDbPolyline
90
   4
70
   1
43
   0.0
 10
63.4827586206896
 20
-91.0000000000000
 10
130.103448275862
 20
-91.0000000000000
 10
130.103448275862
 20
-97.0344827586207
 10
63.4827586206896
 20
-97.0344827586207
  0
TEXT
  5
F10A87
330
F10A88
 100
AcDbEntity
8
Text
100
AcDbText
10
64.4482758620689
20
-92.0000000000000
30
0.000000000000000
40
0.750000000000000
1
Datum:
100
AcDbText
  0
TEXT
  5
F10A89
330
F10A8A
 100
AcDbEntity
8
Text
100
AcDbText
10
91.2413793103448
20
-95.1379310344828
30
0.000000000000000
40
0.750000000000000
1
23.11.2015
100
AcDbText
  0
LWPOLYLINE
  5
F10A8B
330
F10A8C
100
AcDbEntity
8
Rahmen
100
AcDbPolyline
90
   4
70
   1
43
   0.0
 10
63.4827586206896
 20
-85.2068965517241
 10
143.379310344828
 20
-85.2068965517241
 10
143.379310344828
 20
-91.0000000000000
 10
63.4827586206896
 20
-91.0000000000000
  0
TEXT
  5
F10A8D
330
F10A8E
 100
AcDbEntity
8
Text
100
AcDbText
10
-230.758620689655
20
103.000000000000
30
0.000000000000000
40
1.50000000000000
1

100
AcDbText
  0
TEXT
  5
F10A8F
330
F10A90
 100
AcDbEntity
8
Text
100
AcDbText
10
93.6551724137931
20
-88.7816091954023
30
0.000000000000000
40
2.50000000000000
1
48216000
100
AcDbText
  0
LWPOLYLINE
  5
F10A91
330
F10A92
100
AcDbEntity
8
Rahmen
100
AcDbPolyline
90
   4
70
   1
43
   0.0
 10
103.310344827586
 20
-79.1724137931034
 10
143.379310344828
 20
-79.1724137931034
 10
143.379310344828
 20
-85.2068965517241
 10
103.310344827586
 20
-85.2068965517241
  0
TEXT
  5
F10A93
330
F10A94
 100
AcDbEntity
8
Text
100
AcDbText
10
104.275862068965
20
-80.1724137931034
30
0.000000000000000
40
0.750000000000000
1
Tool Size:
100
AcDbText
  0
TEXT
  5
F10A95
330
F10A96
 100
AcDbEntity
8
Text
100
AcDbText
10
118.034482758621
20
-83.0689655172414
30
0.000000000000000
40
0.750000000000000
1
M1.8x0.35
100
AcDbText
  0
LWPOLYLINE
  5
F10A97
330
F10A98
100
AcDbEntity
8
Rahmen
100
AcDbPolyline
90
   4
70
   1
43
   0.0
 10
63.4827586206896
 20
-79.1724137931034
 10
103.310344827586
 20
-79.1724137931034
 10
103.310344827586
 20
-85.2068965517241
 10
63.4827586206896
 20
-85.2068965517241
  0
TEXT
  5
F10A99
330
F10A9A
 100
AcDbEntity
8
Text
100
AcDbText
10
64.4482758620689
20
-80.1724137931034
30
0.000000000000000
40
0.750000000000000
1
Tool Name:
100
AcDbText
  0
TEXT
  5
F10A9B
330
F10A9C
 100
AcDbEntity
8
Text
100
AcDbText
10
75.5517241379310
20
-83.0689655172414
30
0.000000000000000
40
0.750000000000000
1
WX-ST-PNC-3P
100
AcDbText
  0
LWPOLYLINE
  5
F10A9D
330
F10A9E
100
AcDbEntity
8
Rahmen
100
AcDbPolyline
90
   4
70
   1
43
   0.0
 10
103.310344827586
 20
-76.0344827586207
 10
143.379310344828
 20
-76.0344827586207
 10
143.379310344828
 20
-79.1724137931034
 10
103.310344827586
 20
-79.1724137931034
  0
TEXT
  5
F10A9F
330
F10AA0
 100
AcDbEntity
8
Text
100
AcDbText
10
-230.758620689655
20
103.000000000000
30
0.000000000000000
40
1.50000000000000
1

100
AcDbText
  0
TEXT
  5
F10AA1
330
F10AA2
 100
AcDbEntity
8
Text
100
AcDbText
10
123.103448275862
20
-78.4827586206897
30
0.000000000000000
40
0.750000000000000
1

100
AcDbText
  0
LWPOLYLINE
  5
F10AA3
330
F10AA4
100
AcDbEntity
8
Rahmen
100
AcDbPolyline
90
   4
70
   1
43
   0.0
 10
63.4827586206896
 20
-76.0344827586207
 10
103.310344827586
 20
-76.0344827586207
 10
103.310344827586
 20
-79.1724137931034
 10
63.4827586206896
 20
-79.1724137931034
  0
TEXT
  5
F10AA5
330
F10AA6
 100
AcDbEntity
8
Text
100
AcDbText
10
64.4482758620689
20
-77.0344827586207
30
0.000000000000000
40
0.750000000000000
1
Maßstab:
100
AcDbText
  0
TEXT
  5
F10AA7
330
F10AA8
 100
AcDbEntity
8
Text
100
AcDbText
10
89.0689655172414
20
-77.0344827586207
30
0.000000000000000
40
0.750000000000000
1
1 : 1
100
AcDbText
  0
IMAGE
  5
F10AAB
330
261
100
AcDbEntity
8
0
100
AcDbRasterImage
90
0
10
95.3448275862069
20
-76.0344827586207
30
0.000000000000000
11
0.132326398784079
21
0
31
0
12
0
22
0.223162003903709
32
0
13
4.e+002
23
5.e+001
340
F10AAC
70
1
70
1
280
0
281
50
282
50
283
0
360
F10AAD
71
1
91
2
14
-0.5
24
-0.5
14
4.e+002
24
5.e+001
  0
LWPOLYLINE
  5
F10AAE
330
F10AAF
100
AcDbEntity
8
Rahmen
100
AcDbPolyline
90
   4
70
   1
43
   0.0
 10
95.3448275862069
 20
-64.2068965517241
 10
143.379310344828
 20
-64.2068965517241
 10
143.379310344828
 20
-76.0344827586207
 10
95.3448275862069
 20
-76.0344827586207
  0
TEXT
  5
F10AB0
330
F10AB1
 100
AcDbEntity
8
Text
100
AcDbText
10
-34.5172413793103
20
-9.44827586206897
30
0.000000000000000
40
0.750000000000000
1

100
AcDbText
  0
TEXT
  5
F10AB2
330
F10AB3
 100
AcDbEntity
8
Text
100
AcDbText
10
-230.758620689655
20
103.000000000000
30
0.000000000000000
40
1.50000000000000
1

100
AcDbText
  0
LWPOLYLINE
  5
F10AB4
330
F10AB5
100
AcDbEntity
8
Rahmen
100
AcDbPolyline
90
   4
70
   1
43
   0.0
 10
63.4827586206896
 20
-64.2068965517241
 10
95.3448275862069
 20
-64.2068965517241
 10
95.3448275862069
 20
-76.0344827586207
 10
63.4827586206896
 20
-76.0344827586207
  0
TEXT
  5
F10AB6
330
F10AB7
 100
AcDbEntity
8
Text
100
AcDbText
10
-230.758620689655
20
103.000000000000
30
0.000000000000000
40
1.50000000000000
1

100
AcDbText
  0
TEXT
  5
F10AB8
330
F10AB9
 100
AcDbEntity
8
Text
100
AcDbText
10
79.4137931034483
20
-71.0000000000000
30
0.000000000000000
40
0.750000000000000
1

100
AcDbText
0
VIEWPORT
5
294
102
{ACAD_XDICTIONARY
360
58A
102
}
330
25D
100
AcDbEntity
67
1
8
0
60
1
100
AcDbViewport
10
0.0
20
0.0
30
0.0
40
10.0
41
10.0
68
-1
69
1
12
0.0
22
0.0
13
0.0
23
0.0
14
1.0
24
1.0
15
0.0
25
0.0
16
0.0
26
0.0
36
1.0
17
0.0
27
0.0
37
0.0
42
0.0
43
0.0
44
0.0
45
10.0
50
0.0
51
0.0000000000007958
72
100
90
32800
1

281
0
71
0
74
0
110
0.0
120
0.0
130
0.0
111
1.0
121
0.0
131
0.0
112
0.0
122
1.0
132
0.0
79
0
146
0.0
1001
VD_INVISIBLE_NOT_FOR_READ
1000
VD_INVISIBLE_NOT_FOR_READ
0
VIEWPORT
5
295
102
{ACAD_XDICTIONARY
360
58C
102
}
330
25D
100
AcDbEntity
67
1
8
0
60
1
100
AcDbViewport
10
0.0
20
0.0
30
0.0
40
10.0
41
10.0
68
0
69
2
12
0.0
22
0.0
13
0.0
23
0.0
14
1.0
24
1.0
15
0.0
25
0.0
16
0.0
26
0.0
36
1.0
17
0.0
27
0.0
37
0.0
42
0.0
43
0.0
44
0.0
45
10.0
50
0.0
51
0.0000000000007958
72
100
90
163872
1

281
0
71
0
74
0
110
0.0
120
0.0
130
0.0
111
1.0
121
0.0
131
0.0
112
0.0
122
1.0
132
0.0
79
0
146
0.0
1001
VD_INVISIBLE_NOT_FOR_READ
1000
VD_INVISIBLE_NOT_FOR_READ
0
ENDSEC
0
SECTION
2
OBJECTS
0
DICTIONARY
5
13
330
0
100
AcDbDictionary
281
1
3
ACAD_COLOR
350
FA7
3
ACAD_GROUP
350
14
3
ACAD_LAYOUT
350
FCF
3
ACAD_MATERIAL
350
F7A
3
ACAD_MLEADERSTYLE
350
FCD
3
ACAD_MLINESTYLE
350
16
3
ACAD_PLOTSETTINGS
350
17
3
ACAD_PLOTSTYLENAME
350
18
3
ACAD_SCALELIST
350
FAB
3
ACAD_TABLESTYLE
350
FA8
3
ACAD_VISUALSTYLE
350
F93
3
ACDB_RECOMPOSE_DATA
350
107E
3
AcDbVariableDictionary
350
FF0
3
DWGPROPS
350
107F
0
DICTIONARY
5
F1000F
330
F1000E
100
AcDbDictionary
280
1
281
1
3
ACAD_MTEXT_2008_RT
360
F10010
0
DICTIONARY
5
F1001E
330
F1001D
100
AcDbDictionary
280
1
281
1
3
ACAD_MTEXT_2008_RT
360
F1001F
0
DICTIONARY
5
F10023
330
F10022
100
AcDbDictionary
280
1
281
1
3
ACAD_MTEXT_2008_RT
360
F10024
0
DICTIONARY
5
F10014
330
F10013
100
AcDbDictionary
280
1
281
1
3
ACAD_MTEXT_2008_RT
360
F10015
0
DICTIONARY
5
F10005
330
F10004
100
AcDbDictionary
280
1
281
1
3
ACAD_MTEXT_2008_RT
360
F10006
0
DICTIONARY
5
F1000A
330
F10009
100
AcDbDictionary
280
1
281
1
3
ACAD_MTEXT_2008_RT
360
F1000B
0
DICTIONARY
5
F10019
330
F10018
100
AcDbDictionary
280
1
281
1
3
ACAD_MTEXT_2008_RT
360
F1001A
0
DICTIONARY
5
FA7
102
{ACAD_REACTORS
330
13
102
}
330
13
100
AcDbDictionary
281
1
0
DICTIONARY
5
14
330
13
100
AcDbDictionary
281
1
0
DICTIONARY
5
FCF
102
{ACAD_REACTORS
330
13
102
}
330
13
100
AcDbDictionary
281
1
3
Layout1
350
FD1
3
Model
350
FD0
0
DICTIONARY
5
F7A
102
{ACAD_REACTORS
330
13
102
}
330
13
100
AcDbDictionary
281
1
3
ByBlock
350
F83
3
ByLayer
350
F7B
3
Global
350
F8B
0
DICTIONARY
5
FCD
102
{ACAD_REACTORS
330
13
102
}
330
13
100
AcDbDictionary
281
1
3
Standard
350
FCE
0
DICTIONARY
5
16
330
13
100
AcDbDictionary
281
1
3
Standard
350
FAA
0
DICTIONARY
5
17
102
{ACAD_REACTORS
330
13
102
}
330
13
100
AcDbDictionary
281
1
0
ACDBDICTIONARYWDFLT
5
18
102
{ACAD_REACTORS
330
13
102
}
330
13
100
AcDbDictionary
281
1
3
Normal
350
19
100
AcDbDictionaryWithDefault
340
19
0
DICTIONARY
5
FAB
102
{ACAD_REACTORS
330
13
102
}
330
13
100
AcDbDictionary
281
1
3
A0
350
FAC
3
A1
350
FAD
3
A2
350
FAE
3
A3
350
FAF
3
A4
350
FB0
3
A5
350
FB1
3
A6
350
FB2
3
A7
350
FB3
3
A8
350
FB4
3
A9
350
FB5
3
B0
350
FB6
3
B1
350
FB7
3
B2
350
FB8
3
B3
350
FB9
3
B4
350
FBA
3
B5
350
FBB
3
B6
350
FBC
3
B7
350
FBD
3
B8
350
FBE
3
B9
350
FBF
3
C0
350
FC0
3
C1
350
FC1
3
C2
350
FC2
3
C3
350
FC3
3
C4
350
FC4
3
C5
350
FC5
3
C6
350
FC6
3
C7
350
FC7
3
C8
350
FC8
3
C9
350
FC9
3
D0
350
FCA
3
D1
350
FCB
3
D2
350
FCC
0
DICTIONARY
5
FA8
102
{ACAD_REACTORS
330
13
102
}
330
13
100
AcDbDictionary
281
1
3
Standard
350
FA9
0
DICTIONARY
5
F93
102
{ACAD_REACTORS
330
13
102
}
330
13
100
AcDbDictionary
281
1
3
2dWireframe
350
F99
3
3D Hidden
350
F9B
3
3dWireframe
350
F9A
3
Basic
350
F98
3
Brighten
350
F9F
3
ColorChange
350
FA3
3
Conceptual
350
F9C
3
Dim
350
F9E
3
EdgeColorOff
350
FA6
3
Facepattern
350
FA2
3
Flat
350
F94
3
FlatWithEdges
350
F95
3
Gouraud
350
F96
3
GouraudWithEdges
350
F97
3
JitterOff
350
FA4
3
Linepattern
350
FA1
3
OverhangOff
350
FA5
3
Realistic
350
F9D
3
Thicken
350
FA0
0
XRECORD
5
107E
102
{ACAD_REACTORS
330
13
102
}
330
13
100
AcDbXrecord
280
1
90
1
330
FA9
330
F1000E
330
F1001D
330
F10022
330
F10013
330
F10004
330
F10009
330
F10018
0
DICTIONARY
5
FF0
102
{ACAD_REACTORS
330
13
102
}
330
13
100
AcDbDictionary
281
1
3
CANNOSCALE
350
FF3
3
CMLEADERSTYLE
350
FF2
3
CTABLESTYLE
350
FF1
3
DIMASSOC
350
FF6
3
INDEXCTL
350
FF5
3
SORTENTS
350
FF4
3
XCLIPFRAME
350
1078
0
XRECORD
5
107F
102
{ACAD_REACTORS
330
13
102
}
330
13
100
AcDbXrecord
280
1
1
DWGPROPS COOKIE
2

3

4

6

7

8

9

300
=
301
=
302
=
303
=
304
=
305
=
306
=
307
=
308
=
309
=
40
0.0
41
0.0
42
0.0
1

90
0
0
XRECORD
5
F10010
102
{ACAD_REACTORS
330
F1000F
102
}
330
F1000F
100
AcDbXrecord
280
1
40
48458.0
1
\A1;5.4
0
XRECORD
5
F1001F
102
{ACAD_REACTORS
330
F1001E
102
}
330
F1001E
100
AcDbXrecord
280
1
40
48458.0
1
\A1;1.05
0
XRECORD
5
F10024
102
{ACAD_REACTORS
330
F10023
102
}
330
F10023
100
AcDbXrecord
280
1
40
48458.0
1
\A1;40
0
XRECORD
5
F10015
102
{ACAD_REACTORS
330
F10014
102
}
330
F10014
100
AcDbXrecord
280
1
40
48458.0
1
\A1;45°
0
XRECORD
5
F10006
102
{ACAD_REACTORS
330
F10005
102
}
330
F10005
100
AcDbXrecord
280
1
40
48458.0
1
\A1;1.3
0
XRECORD
5
F1000B
102
{ACAD_REACTORS
330
F1000A
102
}
330
F1000A
100
AcDbXrecord
280
1
40
48458.0
1
\A1;1.085
  0
IMAGEDEF
  5
F10AAC
102
{ACAD_REACTORS
330
F10ABA
330
F10AAD
102
}
330
F10ABA
100
AcDbRasterImageDef
90
0
1
48216000(1).jpg
10
4.e+002
20
5.e+001
280
1
281
2
0
LAYOUT
5
FD1
102
{ACAD_XDICTIONARY
360
10A9
102
}
102
{ACAD_REACTORS
330
FCF
102
}
330
FCF
100
AcDbPlotSettings
1

2
Microsoft XPS Document Writer
4

6

40
0.0
41
0.0
42
0.0
43
0.0
44
0.0
45
0.0
46
0.0
47
0.0
48
0.0
49
0.0
140
0.0
141
0.0
142
1.0
143
1.0
70
688
72
0
73
0
74
5
7

75
16
147
1.0
148
0.0
149
0.0
100
AcDbLayout
1
Layout1
70
1
71
1
10
0.0
20
0.0
11
12.0
21
9.0
12
0.0
22
0.0
32
0.0
14
1.000000000000000E+20
24
1.000000000000000E+20
34
1.000000000000000E+20
15
-1.000000000000000E+20
25
-1.000000000000000E+20
35
-1.000000000000000E+20
146
0.0
13
0.0
23
0.0
33
0.0
16
1.0
26
0.0
36
0.0
17
0.0
27
1.0
37
0.0
76
0
330
25D
0
LAYOUT
5
FD0
102
{ACAD_XDICTIONARY
360
10A7
102
}
102
{ACAD_REACTORS
330
FCF
102
}
330
FCF
100
AcDbPlotSettings
1

2
Microsoft XPS Document Writer
4

6

40
0.0
41
0.0
42
0.0
43
0.0
44
0.0
45
0.0
46
0.0
47
0.0
48
0.0
49
0.0
140
0.0
141
0.0
142
1.0
143
1.0
70
1712
72
0
73
0
74
0
7

75
0
147
1.0
148
0.0
149
0.0
100
AcDbLayout
1
Model
70
1
71
0
10
0.0
20
0.0
11
12.0
21
9.0
12
0.0
22
0.0
32
0.0
14
0.0
24
0.0
34
0.0
15
0.0
25
0.0
35
0.0
146
0.0
13
0.0
23
0.0
33
0.0
16
1.0
26
0.0
36
0.0
17
0.0
27
1.0
37
0.0
76
0
330
261
331
26B
0
MATERIAL
5
F83
102
{ACAD_XDICTIONARY
360
F84
102
}
102
{ACAD_REACTORS
330
F7A
102
}
330
F7A
100
AcDbMaterial
1
ByBlock
72
0
43
0.0208333333333333
43
0.0
43
0.0
43
0.0
43
0.0
43
0.0208333333333333
43
0.0
43
0.0
43
0.0
43
0.0
43
1.0
43
0.0
43
0.0
43
0.0
43
0.0
43
1.0
77
0
47
0.0208333333333333
47
0.0
47
0.0
47
0.0
47
0.0
47
0.0208333333333333
47
0.0
47
0.0
47
0.0
47
0.0
47
1.0
47
0.0
47
0.0
47
0.0
47
0.0
47
1.0
171
0
49
0.0208333333333333
49
0.0
49
0.0
49
0.0
49
0.0
49
0.0208333333333333
49
0.0
49
0.0
49
0.0
49
0.0
49
1.0
49
0.0
49
0.0
49
0.0
49
0.0
49
1.0
175
0
142
0.0208333333333333
142
0.0
142
0.0
142
0.0
142
0.0
142
0.0208333333333333
142
0.0
142
0.0
142
0.0
142
0.0
142
1.0
142
0.0
142
0.0
142
0.0
142
0.0
142
1.0
179
0
144
0.0208333333333333
144
0.0
144
0.0
144
0.0
144
0.0
144
0.0208333333333333
144
0.0
144
0.0
144
0.0
144
0.0
144
1.0
144
0.0
144
0.0
144
0.0
144
0.0
144
1.0
147
0.0208333333333333
147
0.0
147
0.0
147
0.0
147
0.0
147
0.0208333333333333
147
0.0
147
0.0
147
0.0
147
0.0
147
1.0
147
0.0
147
0.0
147
0.0
147
0.0
147
1.0
0
MATERIAL
5
F7B
102
{ACAD_XDICTIONARY
360
F7C
102
}
102
{ACAD_REACTORS
330
F7A
102
}
330
F7A
100
AcDbMaterial
1
ByLayer
72
0
43
0.0208333333333333
43
0.0
43
0.0
43
0.0
43
0.0
43
0.0208333333333333
43
0.0
43
0.0
43
0.0
43
0.0
43
1.0
43
0.0
43
0.0
43
0.0
43
0.0
43
1.0
77
0
47
0.0208333333333333
47
0.0
47
0.0
47
0.0
47
0.0
47
0.0208333333333333
47
0.0
47
0.0
47
0.0
47
0.0
47
1.0
47
0.0
47
0.0
47
0.0
47
0.0
47
1.0
171
0
49
0.0208333333333333
49
0.0
49
0.0
49
0.0
49
0.0
49
0.0208333333333333
49
0.0
49
0.0
49
0.0
49
0.0
49
1.0
49
0.0
49
0.0
49
0.0
49
0.0
49
1.0
175
0
142
0.0208333333333333
142
0.0
142
0.0
142
0.0
142
0.0
142
0.0208333333333333
142
0.0
142
0.0
142
0.0
142
0.0
142
1.0
142
0.0
142
0.0
142
0.0
142
0.0
142
1.0
179
0
144
0.0208333333333333
144
0.0
144
0.0
144
0.0
144
0.0
144
0.0208333333333333
144
0.0
144
0.0
144
0.0
144
0.0
144
1.0
144
0.0
144
0.0
144
0.0
144
0.0
144
1.0
147
0.0208333333333333
147
0.0
147
0.0
147
0.0
147
0.0
147
0.0208333333333333
147
0.0
147
0.0
147
0.0
147
0.0
147
1.0
147
0.0
147
0.0
147
0.0
147
0.0
147
1.0
0
MATERIAL
5
F8B
102
{ACAD_XDICTIONARY
360
F8C
102
}
102
{ACAD_REACTORS
330
F7A
102
}
330
F7A
100
AcDbMaterial
1
Global
72
0
43
0.0208333333333333
43
0.0
43
0.0
43
0.0
43
0.0
43
0.0208333333333333
43
0.0
43
0.0
43
0.0
43
0.0
43
1.0
43
0.0
43
0.0
43
0.0
43
0.0
43
1.0
77
0
47
0.0208333333333333
47
0.0
47
0.0
47
0.0
47
0.0
47
0.0208333333333333
47
0.0
47
0.0
47
0.0
47
0.0
47
1.0
47
0.0
47
0.0
47
0.0
47
0.0
47
1.0
171
0
49
0.0208333333333333
49
0.0
49
0.0
49
0.0
49
0.0
49
0.0208333333333333
49
0.0
49
0.0
49
0.0
49
0.0
49
1.0
49
0.0
49
0.0
49
0.0
49
0.0
49
1.0
175
0
142
0.0208333333333333
142
0.0
142
0.0
142
0.0
142
0.0
142
0.0208333333333333
142
0.0
142
0.0
142
0.0
142
0.0
142
1.0
142
0.0
142
0.0
142
0.0
142
0.0
142
1.0
179
0
144
0.0208333333333333
144
0.0
144
0.0
144
0.0
144
0.0
144
0.0208333333333333
144
0.0
144
0.0
144
0.0
144
0.0
144
1.0
144
0.0
144
0.0
144
0.0
144
0.0
144
1.0
147
0.0208333333333333
147
0.0
147
0.0
147
0.0
147
0.0
147
0.0208333333333333
147
0.0
147
0.0
147
0.0
147
0.0
147
1.0
147
0.0
147
0.0
147
0.0
147
0.0
147
1.0
0
MLEADERSTYLE
5
FCE
102
{ACAD_REACTORS
330
FCD
102
}
330
FCD
100
AcDbMLeaderStyle
170
2
171
1
172
0
90
2
40
0.0
41
0.0
173
1
91
-1056964608
340
256
92
-2
290
1
42
0.09
291
1
43
0.36
3
Standard
44
0.18
300

342
253
174
1
178
6
175
1
176
0
93
-1056964608
45
0.18
292
0
297
0
46
0.18
94
-1056964608
47
1.0
49
1.0
140
1.0
293
1
141
0.0
294
1
177
0
142
1.0
295
0
296
0
143
0.125
1001
ACAD_MLEADERVER
1070
2
0
MLINESTYLE
5
FAA
102
{ACAD_REACTORS
330
16
102
}
330
16
100
AcDbMlineStyle
2
STANDARD
70
0
3

62
256
51
90.0
52
90.0
71
2
49
0.5
62
256
6
BYLAYER
49
-0.5
62
256
6
BYLAYER
0
ACDBPLACEHOLDER
5
19
102
{ACAD_REACTORS
330
18
102
}
330
18
0
SCALE
5
FAC
102
{ACAD_REACTORS
330
FAB
102
}
330
FAB
100
AcDbScale
70
0
300
1:1
140
1.0
141
1.0
290
1
0
SCALE
5
FAD
102
{ACAD_REACTORS
330
FAB
102
}
330
FAB
100
AcDbScale
70
0
300
1:2
140
1.0
141
2.0
290
0
0
SCALE
5
FAE
102
{ACAD_REACTORS
330
FAB
102
}
330
FAB
100
AcDbScale
70
0
300
1:4
140
1.0
141
4.0
290
0
0
SCALE
5
FAF
102
{ACAD_REACTORS
330
FAB
102
}
330
FAB
100
AcDbScale
70
0
300
1:5
140
1.0
141
5.0
290
0
0
SCALE
5
FB0
102
{ACAD_REACTORS
330
FAB
102
}
330
FAB
100
AcDbScale
70
0
300
1:8
140
1.0
141
8.0
290
0
0
SCALE
5
FB1
102
{ACAD_REACTORS
330
FAB
102
}
330
FAB
100
AcDbScale
70
0
300
1:10
140
1.0
141
10.0
290
0
0
SCALE
5
FB2
102
{ACAD_REACTORS
330
FAB
102
}
330
FAB
100
AcDbScale
70
0
300
1:16
140
1.0
141
16.0
290
0
0
SCALE
5
FB3
102
{ACAD_REACTORS
330
FAB
102
}
330
FAB
100
AcDbScale
70
0
300
1:20
140
1.0
141
20.0
290
0
0
SCALE
5
FB4
102
{ACAD_REACTORS
330
FAB
102
}
330
FAB
100
AcDbScale
70
0
300
1:30
140
1.0
141
30.0
290
0
0
SCALE
5
FB5
102
{ACAD_REACTORS
330
FAB
102
}
330
FAB
100
AcDbScale
70
0
300
1:40
140
1.0
141
40.0
290
0
0
SCALE
5
FB6
102
{ACAD_REACTORS
330
FAB
102
}
330
FAB
100
AcDbScale
70
0
300
1:50
140
1.0
141
50.0
290
0
0
SCALE
5
FB7
102
{ACAD_REACTORS
330
FAB
102
}
330
FAB
100
AcDbScale
70
0
300
1:100
140
1.0
141
100.0
290
0
0
SCALE
5
FB8
102
{ACAD_REACTORS
330
FAB
102
}
330
FAB
100
AcDbScale
70
0
300
2:1
140
2.0
141
1.0
290
0
0
SCALE
5
FB9
102
{ACAD_REACTORS
330
FAB
102
}
330
FAB
100
AcDbScale
70
0
300
4:1
140
4.0
141
1.0
290
0
0
SCALE
5
FBA
102
{ACAD_REACTORS
330
FAB
102
}
330
FAB
100
AcDbScale
70
0
300
8:1
140
8.0
141
1.0
290
0
0
SCALE
5
FBB
102
{ACAD_REACTORS
330
FAB
102
}
330
FAB
100
AcDbScale
70
0
300
10:1
140
10.0
141
1.0
290
0
0
SCALE
5
FBC
102
{ACAD_REACTORS
330
FAB
102
}
330
FAB
100
AcDbScale
70
0
300
100:1
140
100.0
141
1.0
290
0
0
SCALE
5
FBD
102
{ACAD_REACTORS
330
FAB
102
}
330
FAB
100
AcDbScale
70
0
300
1/128" = 1'-0"
140
0.0078125
141
12.0
290
0
0
SCALE
5
FBE
102
{ACAD_REACTORS
330
FAB
102
}
330
FAB
100
AcDbScale
70
0
300
1/64" = 1'-0"
140
0.015625
141
12.0
290
0
0
SCALE
5
FBF
102
{ACAD_REACTORS
330
FAB
102
}
330
FAB
100
AcDbScale
70
0
300
1/32" = 1'-0"
140
0.03125
141
12.0
290
0
0
SCALE
5
FC0
102
{ACAD_REACTORS
330
FAB
102
}
330
FAB
100
AcDbScale
70
0
300
1/16" = 1'-0"
140
0.0625
141
12.0
290
0
0
SCALE
5
FC1
102
{ACAD_REACTORS
330
FAB
102
}
330
FAB
100
AcDbScale
70
0
300
3/32" = 1'-0"
140
0.09375
141
12.0
290
0
0
SCALE
5
FC2
102
{ACAD_REACTORS
330
FAB
102
}
330
FAB
100
AcDbScale
70
0
300
1/8" = 1'-0"
140
0.125
141
12.0
290
0
0
SCALE
5
FC3
102
{ACAD_REACTORS
330
FAB
102
}
330
FAB
100
AcDbScale
70
0
300
3/16" = 1'-0"
140
0.1875
141
12.0
290
0
0
SCALE
5
FC4
102
{ACAD_REACTORS
330
FAB
102
}
330
FAB
100
AcDbScale
70
0
300
1/4" = 1'-0"
140
0.25
141
12.0
290
0
0
SCALE
5
FC5
102
{ACAD_REACTORS
330
FAB
102
}
330
FAB
100
AcDbScale
70
0
300
3/8" = 1'-0"
140
0.375
141
12.0
290
0
0
SCALE
5
FC6
102
{ACAD_REACTORS
330
FAB
102
}
330
FAB
100
AcDbScale
70
0
300
1/2" = 1'-0"
140
0.5
141
12.0
290
0
0
SCALE
5
FC7
102
{ACAD_REACTORS
330
FAB
102
}
330
FAB
100
AcDbScale
70
0
300
3/4" = 1'-0"
140
0.75
141
12.0
290
0
0
SCALE
5
FC8
102
{ACAD_REACTORS
330
FAB
102
}
330
FAB
100
AcDbScale
70
0
300
1" = 1'-0"
140
1.0
141
12.0
290
0
0
SCALE
5
FC9
102
{ACAD_REACTORS
330
FAB
102
}
330
FAB
100
AcDbScale
70
0
300
1-1/2" = 1'-0"
140
1.5
141
12.0
290
0
0
SCALE
5
FCA
102
{ACAD_REACTORS
330
FAB
102
}
330
FAB
100
AcDbScale
70
0
300
3" = 1'-0"
140
3.0
141
12.0
290
0
0
SCALE
5
FCB
102
{ACAD_REACTORS
330
FAB
102
}
330
FAB
100
AcDbScale
70
0
300
6" = 1'-0"
140
6.0
141
12.0
290
0
0
SCALE
5
FCC
102
{ACAD_REACTORS
330
FAB
102
}
330
FAB
100
AcDbScale
70
0
300
1'-0" = 1'-0"
140
12.0
141
12.0
290
0
0
TABLESTYLE
5
FA9
102
{ACAD_XDICTIONARY
360
FF8
102
}
102
{ACAD_REACTORS
330
FA8
102
}
330
FA8
100
AcDbTableStyle
3
Standard
70
0
71
0
40
0.06
41
0.06
280
0
281
0
7
Standard
140
0.18
170
2
62
0
63
7
283
0
274
-2
284
1
64
0
275
-2
285
1
65
0
276
-2
286
1
66
0
277
-2
287
1
67
0
278
-2
288
1
68
0
279
-2
289
1
69
0
7
Standard
140
0.25
170
5
62
0
63
7
283
0
274
-2
284
1
64
0
275
-2
285
1
65
0
276
-2
286
1
66
0
277
-2
287
1
67
0
278
-2
288
1
68
0
279
-2
289
1
69
0
7
Standard
140
0.18
170
5
62
0
63
7
283
0
274
-2
284
1
64
0
275
-2
285
1
65
0
276
-2
286
1
66
0
277
-2
287
1
67
0
278
-2
288
1
68
0
279
-2
289
1
69
0
0
VISUALSTYLE
5
F99
102
{ACAD_XDICTIONARY
360
108A
102
}
102
{ACAD_REACTORS
330
F93
102
}
330
F93
100
AcDbVisualStyle
2

70
4
71
0
72
2
73
0
90
0
40
-0.6
41
-30.0
62
5
63
7
74
1
91
4
64
7
65
257
75
1
175
1
42
1.0
92
0
66
257
43
1.0
76
1
77
6
78
2
67
7
79
5
170
0
171
0
290
0
174
0
93
1
44
0.0
173
0
291
0
45
0.0
1001
ACAD
1000
AcDbSavedByObjectVersion
1070
0
0
VISUALSTYLE
5
F9B
102
{ACAD_XDICTIONARY
360
108E
102
}
102
{ACAD_REACTORS
330
F93
102
}
330
F93
100
AcDbVisualStyle
2

70
6
71
1
72
2
73
2
90
0
40
-0.6
41
-30.0
62
5
63
7
74
2
91
2
64
7
65
257
75
2
175
1
42
179.0
92
0
66
257
43
1.0
76
1
77
6
78
2
67
7
79
3
170
0
171
0
290
0
174
0
93
1
44
0.0
173
0
291
0
45
0.0
1001
ACAD
1000
AcDbSavedByObjectVersion
1070
0
0
VISUALSTYLE
5
F9A
102
{ACAD_XDICTIONARY
360
108C
102
}
102
{ACAD_REACTORS
330
F93
102
}
330
F93
100
AcDbVisualStyle
2

70
5
71
0
72
2
73
0
90
0
40
-0.6
41
-30.0
62
5
63
7
74
1
91
4
64
7
65
257
75
1
175
1
42
1.0
92
0
66
257
43
1.0
76
1
77
6
78
2
67
7
79
5
170
0
171
0
290
0
174
0
93
1
44
0.0
173
0
291
0
45
0.0
1001
ACAD
1000
AcDbSavedByObjectVersion
1070
0
0
VISUALSTYLE
5
F98
102
{ACAD_XDICTIONARY
360
1088
102
}
102
{ACAD_REACTORS
330
F93
102
}
330
F93
100
AcDbVisualStyle
2

70
7
71
1
72
0
73
1
90
0
40
-0.6
41
-30.0
62
5
63
7
74
0
91
4
64
7
65
257
75
1
175
1
42
1.0
92
8
66
7
43
1.0
76
1
77
6
78
2
67
7
79
5
170
0
171
0
290
0
174
0
93
1
44
0.0
173
0
291
1
45
0.0
1001
ACAD
1000
AcDbSavedByObjectVersion
1070
0
0
VISUALSTYLE
5
F9F
102
{ACAD_XDICTIONARY
360
1096
102
}
102
{ACAD_REACTORS
330
F93
102
}
330
F93
100
AcDbVisualStyle
2

70
12
71
2
72
2
73
0
90
0
40
-0.6
41
-30.0
62
5
63
7
74
1
91
4
64
7
65
257
75
1
175
1
42
1.0
92
8
66
7
43
1.0
76
1
77
6
78
2
67
7
79
5
170
0
171
0
290
0
174
0
93
1
44
50.0
173
0
291
1
45
0.0
1001
ACAD
1000
AcDbSavedByObjectVersion
1070
0
0
VISUALSTYLE
5
FA3
102
{ACAD_XDICTIONARY
360
109E
102
}
102
{ACAD_REACTORS
330
F93
102
}
330
F93
100
AcDbVisualStyle
2

70
16
71
2
72
2
73
3
90
0
40
-0.6
41
-30.0
62
5
63
8
74
1
91
4
64
7
65
257
75
1
175
1
42
1.0
92
8
66
8
43
1.0
76
1
77
6
78
2
67
7
79
5
170
0
171
0
290
0
174
0
93
1
44
0.0
173
0
291
1
45
0.0
1001
ACAD
1000
AcDbSavedByObjectVersion
1070
0
0
VISUALSTYLE
5
F9C
102
{ACAD_XDICTIONARY
360
1090
102
}
102
{ACAD_REACTORS
330
F93
102
}
330
F93
100
AcDbVisualStyle
2

70
9
71
3
72
2
73
0
90
0
40
-0.6
41
-30.0
62
5
63
7
74
2
91
2
64
7
65
257
75
1
175
1
42
179.0
92
8
66
7
43
1.0
76
1
77
6
78
2
67
7
79
3
170
0
171
0
290
0
174
0
93
1
44
0.0
173
0
291
0
45
0.0
1001
ACAD
1000
AcDbSavedByObjectVersion
1070
0
0
VISUALSTYLE
5
F9E
102
{ACAD_XDICTIONARY
360
1094
102
}
102
{ACAD_REACTORS
330
F93
102
}
330
F93
100
AcDbVisualStyle
2

70
11
71
2
72
2
73
0
90
0
40
-0.6
41
-30.0
62
5
63
7
74
1
91
4
64
7
65
257
75
1
175
1
42
1.0
92
8
66
7
43
1.0
76
1
77
6
78
2
67
7
79
5
170
0
171
0
290
0
174
0
93
1
44
-50.0
173
0
291
1
45
0.0
1001
ACAD
1000
AcDbSavedByObjectVersion
1070
0
0
VISUALSTYLE
5
FA6
102
{ACAD_XDICTIONARY
360
10A4
102
}
102
{ACAD_REACTORS
330
F93
102
}
330
F93
100
AcDbVisualStyle
2

70
22
71
2
72
2
73
0
90
0
40
-0.6
41
-30.0
62
5
63
7
74
1
91
4
64
7
65
257
75
1
175
1
42
1.0
92
8
66
7
43
1.0
76
1
77
6
78
2
67
7
79
5
170
0
171
0
290
0
174
0
93
1
44
0.0
173
0
291
1
45
0.0
1001
ACAD
1000
AcDbSavedByObjectVersion
1070
0
0
VISUALSTYLE
5
FA2
102
{ACAD_XDICTIONARY
360
109C
102
}
102
{ACAD_REACTORS
330
F93
102
}
330
F93
100
AcDbVisualStyle
2

70
15
71
2
72
2
73
0
90
0
40
-0.6
41
-30.0
62
5
63
7
74
1
91
4
64
7
65
257
75
1
175
1
42
1.0
92
8
66
7
43
1.0
76
1
77
6
78
2
67
7
79
5
170
0
171
0
290
0
174
0
93
1
44
0.0
173
0
291
1
45
0.0
1001
ACAD
1000
AcDbSavedByObjectVersion
1070
0
0
VISUALSTYLE
5
F94
102
{ACAD_XDICTIONARY
360
1080
102
}
102
{ACAD_REACTORS
330
F93
102
}
330
F93
100
AcDbVisualStyle
2

70
0
71
2
72
1
73
1
90
2
40
-0.6
41
30.0
62
5
63
7
74
0
91
4
64
7
65
257
75
1
175
1
42
1.0
92
8
66
7
43
1.0
76
1
77
6
78
2
67
7
79
5
170
0
171
0
290
0
174
0
93
13
44
0.0
173
0
291
1
45
0.0
1001
ACAD
1000
AcDbSavedByObjectVersion
1070
0
0
VISUALSTYLE
5
F95
102
{ACAD_XDICTIONARY
360
1082
102
}
102
{ACAD_REACTORS
330
F93
102
}
330
F93
100
AcDbVisualStyle
2

70
1
71
2
72
1
73
1
90
2
40
-0.6
41
30.0
62
5
63
7
74
1
91
4
64
7
65
257
75
1
175
1
42
1.0
92
0
66
257
43
1.0
76
1
77
6
78
2
67
7
79
5
170
0
171
0
290
0
174
0
93
13
44
0.0
173
0
291
1
45
0.0
1001
ACAD
1000
AcDbSavedByObjectVersion
1070
0
0
VISUALSTYLE
5
F96
102
{ACAD_XDICTIONARY
360
1084
102
}
102
{ACAD_REACTORS
330
F93
102
}
330
F93
100
AcDbVisualStyle
2

70
2
71
2
72
2
73
1
90
2
40
-0.6
41
30.0
62
5
63
7
74
0
91
4
64
7
65
257
75
1
175
1
42
1.0
92
0
66
7
43
1.0
76
1
77
6
78
2
67
7
79
5
170
0
171
0
290
0
174
0
93
13
44
0.0
173
0
291
1
45
0.0
1001
ACAD
1000
AcDbSavedByObjectVersion
1070
0
0
VISUALSTYLE
5
F97
102
{ACAD_XDICTIONARY
360
1086
102
}
102
{ACAD_REACTORS
330
F93
102
}
330
F93
100
AcDbVisualStyle
2

70
3
71
2
72
2
73
1
90
2
40
-0.6
41
30.0
62
5
63
7
74
1
91
4
64
7
65
257
75
1
175
1
42
1.0
92
0
66
257
43
1.0
76
1
77
6
78
2
67
7
79
5
170
0
171
0
290
0
174
0
93
13
44
0.0
173
0
291
1
45
0.0
1001
ACAD
1000
AcDbSavedByObjectVersion
1070
0
0
VISUALSTYLE
5
FA4
102
{ACAD_XDICTIONARY
360
10A0
102
}
102
{ACAD_REACTORS
330
F93
102
}
330
F93
100
AcDbVisualStyle
2

70
20
71
2
72
2
73
0
90
0
40
-0.6
41
-30.0
62
5
63
7
74
1
91
4
64
7
65
257
75
1
175
1
42
1.0
92
10
66
7
43
1.0
76
1
77
6
78
2
67
7
79
5
170
0
171
0
290
0
174
0
93
1
44
0.0
173
0
291
1
45
0.0
1001
ACAD
1000
AcDbSavedByObjectVersion
1070
0
0
VISUALSTYLE
5
FA1
102
{ACAD_XDICTIONARY
360
109A
102
}
102
{ACAD_REACTORS
330
F93
102
}
330
F93
100
AcDbVisualStyle
2

70
14
71
2
72
2
73
0
90
0
40
-0.6
41
-30.0
62
5
63
7
74
1
91
4
64
7
65
257
75
7
175
7
42
1.0
92
8
66
7
43
1.0
76
1
77
6
78
2
67
7
79
5
170
0
171
0
290
0
174
0
93
1
44
0.0
173
0
291
1
45
0.0
1001
ACAD
1000
AcDbSavedByObjectVersion
1070
0
0
VISUALSTYLE
5
FA5
102
{ACAD_XDICTIONARY
360
10A2
102
}
102
{ACAD_REACTORS
330
F93
102
}
330
F93
100
AcDbVisualStyle
2

70
21
71
2
72
2
73
0
90
0
40
-0.6
41
-30.0
62
5
63
7
74
1
91
4
64
7
65
257
75
1
175
1
42
1.0
92
9
66
7
43
1.0
76
1
77
6
78
2
67
7
79
5
170
0
171
0
290
0
174
0
93
1
44
0.0
173
0
291
1
45
0.0
1001
ACAD
1000
AcDbSavedByObjectVersion
1070
0
0
VISUALSTYLE
5
F9D
102
{ACAD_XDICTIONARY
360
1092
102
}
102
{ACAD_REACTORS
330
F93
102
}
330
F93
100
AcDbVisualStyle
2

70
8
71
2
72
2
73
0
90
0
40
-0.6
41
-30.0
62
5
63
7
74
1
91
0
64
7
65
257
75
1
175
1
42
1.0
92
8
66
8
43
1.0
76
1
77
6
78
2
67
7
79
5
170
0
171
0
290
0
174
0
93
13
44
0.0
173
0
291
0
45
0.0
1001
ACAD
1000
AcDbSavedByObjectVersion
1070
0
0
VISUALSTYLE
5
FA0
102
{ACAD_XDICTIONARY
360
1098
102
}
102
{ACAD_REACTORS
330
F93
102
}
330
F93
100
AcDbVisualStyle
2

70
13
71
2
72
2
73
0
90
0
40
-0.6
41
-30.0
62
5
63
7
74
1
91
4
64
7
65
257
75
1
175
1
42
1.0
92
12
66
7
43
1.0
76
1
77
6
78
2
67
7
79
5
170
0
171
0
290
0
174
0
93
1
44
0.0
173
0
291
1
45
0.0
1001
ACAD
1000
AcDbSavedByObjectVersion
1070
0
0
DICTIONARYVAR
5
FF3
102
{ACAD_REACTORS
330
FF0
102
}
330
FF0
100
DictionaryVariables
280
0
1
1:1
0
DICTIONARYVAR
5
FF2
102
{ACAD_REACTORS
330
FF0
102
}
330
FF0
100
DictionaryVariables
280
0
1
STANDARD
0
DICTIONARYVAR
5
FF1
102
{ACAD_REACTORS
330
FF0
102
}
330
FF0
100
DictionaryVariables
280
0
1
STANDARD
0
DICTIONARYVAR
5
FF6
102
{ACAD_REACTORS
330
FF0
102
}
330
FF0
100
DictionaryVariables
280
0
1
1
0
DICTIONARYVAR
5
FF5
102
{ACAD_REACTORS
330
FF0
102
}
330
FF0
100
DictionaryVariables
280
0
1
0
0
DICTIONARYVAR
5
FF4
102
{ACAD_REACTORS
330
FF0
102
}
330
FF0
100
DictionaryVariables
280
0
1
127
0
DICTIONARYVAR
5
1078
102
{ACAD_REACTORS
330
FF0
102
}
330
FF0
100
DictionaryVariables
280
0
1
2
0
DICTIONARY
5
10A9
330
FD1
100
AcDbDictionary
280
1
281
1
3
ACAD_XREC_ROUNDTRIP
360
10AA
0
DICTIONARY
5
10A7
330
FD0
100
AcDbDictionary
280
1
281
1
3
ACAD_XREC_ROUNDTRIP
360
10A8
0
DICTIONARY
5
F84
330
F83
100
AcDbDictionary
280
1
281
1
3
ACAD_XREC_ROUNDTRIP
360
FFF
3
BUMPTILE
360
F86
3
DIFFUSETILE
360
F85
3
OPACITYTILE
360
F89
3
REFLECTIONTILE
360
F88
3
REFRACTIONTILE
360
F8A
3
SPECULARTILE
360
F87
0
DICTIONARY
5
F7C
330
F7B
100
AcDbDictionary
280
1
281
1
3
ACAD_XREC_ROUNDTRIP
360
FFE
3
BUMPTILE
360
F7E
3
DIFFUSETILE
360
F7D
3
OPACITYTILE
360
F81
3
REFLECTIONTILE
360
F80
3
REFRACTIONTILE
360
F82
3
SPECULARTILE
360
F7F
0
DICTIONARY
5
F8C
330
F8B
100
AcDbDictionary
280
1
281
1
3
ACAD_XREC_ROUNDTRIP
360
1000
3
BUMPTILE
360
F8E
3
DIFFUSETILE
360
F8D
3
OPACITYTILE
360
F91
3
REFLECTIONTILE
360
F90
3
REFRACTIONTILE
360
F92
3
SPECULARTILE
360
F8F
0
DICTIONARY
5
FF8
330
FA9
100
AcDbDictionary
280
1
281
1
3
ACAD_ROUNDTRIP_2008_TABLESTYLE_CELLSTYLEMAP
360
1079
3
ACAD_XREC_ROUNDTRIP
360
10A6
0
DICTIONARY
5
108A
330
F99
100
AcDbDictionary
280
1
281
1
3
ACAD_XREC_ROUNDTRIP
360
108B
0
DICTIONARY
5
108E
330
F9B
100
AcDbDictionary
280
1
281
1
3
ACAD_XREC_ROUNDTRIP
360
108F
0
DICTIONARY
5
108C
330
F9A
100
AcDbDictionary
280
1
281
1
3
ACAD_XREC_ROUNDTRIP
360
108D
0
DICTIONARY
5
1088
330
F98
100
AcDbDictionary
280
1
281
1
3
ACAD_XREC_ROUNDTRIP
360
1089
0
DICTIONARY
5
1096
330
F9F
100
AcDbDictionary
280
1
281
1
3
ACAD_XREC_ROUNDTRIP
360
1097
0
DICTIONARY
5
109E
330
FA3
100
AcDbDictionary
280
1
281
1
3
ACAD_XREC_ROUNDTRIP
360
109F
0
DICTIONARY
5
1090
330
F9C
100
AcDbDictionary
280
1
281
1
3
ACAD_XREC_ROUNDTRIP
360
1091
0
DICTIONARY
5
1094
330
F9E
100
AcDbDictionary
280
1
281
1
3
ACAD_XREC_ROUNDTRIP
360
1095
0
DICTIONARY
5
10A4
330
FA6
100
AcDbDictionary
280
1
281
1
3
ACAD_XREC_ROUNDTRIP
360
10A5
0
DICTIONARY
5
109C
330
FA2
100
AcDbDictionary
280
1
281
1
3
ACAD_XREC_ROUNDTRIP
360
109D
0
DICTIONARY
5
1080
330
F94
100
AcDbDictionary
280
1
281
1
3
ACAD_XREC_ROUNDTRIP
360
1081
0
DICTIONARY
5
1082
330
F95
100
AcDbDictionary
280
1
281
1
3
ACAD_XREC_ROUNDTRIP
360
1083
0
DICTIONARY
5
1084
330
F96
100
AcDbDictionary
280
1
281
1
3
ACAD_XREC_ROUNDTRIP
360
1085
0
DICTIONARY
5
1086
330
F97
100
AcDbDictionary
280
1
281
1
3
ACAD_XREC_ROUNDTRIP
360
1087
0
DICTIONARY
5
10A0
330
FA4
100
AcDbDictionary
280
1
281
1
3
ACAD_XREC_ROUNDTRIP
360
10A1
0
DICTIONARY
5
109A
330
FA1
100
AcDbDictionary
280
1
281
1
3
ACAD_XREC_ROUNDTRIP
360
109B
0
DICTIONARY
5
10A2
330
FA5
100
AcDbDictionary
280
1
281
1
3
ACAD_XREC_ROUNDTRIP
360
10A3
0
DICTIONARY
5
1092
330
F9D
100
AcDbDictionary
280
1
281
1
3
ACAD_XREC_ROUNDTRIP
360
1093
0
DICTIONARY
5
1098
330
FA0
100
AcDbDictionary
280
1
281
1
3
ACAD_XREC_ROUNDTRIP
360
1099
0
XRECORD
5
10AA
102
{ACAD_REACTORS
330
10A9
102
}
330
10A9
100
AcDbXrecord
280
1
102
SHADEPLOT
70
0
102
SHADEPLOTRESLEVEL
70
2
102
SHADEPLOTCUSTOMDPI
70
300
0
XRECORD
5
10A8
102
{ACAD_REACTORS
330
10A7
102
}
330
10A7
100
AcDbXrecord
280
1
102
SHADEPLOT
70
0
102
SHADEPLOTRESLEVEL
70
2
102
SHADEPLOTCUSTOMDPI
70
300
0
XRECORD
5
FFF
102
{ACAD_REACTORS
330
F84
102
}
330
F84
100
AcDbXrecord
280
1
102
MATERIAL
148
0.0
149
0.0
149
0.0
93
0
94
127
282
0
72
0
77
0
171
0
175
0
179
0
273
0
0
XRECORD
5
F86
102
{ACAD_REACTORS
330
F84
102
}
330
F84
100
AcDbXrecord
280
1
270
1
271
1
0
XRECORD
5
F85
102
{ACAD_REACTORS
330
F84
102
}
330
F84
100
AcDbXrecord
280
1
270
1
271
1
0
XRECORD
5
F89
102
{ACAD_REACTORS
330
F84
102
}
330
F84
100
AcDbXrecord
280
1
270
1
271
1
0
XRECORD
5
F88
102
{ACAD_REACTORS
330
F84
102
}
330
F84
100
AcDbXrecord
280
1
270
1
271
1
0
XRECORD
5
F8A
102
{ACAD_REACTORS
330
F84
102
}
330
F84
100
AcDbXrecord
280
1
270
1
271
1
0
XRECORD
5
F87
102
{ACAD_REACTORS
330
F84
102
}
330
F84
100
AcDbXrecord
280
1
270
1
271
1
0
XRECORD
5
FFE
102
{ACAD_REACTORS
330
F7C
102
}
330
F7C
100
AcDbXrecord
280
1
102
MATERIAL
148
0.0
149
0.0
149
0.0
93
0
94
127
282
0
72
0
77
0
171
0
175
0
179
0
273
0
0
XRECORD
5
F7E
102
{ACAD_REACTORS
330
F7C
102
}
330
F7C
100
AcDbXrecord
280
1
270
1
271
1
0
XRECORD
5
F7D
102
{ACAD_REACTORS
330
F7C
102
}
330
F7C
100
AcDbXrecord
280
1
270
1
271
1
0
XRECORD
5
F81
102
{ACAD_REACTORS
330
F7C
102
}
330
F7C
100
AcDbXrecord
280
1
270
1
271
1
0
XRECORD
5
F80
102
{ACAD_REACTORS
330
F7C
102
}
330
F7C
100
AcDbXrecord
280
1
270
1
271
1
0
XRECORD
5
F82
102
{ACAD_REACTORS
330
F7C
102
}
330
F7C
100
AcDbXrecord
280
1
270
1
271
1
0
XRECORD
5
F7F
102
{ACAD_REACTORS
330
F7C
102
}
330
F7C
100
AcDbXrecord
280
1
270
1
271
1
0
XRECORD
5
1000
102
{ACAD_REACTORS
330
F8C
102
}
330
F8C
100
AcDbXrecord
280
1
102
MATERIAL
148
0.0
149
0.0
149
0.0
93
0
94
127
282
0
72
0
77
0
171
0
175
0
179
0
273
0
0
XRECORD
5
F8E
102
{ACAD_REACTORS
330
F8C
102
}
330
F8C
100
AcDbXrecord
280
1
270
1
271
1
0
XRECORD
5
F8D
102
{ACAD_REACTORS
330
F8C
102
}
330
F8C
100
AcDbXrecord
280
1
270
1
271
1
0
XRECORD
5
F91
102
{ACAD_REACTORS
330
F8C
102
}
330
F8C
100
AcDbXrecord
280
1
270
1
271
1
0
XRECORD
5
F90
102
{ACAD_REACTORS
330
F8C
102
}
330
F8C
100
AcDbXrecord
280
1
270
1
271
1
0
XRECORD
5
F92
102
{ACAD_REACTORS
330
F8C
102
}
330
F8C
100
AcDbXrecord
280
1
270
1
271
1
0
XRECORD
5
F8F
102
{ACAD_REACTORS
330
F8C
102
}
330
F8C
100
AcDbXrecord
280
1
270
1
271
1
0
CELLSTYLEMAP
5
1079
102
{ACAD_REACTORS
330
FF8
102
}
330
FF8
100
AcDbCellStyleMap
90
3
300
CELLSTYLE
1
TABLEFORMAT_BEGIN
90
5
170
1
91
0
92
32768
62
257
93
1
300
CONTENTFORMAT
1
CONTENTFORMAT_BEGIN
90
0
91
0
92
512
93
0
300

40
0.0
140
1.0
94
5
62
0
340
253
144
0.25
309
CONTENTFORMAT_END
171
1
301
MARGIN
1
CELLMARGIN_BEGIN
40
0.06
40
0.06
40
0.06
40
0.06
40
0.18
40
0.18
309
CELLMARGIN_END
94
6
95
1
302
GRIDFORMAT
1
GRIDFORMAT_BEGIN
90
0
91
1
62
0
92
-2
340
0
93
0
40
0.045
309
GRIDFORMAT_END
95
2
302
GRIDFORMAT
1
GRIDFORMAT_BEGIN
90
0
91
1
62
0
92
-2
340
0
93
0
40
0.045
309
GRIDFORMAT_END
95
4
302
GRIDFORMAT
1
GRIDFORMAT_BEGIN
90
0
91
1
62
0
92
-2
340
0
93
0
40
0.045
309
GRIDFORMAT_END
95
8
302
GRIDFORMAT
1
GRIDFORMAT_BEGIN
90
0
91
1
62
0
92
-2
340
0
93
0
40
0.045
309
GRIDFORMAT_END
95
16
302
GRIDFORMAT
1
GRIDFORMAT_BEGIN
90
0
91
1
62
0
92
-2
340
0
93
0
40
0.045
309
GRIDFORMAT_END
95
32
302
GRIDFORMAT
1
GRIDFORMAT_BEGIN
90
0
91
1
62
0
92
-2
340
0
93
0
40
0.045
309
GRIDFORMAT_END
309
TABLEFORMAT_END
1
CELLSTYLE_BEGIN
90
1
91
1
300
_TITLE
309
CELLSTYLE_END
300
CELLSTYLE
1
TABLEFORMAT_BEGIN
90
5
170
1
91
0
92
0
62
257
93
1
300
CONTENTFORMAT
1
CONTENTFORMAT_BEGIN
90
0
91
0
92
512
93
0
300

40
0.0
140
1.0
94
5
62
0
340
253
144
0.18
309
CONTENTFORMAT_END
171
1
301
MARGIN
1
CELLMARGIN_BEGIN
40
0.06
40
0.06
40
0.06
40
0.06
40
0.18
40
0.18
309
CELLMARGIN_END
94
6
95
1
302
GRIDFORMAT
1
GRIDFORMAT_BEGIN
90
0
91
1
62
0
92
-2
340
0
93
0
40
0.045
309
GRIDFORMAT_END
95
2
302
GRIDFORMAT
1
GRIDFORMAT_BEGIN
90
0
91
1
62
0
92
-2
340
0
93
0
40
0.045
309
GRIDFORMAT_END
95
4
302
GRIDFORMAT
1
GRIDFORMAT_BEGIN
90
0
91
1
62
0
92
-2
340
0
93
0
40
0.045
309
GRIDFORMAT_END
95
8
302
GRIDFORMAT
1
GRIDFORMAT_BEGIN
90
0
91
1
62
0
92
-2
340
0
93
0
40
0.045
309
GRIDFORMAT_END
95
16
302
GRIDFORMAT
1
GRIDFORMAT_BEGIN
90
0
91
1
62
0
92
-2
340
0
93
0
40
0.045
309
GRIDFORMAT_END
95
32
302
GRIDFORMAT
1
GRIDFORMAT_BEGIN
90
0
91
1
62
0
92
-2
340
0
93
0
40
0.045
309
GRIDFORMAT_END
309
TABLEFORMAT_END
1
CELLSTYLE_BEGIN
90
2
91
1
300
_HEADER
309
CELLSTYLE_END
300
CELLSTYLE
1
TABLEFORMAT_BEGIN
90
5
170
1
91
0
92
0
62
257
93
1
300
CONTENTFORMAT
1
CONTENTFORMAT_BEGIN
90
0
91
0
92
512
93
0
300

40
0.0
140
1.0
94
2
62
0
340
253
144
0.18
309
CONTENTFORMAT_END
171
1
301
MARGIN
1
CELLMARGIN_BEGIN
40
0.06
40
0.06
40
0.06
40
0.06
40
0.18
40
0.18
309
CELLMARGIN_END
94
6
95
1
302
GRIDFORMAT
1
GRIDFORMAT_BEGIN
90
0
91
1
62
0
92
-2
340
0
93
0
40
0.045
309
GRIDFORMAT_END
95
2
302
GRIDFORMAT
1
GRIDFORMAT_BEGIN
90
0
91
1
62
0
92
-2
340
0
93
0
40
0.045
309
GRIDFORMAT_END
95
4
302
GRIDFORMAT
1
GRIDFORMAT_BEGIN
90
0
91
1
62
0
92
-2
340
0
93
0
40
0.045
309
GRIDFORMAT_END
95
8
302
GRIDFORMAT
1
GRIDFORMAT_BEGIN
90
0
91
1
62
0
92
-2
340
0
93
0
40
0.045
309
GRIDFORMAT_END
95
16
302
GRIDFORMAT
1
GRIDFORMAT_BEGIN
90
0
91
1
62
0
92
-2
340
0
93
0
40
0.045
309
GRIDFORMAT_END
95
32
302
GRIDFORMAT
1
GRIDFORMAT_BEGIN
90
0
91
1
62
0
92
-2
340
0
93
0
40
0.045
309
GRIDFORMAT_END
309
TABLEFORMAT_END
1
CELLSTYLE_BEGIN
90
3
91
2
300
_DATA
309
CELLSTYLE_END
0
XRECORD
5
10A6
102
{ACAD_REACTORS
330
FF8
102
}
330
FF8
100
AcDbXrecord
280
1
102
ACAD_ROUNDTRIP_PRE2007_TABLESTYLE
90
512
91
0
1

92
512
93
0
2

94
512
95
0
3

0
XRECORD
5
108B
102
{ACAD_REACTORS
330
108A
102
}
330
108A
100
AcDbXrecord
280
1
102
RTVSPropertyOp0
70
1
102
RTVSPropertyOp1
70
1
102
RTVSPropertyOp2
70
1
102
RTVSPropertyOp3
70
1
102
RTVSPropertyOp4
70
1
102
RTVSPropertyOp5
70
1
102
RTVSPropertyOp6
70
1
102
RTVSPropertyOp7
70
1
102
RTVSPropertyOp8
70
1
102
RTVSPropertyOp9
70
1
102
RTVSPropertyOp10
70
1
102
RTVSPropertyOp11
70
1
102
RTVSPropertyOp12
70
1
102
RTVSPropertyOp13
70
1
102
RTVSPropertyOp14
70
1
102
RTVSPropertyOp15
70
1
102
RTVSPropertyOp16
70
1
102
RTVSPropertyOp17
70
1
102
RTVSPropertyOp18
70
1
102
RTVSPropertyOp19
70
1
102
RTVSPropertyOp20
70
1
102
RTVSPropertyOp21
70
1
102
RTVSPropertyOp22
70
1
102
RTVSPropertyOp23
70
1
102
RTVSPropertyOp24
70
1
102
RTVSPropertyOp25
70
1
102
RTVSPropertyOp26
70
1
102
RTVSPropertyOp27
70
1
0
XRECORD
5
108F
102
{ACAD_REACTORS
330
108E
102
}
330
108E
100
AcDbXrecord
280
1
102
RTVSPropertyOp0
70
1
102
RTVSPropertyOp1
70
1
102
RTVSPropertyOp2
70
1
102
RTVSPropertyOp3
70
1
102
RTVSPropertyOp4
70
1
102
RTVSPropertyOp5
70
1
102
RTVSPropertyOp6
70
1
102
RTVSPropertyOp7
70
1
102
RTVSPropertyOp8
70
1
102
RTVSPropertyOp9
70
1
102
RTVSPropertyOp10
70
1
102
RTVSPropertyOp11
70
1
102
RTVSPropertyOp12
70
1
102
RTVSPropertyOp13
70
1
102
RTVSPropertyOp14
70
1
102
RTVSPropertyOp15
70
1
102
RTVSPropertyOp16
70
1
102
RTVSPropertyOp17
70
1
102
RTVSPropertyOp18
70
1
102
RTVSPropertyOp19
70
1
102
RTVSPropertyOp20
70
1
102
RTVSPropertyOp21
70
1
102
RTVSPropertyOp22
70
1
102
RTVSPropertyOp23
70
1
102
RTVSPropertyOp24
70
1
102
RTVSPropertyOp25
70
1
102
RTVSPropertyOp26
70
1
102
RTVSPropertyOp27
70
1
0
XRECORD
5
108D
102
{ACAD_REACTORS
330
108C
102
}
330
108C
100
AcDbXrecord
280
1
102
RTVSPropertyOp0
70
1
102
RTVSPropertyOp1
70
1
102
RTVSPropertyOp2
70
1
102
RTVSPropertyOp3
70
1
102
RTVSPropertyOp4
70
1
102
RTVSPropertyOp5
70
1
102
RTVSPropertyOp6
70
1
102
RTVSPropertyOp7
70
1
102
RTVSPropertyOp8
70
1
102
RTVSPropertyOp9
70
1
102
RTVSPropertyOp10
70
1
102
RTVSPropertyOp11
70
1
102
RTVSPropertyOp12
70
1
102
RTVSPropertyOp13
70
1
102
RTVSPropertyOp14
70
1
102
RTVSPropertyOp15
70
1
102
RTVSPropertyOp16
70
1
102
RTVSPropertyOp17
70
1
102
RTVSPropertyOp18
70
1
102
RTVSPropertyOp19
70
1
102
RTVSPropertyOp20
70
1
102
RTVSPropertyOp21
70
1
102
RTVSPropertyOp22
70
1
102
RTVSPropertyOp23
70
1
102
RTVSPropertyOp24
70
1
102
RTVSPropertyOp25
70
1
102
RTVSPropertyOp26
70
1
102
RTVSPropertyOp27
70
1
0
XRECORD
5
1089
102
{ACAD_REACTORS
330
1088
102
}
330
1088
100
AcDbXrecord
280
1
102
RTVSPropertyOp0
70
1
102
RTVSPropertyOp1
70
1
102
RTVSPropertyOp2
70
1
102
RTVSPropertyOp3
70
1
102
RTVSPropertyOp4
70
1
102
RTVSPropertyOp5
70
1
102
RTVSPropertyOp6
70
1
102
RTVSPropertyOp7
70
1
102
RTVSPropertyOp8
70
1
102
RTVSPropertyOp9
70
1
102
RTVSPropertyOp10
70
1
102
RTVSPropertyOp11
70
1
102
RTVSPropertyOp12
70
1
102
RTVSPropertyOp13
70
1
102
RTVSPropertyOp14
70
1
102
RTVSPropertyOp15
70
1
102
RTVSPropertyOp16
70
1
102
RTVSPropertyOp17
70
1
102
RTVSPropertyOp18
70
1
102
RTVSPropertyOp19
70
1
102
RTVSPropertyOp20
70
1
102
RTVSPropertyOp21
70
1
102
RTVSPropertyOp22
70
1
102
RTVSPropertyOp23
70
1
102
RTVSPropertyOp24
70
1
102
RTVSPropertyOp25
70
1
102
RTVSPropertyOp26
70
1
102
RTVSPropertyOp27
70
1
0
XRECORD
5
1097
102
{ACAD_REACTORS
330
1096
102
}
330
1096
100
AcDbXrecord
280
1
102
RTVSPropertyOp0
70
1
102
RTVSPropertyOp1
70
1
102
RTVSPropertyOp2
70
1
102
RTVSPropertyOp3
70
1
102
RTVSPropertyOp4
70
1
102
RTVSPropertyOp5
70
1
102
RTVSPropertyOp6
70
1
102
RTVSPropertyOp7
70
1
102
RTVSPropertyOp8
70
1
102
RTVSPropertyOp9
70
1
102
RTVSPropertyOp10
70
1
102
RTVSPropertyOp11
70
1
102
RTVSPropertyOp12
70
1
102
RTVSPropertyOp13
70
1
102
RTVSPropertyOp14
70
1
102
RTVSPropertyOp15
70
1
102
RTVSPropertyOp16
70
1
102
RTVSPropertyOp17
70
1
102
RTVSPropertyOp18
70
1
102
RTVSPropertyOp19
70
1
102
RTVSPropertyOp20
70
1
102
RTVSPropertyOp21
70
1
102
RTVSPropertyOp22
70
1
102
RTVSPropertyOp23
70
1
102
RTVSPropertyOp24
70
1
102
RTVSPropertyOp25
70
1
102
RTVSPropertyOp26
70
1
102
RTVSPropertyOp27
70
1
0
XRECORD
5
109F
102
{ACAD_REACTORS
330
109E
102
}
330
109E
100
AcDbXrecord
280
1
102
RTVSPropertyOp0
70
1
102
RTVSPropertyOp1
70
1
102
RTVSPropertyOp2
70
1
102
RTVSPropertyOp3
70
1
102
RTVSPropertyOp4
70
1
102
RTVSPropertyOp5
70
1
102
RTVSPropertyOp6
70
1
102
RTVSPropertyOp7
70
1
102
RTVSPropertyOp8
70
1
102
RTVSPropertyOp9
70
1
102
RTVSPropertyOp10
70
1
102
RTVSPropertyOp11
70
1
102
RTVSPropertyOp12
70
1
102
RTVSPropertyOp13
70
1
102
RTVSPropertyOp14
70
1
102
RTVSPropertyOp15
70
1
102
RTVSPropertyOp16
70
1
102
RTVSPropertyOp17
70
1
102
RTVSPropertyOp18
70
1
102
RTVSPropertyOp19
70
1
102
RTVSPropertyOp20
70
1
102
RTVSPropertyOp21
70
1
102
RTVSPropertyOp22
70
1
102
RTVSPropertyOp23
70
1
102
RTVSPropertyOp24
70
1
102
RTVSPropertyOp25
70
1
102
RTVSPropertyOp26
70
1
102
RTVSPropertyOp27
70
1
0
XRECORD
5
1091
102
{ACAD_REACTORS
330
1090
102
}
330
1090
100
AcDbXrecord
280
1
102
RTVSPropertyOp0
70
1
102
RTVSPropertyOp1
70
1
102
RTVSPropertyOp2
70
1
102
RTVSPropertyOp3
70
1
102
RTVSPropertyOp4
70
1
102
RTVSPropertyOp5
70
1
102
RTVSPropertyOp6
70
1
102
RTVSPropertyOp7
70
1
102
RTVSPropertyOp8
70
1
102
RTVSPropertyOp9
70
1
102
RTVSPropertyOp10
70
1
102
RTVSPropertyOp11
70
1
102
RTVSPropertyOp12
70
1
102
RTVSPropertyOp13
70
1
102
RTVSPropertyOp14
70
1
102
RTVSPropertyOp15
70
1
102
RTVSPropertyOp16
70
1
102
RTVSPropertyOp17
70
1
102
RTVSPropertyOp18
70
1
102
RTVSPropertyOp19
70
1
102
RTVSPropertyOp20
70
1
102
RTVSPropertyOp21
70
1
102
RTVSPropertyOp22
70
1
102
RTVSPropertyOp23
70
1
102
RTVSPropertyOp24
70
1
102
RTVSPropertyOp25
70
1
102
RTVSPropertyOp26
70
1
102
RTVSPropertyOp27
70
1
0
XRECORD
5
1095
102
{ACAD_REACTORS
330
1094
102
}
330
1094
100
AcDbXrecord
280
1
102
RTVSPropertyOp0
70
1
102
RTVSPropertyOp1
70
1
102
RTVSPropertyOp2
70
1
102
RTVSPropertyOp3
70
1
102
RTVSPropertyOp4
70
1
102
RTVSPropertyOp5
70
1
102
RTVSPropertyOp6
70
1
102
RTVSPropertyOp7
70
1
102
RTVSPropertyOp8
70
1
102
RTVSPropertyOp9
70
1
102
RTVSPropertyOp10
70
1
102
RTVSPropertyOp11
70
1
102
RTVSPropertyOp12
70
1
102
RTVSPropertyOp13
70
1
102
RTVSPropertyOp14
70
1
102
RTVSPropertyOp15
70
1
102
RTVSPropertyOp16
70
1
102
RTVSPropertyOp17
70
1
102
RTVSPropertyOp18
70
1
102
RTVSPropertyOp19
70
1
102
RTVSPropertyOp20
70
1
102
RTVSPropertyOp21
70
1
102
RTVSPropertyOp22
70
1
102
RTVSPropertyOp23
70
1
102
RTVSPropertyOp24
70
1
102
RTVSPropertyOp25
70
1
102
RTVSPropertyOp26
70
1
102
RTVSPropertyOp27
70
1
0
XRECORD
5
10A5
102
{ACAD_REACTORS
330
10A4
102
}
330
10A4
100
AcDbXrecord
280
1
102
RTVSPropertyOp0
70
0
102
RTVSPropertyOp1
70
0
102
RTVSPropertyOp2
70
0
102
RTVSPropertyOp3
70
0
102
RTVSPropertyOp4
70
0
102
RTVSPropertyOp5
70
0
102
RTVSPropertyOp6
70
0
102
RTVSPropertyOp7
70
0
102
RTVSPropertyOp8
70
0
102
RTVSPropertyOp9
70
0
102
RTVSPropertyOp10
70
0
102
RTVSPropertyOp11
70
0
102
RTVSPropertyOp12
70
0
102
RTVSPropertyOp13
70
0
102
RTVSPropertyOp14
70
2
102
RTVSPropertyOp15
70
0
102
RTVSPropertyOp16
70
0
102
RTVSPropertyOp17
70
0
102
RTVSPropertyOp18
70
0
102
RTVSPropertyOp19
70
0
102
RTVSPropertyOp20
70
0
102
RTVSPropertyOp21
70
0
102
RTVSPropertyOp22
70
0
102
RTVSPropertyOp23
70
0
102
RTVSPropertyOp24
70
0
102
RTVSPropertyOp25
70
0
102
RTVSPropertyOp26
70
0
102
RTVSPropertyOp27
70
0
0
XRECORD
5
109D
102
{ACAD_REACTORS
330
109C
102
}
330
109C
100
AcDbXrecord
280
1
102
RTVSPropertyOp0
70
1
102
RTVSPropertyOp1
70
1
102
RTVSPropertyOp2
70
1
102
RTVSPropertyOp3
70
1
102
RTVSPropertyOp4
70
1
102
RTVSPropertyOp5
70
1
102
RTVSPropertyOp6
70
1
102
RTVSPropertyOp7
70
1
102
RTVSPropertyOp8
70
1
102
RTVSPropertyOp9
70
1
102
RTVSPropertyOp10
70
1
102
RTVSPropertyOp11
70
1
102
RTVSPropertyOp12
70
1
102
RTVSPropertyOp13
70
1
102
RTVSPropertyOp14
70
1
102
RTVSPropertyOp15
70
1
102
RTVSPropertyOp16
70
1
102
RTVSPropertyOp17
70
1
102
RTVSPropertyOp18
70
1
102
RTVSPropertyOp19
70
1
102
RTVSPropertyOp20
70
1
102
RTVSPropertyOp21
70
1
102
RTVSPropertyOp22
70
1
102
RTVSPropertyOp23
70
1
102
RTVSPropertyOp24
70
1
102
RTVSPropertyOp25
70
1
102
RTVSPropertyOp26
70
1
102
RTVSPropertyOp27
70
1
0
XRECORD
5
1081
102
{ACAD_REACTORS
330
1080
102
}
330
1080
100
AcDbXrecord
280
1
102
RTVSPropertyOp0
70
1
102
RTVSPropertyOp1
70
1
102
RTVSPropertyOp2
70
1
102
RTVSPropertyOp3
70
1
102
RTVSPropertyOp4
70
1
102
RTVSPropertyOp5
70
1
102
RTVSPropertyOp6
70
1
102
RTVSPropertyOp7
70
1
102
RTVSPropertyOp8
70
1
102
RTVSPropertyOp9
70
1
102
RTVSPropertyOp10
70
1
102
RTVSPropertyOp11
70
1
102
RTVSPropertyOp12
70
1
102
RTVSPropertyOp13
70
1
102
RTVSPropertyOp14
70
1
102
RTVSPropertyOp15
70
1
102
RTVSPropertyOp16
70
1
102
RTVSPropertyOp17
70
1
102
RTVSPropertyOp18
70
1
102
RTVSPropertyOp19
70
1
102
RTVSPropertyOp20
70
1
102
RTVSPropertyOp21
70
1
102
RTVSPropertyOp22
70
1
102
RTVSPropertyOp23
70
1
102
RTVSPropertyOp24
70
1
102
RTVSPropertyOp25
70
1
102
RTVSPropertyOp26
70
1
102
RTVSPropertyOp27
70
1
0
XRECORD
5
1083
102
{ACAD_REACTORS
330
1082
102
}
330
1082
100
AcDbXrecord
280
1
102
RTVSPropertyOp0
70
1
102
RTVSPropertyOp1
70
1
102
RTVSPropertyOp2
70
1
102
RTVSPropertyOp3
70
1
102
RTVSPropertyOp4
70
1
102
RTVSPropertyOp5
70
1
102
RTVSPropertyOp6
70
1
102
RTVSPropertyOp7
70
1
102
RTVSPropertyOp8
70
1
102
RTVSPropertyOp9
70
1
102
RTVSPropertyOp10
70
1
102
RTVSPropertyOp11
70
1
102
RTVSPropertyOp12
70
1
102
RTVSPropertyOp13
70
1
102
RTVSPropertyOp14
70
1
102
RTVSPropertyOp15
70
1
102
RTVSPropertyOp16
70
1
102
RTVSPropertyOp17
70
1
102
RTVSPropertyOp18
70
1
102
RTVSPropertyOp19
70
1
102
RTVSPropertyOp20
70
1
102
RTVSPropertyOp21
70
1
102
RTVSPropertyOp22
70
1
102
RTVSPropertyOp23
70
1
102
RTVSPropertyOp24
70
1
102
RTVSPropertyOp25
70
1
102
RTVSPropertyOp26
70
1
102
RTVSPropertyOp27
70
1
0
XRECORD
5
1085
102
{ACAD_REACTORS
330
1084
102
}
330
1084
100
AcDbXrecord
280
1
102
RTVSPropertyOp0
70
1
102
RTVSPropertyOp1
70
1
102
RTVSPropertyOp2
70
1
102
RTVSPropertyOp3
70
1
102
RTVSPropertyOp4
70
1
102
RTVSPropertyOp5
70
1
102
RTVSPropertyOp6
70
1
102
RTVSPropertyOp7
70
1
102
RTVSPropertyOp8
70
1
102
RTVSPropertyOp9
70
1
102
RTVSPropertyOp10
70
1
102
RTVSPropertyOp11
70
1
102
RTVSPropertyOp12
70
1
102
RTVSPropertyOp13
70
1
102
RTVSPropertyOp14
70
1
102
RTVSPropertyOp15
70
1
102
RTVSPropertyOp16
70
1
102
RTVSPropertyOp17
70
1
102
RTVSPropertyOp18
70
1
102
RTVSPropertyOp19
70
1
102
RTVSPropertyOp20
70
1
102
RTVSPropertyOp21
70
1
102
RTVSPropertyOp22
70
1
102
RTVSPropertyOp23
70
1
102
RTVSPropertyOp24
70
1
102
RTVSPropertyOp25
70
1
102
RTVSPropertyOp26
70
1
102
RTVSPropertyOp27
70
1
0
XRECORD
5
1087
102
{ACAD_REACTORS
330
1086
102
}
330
1086
100
AcDbXrecord
280
1
102
RTVSPropertyOp0
70
1
102
RTVSPropertyOp1
70
1
102
RTVSPropertyOp2
70
1
102
RTVSPropertyOp3
70
1
102
RTVSPropertyOp4
70
1
102
RTVSPropertyOp5
70
1
102
RTVSPropertyOp6
70
1
102
RTVSPropertyOp7
70
1
102
RTVSPropertyOp8
70
1
102
RTVSPropertyOp9
70
1
102
RTVSPropertyOp10
70
1
102
RTVSPropertyOp11
70
1
102
RTVSPropertyOp12
70
1
102
RTVSPropertyOp13
70
1
102
RTVSPropertyOp14
70
1
102
RTVSPropertyOp15
70
1
102
RTVSPropertyOp16
70
1
102
RTVSPropertyOp17
70
1
102
RTVSPropertyOp18
70
1
102
RTVSPropertyOp19
70
1
102
RTVSPropertyOp20
70
1
102
RTVSPropertyOp21
70
1
102
RTVSPropertyOp22
70
1
102
RTVSPropertyOp23
70
1
102
RTVSPropertyOp24
70
1
102
RTVSPropertyOp25
70
1
102
RTVSPropertyOp26
70
1
102
RTVSPropertyOp27
70
1
0
XRECORD
5
10A1
102
{ACAD_REACTORS
330
10A0
102
}
330
10A0
100
AcDbXrecord
280
1
102
RTVSPropertyOp0
70
0
102
RTVSPropertyOp1
70
0
102
RTVSPropertyOp2
70
0
102
RTVSPropertyOp3
70
0
102
RTVSPropertyOp4
70
0
102
RTVSPropertyOp5
70
0
102
RTVSPropertyOp6
70
0
102
RTVSPropertyOp7
70
0
102
RTVSPropertyOp8
70
0
102
RTVSPropertyOp9
70
0
102
RTVSPropertyOp10
70
0
102
RTVSPropertyOp11
70
0
102
RTVSPropertyOp12
70
0
102
RTVSPropertyOp13
70
0
102
RTVSPropertyOp14
70
2
102
RTVSPropertyOp15
70
0
102
RTVSPropertyOp16
70
0
102
RTVSPropertyOp17
70
0
102
RTVSPropertyOp18
70
0
102
RTVSPropertyOp19
70
0
102
RTVSPropertyOp20
70
0
102
RTVSPropertyOp21
70
0
102
RTVSPropertyOp22
70
0
102
RTVSPropertyOp23
70
0
102
RTVSPropertyOp24
70
0
102
RTVSPropertyOp25
70
0
102
RTVSPropertyOp26
70
0
102
RTVSPropertyOp27
70
0
0
XRECORD
5
109B
102
{ACAD_REACTORS
330
109A
102
}
330
109A
100
AcDbXrecord
280
1
102
RTVSPropertyOp0
70
1
102
RTVSPropertyOp1
70
1
102
RTVSPropertyOp2
70
1
102
RTVSPropertyOp3
70
1
102
RTVSPropertyOp4
70
1
102
RTVSPropertyOp5
70
1
102
RTVSPropertyOp6
70
1
102
RTVSPropertyOp7
70
1
102
RTVSPropertyOp8
70
1
102
RTVSPropertyOp9
70
1
102
RTVSPropertyOp10
70
1
102
RTVSPropertyOp11
70
1
102
RTVSPropertyOp12
70
1
102
RTVSPropertyOp13
70
1
102
RTVSPropertyOp14
70
1
102
RTVSPropertyOp15
70
1
102
RTVSPropertyOp16
70
1
102
RTVSPropertyOp17
70
1
102
RTVSPropertyOp18
70
1
102
RTVSPropertyOp19
70
1
102
RTVSPropertyOp20
70
1
102
RTVSPropertyOp21
70
1
102
RTVSPropertyOp22
70
1
102
RTVSPropertyOp23
70
1
102
RTVSPropertyOp24
70
1
102
RTVSPropertyOp25
70
1
102
RTVSPropertyOp26
70
1
102
RTVSPropertyOp27
70
1
0
XRECORD
5
10A3
102
{ACAD_REACTORS
330
10A2
102
}
330
10A2
100
AcDbXrecord
280
1
102
RTVSPropertyOp0
70
0
102
RTVSPropertyOp1
70
0
102
RTVSPropertyOp2
70
0
102
RTVSPropertyOp3
70
0
102
RTVSPropertyOp4
70
0
102
RTVSPropertyOp5
70
0
102
RTVSPropertyOp6
70
0
102
RTVSPropertyOp7
70
0
102
RTVSPropertyOp8
70
0
102
RTVSPropertyOp9
70
0
102
RTVSPropertyOp10
70
0
102
RTVSPropertyOp11
70
0
102
RTVSPropertyOp12
70
0
102
RTVSPropertyOp13
70
0
102
RTVSPropertyOp14
70
2
102
RTVSPropertyOp15
70
0
102
RTVSPropertyOp16
70
0
102
RTVSPropertyOp17
70
0
102
RTVSPropertyOp18
70
0
102
RTVSPropertyOp19
70
0
102
RTVSPropertyOp20
70
0
102
RTVSPropertyOp21
70
0
102
RTVSPropertyOp22
70
0
102
RTVSPropertyOp23
70
0
102
RTVSPropertyOp24
70
0
102
RTVSPropertyOp25
70
0
102
RTVSPropertyOp26
70
0
102
RTVSPropertyOp27
70
0
0
XRECORD
5
1093
102
{ACAD_REACTORS
330
1092
102
}
330
1092
100
AcDbXrecord
280
1
102
RTVSPropertyOp0
70
1
102
RTVSPropertyOp1
70
1
102
RTVSPropertyOp2
70
1
102
RTVSPropertyOp3
70
1
102
RTVSPropertyOp4
70
1
102
RTVSPropertyOp5
70
1
102
RTVSPropertyOp6
70
1
102
RTVSPropertyOp7
70
1
102
RTVSPropertyOp8
70
1
102
RTVSPropertyOp9
70
1
102
RTVSPropertyOp10
70
1
102
RTVSPropertyOp11
70
1
102
RTVSPropertyOp12
70
1
102
RTVSPropertyOp13
70
1
102
RTVSPropertyOp14
70
1
102
RTVSPropertyOp15
70
1
102
RTVSPropertyOp16
70
1
102
RTVSPropertyOp17
70
1
102
RTVSPropertyOp18
70
1
102
RTVSPropertyOp19
70
1
102
RTVSPropertyOp20
70
1
102
RTVSPropertyOp21
70
1
102
RTVSPropertyOp22
70
1
102
RTVSPropertyOp23
70
1
102
RTVSPropertyOp24
70
1
102
RTVSPropertyOp25
70
1
102
RTVSPropertyOp26
70
1
102
RTVSPropertyOp27
70
1
0
XRECORD
5
1099
102
{ACAD_REACTORS
330
1098
102
}
330
1098
100
AcDbXrecord
280
1
102
RTVSPropertyOp0
70
1
102
RTVSPropertyOp1
70
1
102
RTVSPropertyOp2
70
1
102
RTVSPropertyOp3
70
1
102
RTVSPropertyOp4
70
1
102
RTVSPropertyOp5
70
1
102
RTVSPropertyOp6
70
1
102
RTVSPropertyOp7
70
1
102
RTVSPropertyOp8
70
1
102
RTVSPropertyOp9
70
1
102
RTVSPropertyOp10
70
1
102
RTVSPropertyOp11
70
1
102
RTVSPropertyOp12
70
1
102
RTVSPropertyOp13
70
1
102
RTVSPropertyOp14
70
1
102
RTVSPropertyOp15
70
1
102
RTVSPropertyOp16
70
1
102
RTVSPropertyOp17
70
1
102
RTVSPropertyOp18
70
1
102
RTVSPropertyOp19
70
1
102
RTVSPropertyOp20
70
1
102
RTVSPropertyOp21
70
1
102
RTVSPropertyOp22
70
1
102
RTVSPropertyOp23
70
1
102
RTVSPropertyOp24
70
1
102
RTVSPropertyOp25
70
1
102
RTVSPropertyOp26
70
1
102
RTVSPropertyOp27
70
1
0
ENDSEC
0
EOF
