0
SECTION
2
HEADER
9
$ACADVER
1
AC1015
9
$ACADMAINTVER
70
20
9
$DWGCODEPAGE
3
ANSI_1252
9
$INSBASE
10
0.0
20
0.0
30
0.0
9
$EXTMIN
10
-150.000000000000
20
-105.000000000000
30
0.0
9
$EXTMAX
10
150.000000000000
20
105.000000000000
30
0.0
9
$LIMMIN
10
0.0
20
0.0
9
$LIMMAX
10
12.0
20
9.0
9
$ORTHOMODE
70
0
9
$REGENMODE
70
1
9
$FILLMODE
70
1
9
$QTEXTMODE
70
0
9
$MIRRTEXT
70
1
9
$LTSCALE
40
1.0
9
$ATTMODE
70
1
9
$TEXTSIZE
40
0.2
9
$TRACEWID
40
0.05
9
$TEXTSTYLE
7
Standard
9
$CLAYER
8
0
9
$CELTYPE
6
ByLayer
9
$CECOLOR
62
256
9
$CELTSCALE
40
1.0
9
$DISPSILH
70
0
9
$DIMSCALE
40
1.0
9
$DIMASZ
40
2.5
9
$DIMEXO
40
0.625
9
$DIMDLI
40
0.38
9
$DIMRND
40
0.0
9
$DIMDLE
40
0.0
9
$DIMEXE
40
1.25
9
$DIMTP
40
0.0
9
$DIMTM
40
0.000000001
9
$DIMTXT
40
2.5
9
$DIMCEN
40
0.09
9
$DIMTSZ
40
0.0
9
$DIMTOL
70
1
9
$DIMLIM
70
0
9
$DIMTIH
70
0
9
$DIMTOH
70
0
9
$DIMSE1
70
0
9
$DIMSE2
70
0
9
$DIMTAD
70
1
9
$DIMZIN
70
0
9
$DIMBLK
1
VDDIM_DEFAULT
9
$DIMASO
70
1
9
$DIMSHO
70
1
9
$DIMPOST
1

9
$DIMAPOST
1

9
$DIMALT
70
0
9
$DIMALTD
70
2
9
$DIMALTF
40
25.4
9
$DIMLFAC
40
1.00000000000000
9
$DIMTOFL
70
0
9
$DIMTVP
40
0.0
9
$DIMTIX
70
0
9
$DIMSOXD
70
0
9
$DIMSAH
70
0
9
$DIMBLK1
1

9
$DIMBLK2
1

9
$DIMSTYLE
2
BEM-ISBE
9
$DIMCLRD
70
0
9
$DIMCLRE
70
0
9
$DIMCLRT
70
0
9
$DIMTFAC
40
0.5
9
$DIMGAP
40
0.625
9
$DIMJUST
70
0
9
$DIMSD1
70
0
9
$DIMSD2
70
0
9
$DIMTOLJ
70
1
9
$DIMTZIN
70
0
9
$DIMALTZ
70
0
9
$DIMALTTZ
70
0
9
$DIMUPT
70
0
9
$DIMDEC
70
3
9
$DIMTDEC
70
3
9
$DIMALTU
70
2
9
$DIMALTTD
70
2
9
$DIMTXSTY
7
Standard
9
$DIMAUNIT
70
0
9
$DIMADEC
70
3
9
$DIMALTRND
40
0.0
9
$DIMAZIN
70
0
9
$DIMDSEP
70
46
9
$DIMATFIT
70
3
9
$DIMFRAC
70
0
9
$DIMLDRBLK
1

9
$DIMLUNIT
70
2
9
$DIMLWD
70
-2
9
$DIMLWE
70
-2
9
$DIMTMOVE
70
0
9
$LUNITS
70
2
9
$LUPREC
70
4
9
$SKETCHINC
40
0.1
9
$FILLETRAD
40
0.5
9
$AUNITS
70
0
9
$AUPREC
70
0
9
$MENU
1
.
9
$ELEVATION
40
0.0
9
$PELEVATION
40
0.0
9
$THICKNESS
40
0.0
9
$LIMCHECK
70
0
9
$CHAMFERA
40
0.5
9
$CHAMFERB
40
0.5
9
$CHAMFERC
40
1.0
9
$CHAMFERD
40
0.0
9
$SKPOLY
70
0
9
$TDCREATE
40
0.0
9
$TDUCREATE
40
0.0
9
$TDUPDATE
40
0.0
9
$TDUUPDATE
40
0.0
9
$TDINDWG
40
0.0
9
$TDUSRTIMER
40
0.0
9
$USRTIMER
70
1
9
$ANGBASE
50
0.0
9
$ANGDIR
70
0
9
$PDMODE
70
0
9
$PDSIZE
40
0.0
9
$PLINEWID
40
0.0
9
$SPLFRAME
70
0
9
$SPLINETYPE
70
6
9
$SPLINESEGS
70
8
9
$HANDSEED
5
10AB
9
$SURFTAB1
70
6
9
$SURFTAB2
70
6
9
$SURFTYPE
70
6
9
$SURFU
70
6
9
$SURFV
70
6
9
$UCSBASE
2

9
$UCSNAME
2

9
$UCSORG
10
0.0
20
0.0
30
0.0
9
$UCSXDIR
10
1.0
20
0.0
30
0.0
9
$UCSYDIR
10
0.0
20
1.0
30
0.0
9
$UCSORTHOREF
2

9
$UCSORTHOVIEW
70
0
9
$UCSORGTOP
10
0.0
20
0.0
30
0.0
9
$UCSORGBOTTOM
10
0.0
20
0.0
30
0.0
9
$UCSORGLEFT
10
0.0
20
0.0
30
0.0
9
$UCSORGRIGHT
10
0.0
20
0.0
30
0.0
9
$UCSORGFRONT
10
0.0
20
0.0
30
0.0
9
$UCSORGBACK
10
0.0
20
0.0
30
0.0
9
$PUCSBASE
2

9
$PUCSNAME
2

9
$PUCSORG
10
0.0
20
0.0
30
0.0
9
$PUCSXDIR
10
1.0
20
0.0
30
0.0
9
$PUCSYDIR
10
0.0
20
1.0
30
0.0
9
$PUCSORTHOREF
2

9
$PUCSORTHOVIEW
70
0
9
$PUCSORGTOP
10
0.0
20
0.0
30
0.0
9
$PUCSORGBOTTOM
10
0.0
20
0.0
30
0.0
9
$PUCSORGLEFT
10
0.0
20
0.0
30
0.0
9
$PUCSORGRIGHT
10
0.0
20
0.0
30
0.0
9
$PUCSORGFRONT
10
0.0
20
0.0
30
0.0
9
$PUCSORGBACK
10
0.0
20
0.0
30
0.0
9
$USERI1
70
0
9
$USERI2
70
0
9
$USERI3
70
0
9
$USERI4
70
0
9
$USERI5
70
0
9
$USERR1
40
0.0
9
$USERR2
40
0.0
9
$USERR3
40
0.0
9
$USERR4
40
0.0
9
$USERR5
40
0.0
9
$WORLDVIEW
70
1
9
$SHADEDGE
70
3
9
$SHADEDIF
70
70
9
$TILEMODE
70
1
9
$MAXACTVP
70
64
9
$PINSBASE
10
0.0
20
0.0
30
0.0
9
$PLIMCHECK
70
0
9
$PEXTMIN
10
1.000000000000000E+20
20
1.000000000000000E+20
30
1.000000000000000E+20
9
$PEXTMAX
10
-1.000000000000000E+20
20
-1.000000000000000E+20
30
-1.000000000000000E+20
9
$PLIMMIN
10
0.0
20
0.0
9
$PLIMMAX
10
12.0
20
9.0
9
$UNITMODE
70
0
9
$VISRETAIN
70
1
9
$PLINEGEN
70
0
9
$PSLTSCALE
70
1
9
$TREEDEPTH
70
3020
9
$CMLSTYLE
2
Standard
9
$CMLJUST
70
0
9
$CMLSCALE
40
1.0
9
$PROXYGRAPHICS
70
1
9
$MEASUREMENT
70
0
9
$CELWEIGHT
370
-1
9
$ENDCAPS
280
0
9
$JOINSTYLE
280
0
9
$LWDISPLAY
290
0
9
$INSUNITS
70
4
9
$HYPERLINKBASE
1

9
$STYLESHEET
1

9
$XEDIT
290
1
9
$CEPSNTYPE
380
0
9
$PSTYLEMODE
290
0
9
$FINGERPRINTGUID
2
{FAEB1C30-E019-11D5-929B-00C0DF256EC4}
9
$VERSIONGUID
2
{04C5C4E4-4947-4D90-8812-D401569E61F7}
9
$EXTNAMES
290
1
9
$PSVPSCALE
40
0.0
9
$OLESTARTUP
290
0
0
ENDSEC
0
SECTION
2
CLASSES
0
CLASS
1
ACDBDICTIONARYWDFLT
2
AcDbDictionaryWithDefault
3
ObjectDBX Classes
90
0
280
0
281
0
0
CLASS
1
ACDBPLACEHOLDER
2
AcDbPlaceHolder
3
ObjectDBX Classes
90
0
280
0
281
0
0
CLASS
1
LAYOUT
2
AcDbLayout
3
ObjectDBX Classes
90
0
280
0
281
0
0
CLASS
1
MATERIAL
2
AcDbMaterial
3
ObjectDBX Classes
90
1153
280
0
281
0
0
CLASS
1
VISUALSTYLE
2
AcDbVisualStyle
3
ObjectDBX Classes
90
4095
280
0
281
0
0
CLASS
1
TABLESTYLE
2
AcDbTableStyle
3
ObjectDBX Classes
90
4095
280
0
281
0
0
CLASS
1
SCALE
2
AcDbScale
3
ObjectDBX Classes
90
1153
280
0
281
0
0
CLASS
1
MLEADERSTYLE
2
AcDbMLeaderStyle
3
ACDB_MLEADERSTYLE_CLASS
90
4095
280
0
281
0
0
CLASS
1
DICTIONARYVAR
2
AcDbDictionaryVar
3
ObjectDBX Classes
90
0
280
0
281
0
0
CLASS
1
CELLSTYLEMAP
2
AcDbCellStyleMap
3
ObjectDBX Classes
90
1152
280
0
281
0
0
ENDSEC
0
SECTION
2
TABLES
0
TABLE
2
VPORT
5
24A
330
0
100
AcDbSymbolTable
70
1
0
VPORT
5
26B
330
24A
100
AcDbSymbolTableRecord
100
AcDbViewportTableRecord
2
*Active
70
0
10
0.0
20
0.0
11
1.0
21
1.0
12
0.000000000000000
22
0.000000000000000
13
0.0
23
0.0
14
10.0
24
10.0
15
10.0
25
10.0
16
0.0
26
0.0
36
1.0
17
0.0
27
0.0
37
0.0
40
210.000000000000
41
1.42857142857143
42
1.0
43
0.0
44
0.0
50
0.0
51
0.0000000000007958
71
0
72
100
73
1
74
3
75
0
76
0
77
0
78
1
281
0
65
1
110
0.0
120
0.0
130
0.0
111
1.0
121
0.0
131
0.0
112
0.0
122
1.0
132
0.0
79
0
146
0.0
0
ENDTAB
0
TABLE
2
LTYPE
5
247
330
0
100
AcDbSymbolTable
70
25
0
LTYPE
5
256
330
247
100
AcDbSymbolTableRecord
100
AcDbLinetypeTableRecord
2
ByBlock
70
0
3

72
65
73
0
40
0.0
0
LTYPE
5
257
330
247
100
AcDbSymbolTableRecord
100
AcDbLinetypeTableRecord
2
ByLayer
70
0
3

72
65
73
0
40
0.0
0
LTYPE
5
258
330
247
100
AcDbSymbolTableRecord
100
AcDbLinetypeTableRecord
2
Continuous
70
0
3
Solid line
72
65
73
0
40
0.0
0
LTYPE
5
273
330
247
100
AcDbSymbolTableRecord
100
AcDbLinetypeTableRecord
2
CENTER
70
0
3
Center ____ _ ____ _ ____ _ ____ _ ____ _ ____
72
65
73
4
40
2.0
49
1.25
74
0
49
-0.25
74
0
49
0.25
74
0
49
-0.25
74
0
0
LTYPE
5
274
330
247
100
AcDbSymbolTableRecord
100
AcDbLinetypeTableRecord
2
DASHDOT
70
0
3
Dashdot __ . __ . __ . __ . __ . __ . __ . __
72
65
73
4
40
1.0
49
0.5
74
0
49
-0.25
74
0
49
0.0
74
0
49
-0.25
74
0
0
LTYPE
5
275
330
247
100
AcDbSymbolTableRecord
100
AcDbLinetypeTableRecord
2
DASHED
70
0
3
Dashed __ __ __ __ __ __ __ __ __ __ __ __ __ _
72
65
73
2
40
0.75
49
0.5
74
0
49
-0.25
74
0
0
LTYPE
5
276
330
247
100
AcDbSymbolTableRecord
100
AcDbLinetypeTableRecord
2
HIDDEN
70
0
3
Hidden __ __ __ __ __ __ __ __ __ __ __ __ __ __
72
65
73
2
40
0.375
49
0.25
74
0
49
-0.125
74
0
0
LTYPE
5
277
330
247
100
AcDbSymbolTableRecord
100
AcDbLinetypeTableRecord
2
HIDDEN2
70
0
3
Hidden2 _ _ _ _ _ _ _ _ _ _ _ _ _ _ _ _ _
72
65
73
2
40
0.1875
49
0.125
74
0
49
-0.0625
74
0
0
LTYPE
5
278
330
247
100
AcDbSymbolTableRecord
100
AcDbLinetypeTableRecord
2
BORDER
70
0
3
Border __ __ . __ __ . __ __ . __ __ . __ __ .
72
65
73
6
40
1.75
49
0.5
74
0
49
-0.25
74
0
49
0.5
74
0
49
-0.25
74
0
49
0.0
74
0
49
-0.25
74
0
0
LTYPE
5
279
330
247
100
AcDbSymbolTableRecord
100
AcDbLinetypeTableRecord
2
BORDER2
70
0
3
Border2 __.__.__.__.__.__.__.__.__.__.__.
72
65
73
6
40
0.875
49
0.25
74
0
49
-0.125
74
0
49
0.25
74
0
49
-0.125
74
0
49
0.0
74
0
49
-0.125
74
0
0
LTYPE
5
27A
330
247
100
AcDbSymbolTableRecord
100
AcDbLinetypeTableRecord
2
BORDERX2
70
0
3
Borderx2  ____  ____  .  ____  ____  .  ___
72
65
73
6
40
3.5
49
1.0
74
0
49
-0.5
74
0
49
1.0
74
0
49
-0.5
74
0
49
0.0
74
0
49
-0.5
74
0
0
LTYPE
5
27B
330
247
100
AcDbSymbolTableRecord
100
AcDbLinetypeTableRecord
2
CENTER2
70
0
3
Center2  ___ _ ___ _ ___ _ ___ _ ___ _ ___
72
65
73
4
40
1.125
49
0.75
74
0
49
-0.125
74
0
49
0.125
74
0
49
-0.125
74
0
0
LTYPE
5
27C
330
247
100
AcDbSymbolTableRecord
100
AcDbLinetypeTableRecord
2
CENTERX2
70
0
3
Centerx2  ________  __  ________  __  _____
72
65
73
4
40
4.0
49
2.5
74
0
49
-0.5
74
0
49
0.5
74
0
49
-0.5
74
0
0
LTYPE
5
27D
330
247
100
AcDbSymbolTableRecord
100
AcDbLinetypeTableRecord
2
DASHDOT2
70
0
3
Dashdot2  _._._._._._._._._._._._._._._.
72
65
73
4
40
0.5
49
0.25
74
0
49
-0.125
74
0
49
0.0
74
0
49
-0.125
74
0
0
LTYPE
5
27E
330
247
100
AcDbSymbolTableRecord
100
AcDbLinetypeTableRecord
2
DASHDOTX2
70
0
3
Dashdotx2 ____  .  ____  .  ____  .  ___
72
65
73
4
40
2.0
49
1.0
74
0
49
-0.5
74
0
49
0.0
74
0
49
-0.5
74
0
0
LTYPE
5
27F
330
247
100
AcDbSymbolTableRecord
100
AcDbLinetypeTableRecord
2
DASHED2
70
0
3
Dashed2 _ _ _ _ _ _ _ _ _ _ _ _ _ _ _ _ _
72
65
73
2
40
0.375
49
0.25
74
0
49
-0.125
74
0
0
LTYPE
5
280
330
247
100
AcDbSymbolTableRecord
100
AcDbLinetypeTableRecord
2
DASHEDX2
70
0
3
Dashedx2 ____  ____  ____  ____  ____  ___
72
65
73
2
40
1.5
49
1.0
74
0
49
-0.5
74
0
0
LTYPE
5
281
330
247
100
AcDbSymbolTableRecord
100
AcDbLinetypeTableRecord
2
DIVIDE
70
0
3
Divide ____ . . ____ . . ____ . . ____ . . ____
72
65
73
6
40
1.25
49
0.5
74
0
49
-0.25
74
0
49
0.0
74
0
49
-0.25
74
0
49
0.0
74
0
49
-0.25
74
0
0
LTYPE
5
282
330
247
100
AcDbSymbolTableRecord
100
AcDbLinetypeTableRecord
2
DIVIDE2
70
0
3
Divide2 __..__..__..__..__..__..__..__.._
72
65
73
6
40
0.625
49
0.25
74
0
49
-0.125
74
0
49
0.0
74
0
49
-0.125
74
0
49
0.0
74
0
49
-0.125
74
0
0
LTYPE
5
283
330
247
100
AcDbSymbolTableRecord
100
AcDbLinetypeTableRecord
2
DIVIDEX2
70
0
3
Dividex2 ________  .  .  ________  .  .  _
72
65
73
6
40
2.5
49
1.0
74
0
49
-0.5
74
0
49
0.0
74
0
49
-0.5
74
0
49
0.0
74
0
49
-0.5
74
0
0
LTYPE
5
284
330
247
100
AcDbSymbolTableRecord
100
AcDbLinetypeTableRecord
2
DOT
70
0
3
Dot . . . . . . . . . . . . . . . . . . . . . . . .
72
65
73
2
40
0.25
49
0.0
74
0
49
-0.25
74
0
0
LTYPE
5
285
330
247
100
AcDbSymbolTableRecord
100
AcDbLinetypeTableRecord
2
DOT2
70
0
3
Dot2 ........................................
72
65
73
2
40
0.125
49
0.0
74
0
49
-0.125
74
0
0
LTYPE
5
286
330
247
100
AcDbSymbolTableRecord
100
AcDbLinetypeTableRecord
2
DOTX2
70
0
3
Dotx2 .  .  .  .  .  .  .  .  .  .  .  .  .  .
72
65
73
2
40
0.5
49
0.0
74
0
49
-0.5
74
0
0
LTYPE
5
287
330
247
100
AcDbSymbolTableRecord
100
AcDbLinetypeTableRecord
2
HIDDENX2
70
0
3
Hiddenx2 ____ ____ ____ ____ ____ ____ ____
72
65
73
2
40
0.75
49
0.5
74
0
49
-0.25
74
0
0
LTYPE
5
288
330
247
100
AcDbSymbolTableRecord
100
AcDbLinetypeTableRecord
2
PHANTOM
70
0
3
Phantom ______  __  __  ______  __  __  ______
72
65
73
6
40
2.5
49
1.25
74
0
49
-0.25
74
0
49
0.25
74
0
49
-0.25
74
0
49
0.25
74
0
49
-0.25
74
0
0
LTYPE
5
289
330
247
100
AcDbSymbolTableRecord
100
AcDbLinetypeTableRecord
2
PHANTOM2
70
0
3
Phantom2 ___ _ _ ___ _ _ ___ _ _ ___ _ _
72
65
73
6
40
1.25
49
0.625
74
0
49
-0.125
74
0
49
0.125
74
0
49
-0.125
74
0
49
0.125
74
0
49
-0.125
74
0
0
LTYPE
5
28A
330
247
100
AcDbSymbolTableRecord
100
AcDbLinetypeTableRecord
2
PHANTOMX2
70
0
3
Phantomx2 ____________    ____    ____   _
72
65
73
6
40
5.0
49
2.5
74
0
49
-0.5
74
0
49
0.5
74
0
49
-0.5
74
0
49
0.5
74
0
49
-0.5
74
0
0
ENDTAB
0
TABLE
2
LAYER
5
244
330
0
100
AcDbSymbolTable
70
6
0
LAYER
5
252
330
244
100
AcDbSymbolTableRecord
100
AcDbLayerTableRecord
2
0
70
0
62
7
6
Continuous
370
0
390
251
0
LAYER
5
23F
330
244
100
AcDbSymbolTableRecord
100
AcDbLayerTableRecord
2
Bemassung
70
0
 62
   7
6
Continuous
370
0
390
251
0
LAYER
5
240
330
244
100
AcDbSymbolTableRecord
100
AcDbLayerTableRecord
2
Rahmen
70
0
 62
   7
6
Continuous
370
0
390
251
0
LAYER
5
241
330
244
100
AcDbSymbolTableRecord
100
AcDbLayerTableRecord
2
Geo
70
0
 62
   7
6
Continuous
370
0
390
251
0
LAYER
5
33A
330
244
100
AcDbSymbolTableRecord
100
AcDbLayerTableRecord
2
Defpoints
70
0
62
7
6
Continuous
290
0
370
-3
390
251
0
LAYER
5
57E
330
244
100
AcDbSymbolTableRecord
100
AcDbLayerTableRecord
2
Text
70
0
 62
   7
6
Continuous
370
0
390
251
1001
AcAecLayerStandard
1000

1000

0
ENDTAB
0
TABLE
2
STYLE
5
245
330
0
100
AcDbSymbolTable
70
2
0
STYLE
5
253
330
245
100
AcDbSymbolTableRecord
100
AcDbTextStyleTableRecord
2
Standard
70
0
40
0.0
41
1.0
50
0.0
71
0
42
0.2
3
Arial
4

1001
ACAD
1000
Arial
1071
0
0
STYLE
5
132
330
245
100
AcDbSymbolTableRecord
100
AcDbTextStyleTableRecord
2
Beschriftung
70
0
40
0.0
41
1.0
50
0.0
71
0
42
0.2
3
Arial
4

1001
ACAD
1000
Arial
1071
0
1001
AcadAnnotative
1000
AnnotativeData
1070
1
1070
1
0
ENDTAB
0
TABLE
2
VIEW
5
248
330
0
100
AcDbSymbolTable
70
0
0
ENDTAB
0
TABLE
2
UCS
5
249
330
0
100
AcDbSymbolTable
70
0
0
ENDTAB
0
TABLE
2
APPID
5
24B
330
0
100
AcDbSymbolTable
70
13
0
APPID
5
254
330
24B
100
AcDbSymbolTableRecord
100
AcDbRegAppTableRecord
2
ACAD
70
0
0
APPID
5
26C
330
24B
100
AcDbSymbolTableRecord
100
AcDbRegAppTableRecord
2
VD_INVISIBLE_NOT_FOR_READ
70
0
0
APPID
5
26D
330
24B
100
AcDbSymbolTableRecord
100
AcDbRegAppTableRecord
2
VD_TEMPHATCH
70
0
0
APPID
5
26E
330
24B
100
AcDbSymbolTableRecord
100
AcDbRegAppTableRecord
2
VDEXTRAPARAM
70
0
0
APPID
5
26F
330
24B
100
AcDbSymbolTableRecord
100
AcDbRegAppTableRecord
2
PE_URL
70
0
0
APPID
5
270
330
24B
100
AcDbSymbolTableRecord
100
AcDbRegAppTableRecord
2
VD_UNKNOWN
70
0
0
APPID
5
28F
330
24B
100
AcDbSymbolTableRecord
100
AcDbRegAppTableRecord
2
AcadAnnotative
70
0
0
APPID
5
290
330
24B
100
AcDbSymbolTableRecord
100
AcDbRegAppTableRecord
2
ACAD_DSTYLE_DIMJAG
70
0
0
APPID
5
291
330
24B
100
AcDbSymbolTableRecord
100
AcDbRegAppTableRecord
2
ACAD_DSTYLE_DIMTALN
70
0
0
APPID
5
293
330
24B
100
AcDbSymbolTableRecord
100
AcDbRegAppTableRecord
2
ACAD_PSEXT
70
0
0
APPID
5
42A
330
24B
100
AcDbSymbolTableRecord
100
AcDbRegAppTableRecord
2
ACAD_MLEADERVER
70
0
0
APPID
5
532
330
24B
100
AcDbSymbolTableRecord
100
AcDbRegAppTableRecord
2
ACAD_EXEMPT_FROM_CAD_STANDARDS
70
0
0
APPID
5
57F
330
24B
100
AcDbSymbolTableRecord
100
AcDbRegAppTableRecord
2
AcAecLayerStandard
70
0
0
ENDTAB
0
TABLE
2
DIMSTYLE
5
24C
330
0
100
AcDbSymbolTable
70
3
100
AcDbDimStyleTable
71
2
340
27
340
269
0
DIMSTYLE
105
269
330
24C
100
AcDbSymbolTableRecord
100
AcDbDimStyleTableRecord
2
Standard
70
0
172
1
174
1
288
1
340
253
342
23C
0
DIMSTYLE
105
137
330
24C
100
AcDbSymbolTableRecord
100
AcDbDimStyleTableRecord
2
Beschriftung
70
0
41
2.5
42
0.625
44
1.25
73
0
74
0
77
1
140
2.5
147
0.625
172
1
174
1
271
2
288
1
340
253
342
23C
1001
AcadAnnotative
1000
AnnotativeData
1070
1
1070
1
1001
ACAD_DSTYLE_DIMJAG
1070
388
1040
1.5
1001
ACAD_DSTYLE_DIMTALN
1070
392
1070
0
0
DIMSTYLE
105
27
102
{ACAD_REACTORS
330
F1000D
330
F1001C
330
F10021
330
F10012
330
F10003
330
F10008
330
F10017
102
}
330
24C
100
AcDbSymbolTableRecord
100
AcDbDimStyleTableRecord
2
BEM-ISBE
70
0
41
2.5
42
0.625
44
1.25
48
0.000000001
71
1
73
0
74
0
77
1
140
2.5
144
1.00000000000000
146
0.5
147
0.625
171
 3
172
 1
179
 3
271
 3
272
 3
274
 3
340
253
342
23C
1001
ACAD_DSTYLE_DIMJAG
1070
388
1040
1.5
1001
ACAD_DSTYLE_DIMTALN
1070
392
1070
1
0
ENDTAB
0
TABLE
2
BLOCK_RECORD
5
243
330
0
100
AcDbSymbolTable
70
5
0
BLOCK_RECORD
5
261
330
243
100
AcDbSymbolTableRecord
100
AcDbBlockTableRecord
2
*Model_Space
340
FD0
0
BLOCK_RECORD
5
25D
330
243
100
AcDbSymbolTableRecord
100
AcDbBlockTableRecord
2
*Paper_Space
340
FD1
0
BLOCK_RECORD
5
265
330
243
100
AcDbSymbolTableRecord
100
AcDbBlockTableRecord
2
*Paper_Space0
340
0
0
BLOCK_RECORD
5
23C
330
243
100
AcDbSymbolTableRecord
100
AcDbBlockTableRecord
2
VDDIM_DEFAULT
340
0
102
{BLKREFS
102
}
0
BLOCK_RECORD
5
23E
330
243
100
AcDbSymbolTableRecord
100
AcDbBlockTableRecord
2
VDDIM_NONE
340
0
0
BLOCK_RECORD
5
F1000C
330
243
100
AcDbSymbolTableRecord
100
AcDbBlockTableRecord
2
*D5
340
0
0
BLOCK_RECORD
5
F1001B
330
243
100
AcDbSymbolTableRecord
100
AcDbBlockTableRecord
2
*D8
340
0
0
BLOCK_RECORD
5
F10020
330
243
100
AcDbSymbolTableRecord
100
AcDbBlockTableRecord
2
*D9
340
0
0
BLOCK_RECORD
5
F10011
330
243
100
AcDbSymbolTableRecord
100
AcDbBlockTableRecord
2
*D6
340
0
0
BLOCK_RECORD
5
F10002
330
243
100
AcDbSymbolTableRecord
100
AcDbBlockTableRecord
2
*D3
340
0
0
BLOCK_RECORD
5
F10007
330
243
100
AcDbSymbolTableRecord
100
AcDbBlockTableRecord
2
*D4
340
0
0
BLOCK_RECORD
5
F10016
330
243
100
AcDbSymbolTableRecord
100
AcDbBlockTableRecord
2
*D7
340
0
0
ENDTAB
0
ENDSEC
0
SECTION
2
BLOCKS
0
BLOCK
5
262
330
261
100
AcDbEntity
8
0
100
AcDbBlockBegin
2
*Model_Space
70
0
10
0.0
20
0.0
30
0.0
3
*Model_Space
1

0
ENDBLK
5
263
330
261
100
AcDbEntity
8
0
100
AcDbBlockEnd
0
BLOCK
5
25E
330
25D
100
AcDbEntity
67
1
8
0
100
AcDbBlockBegin
2
*Paper_Space
70
0
10
0.0
20
0.0
30
0.0
3
*Paper_Space
1

0
ENDBLK
5
25F
330
25D
100
AcDbEntity
67
1
8
0
100
AcDbBlockEnd
0
BLOCK
5
266
330
265
100
AcDbEntity
8
0
100
AcDbBlockBegin
2
*Paper_Space0
70
0
10
0.0
20
0.0
30
0.0
3
*Paper_Space0
1

0
VIEWPORT
5
296
102
{ACAD_XDICTIONARY
360
58E
102
}
330
265
100
AcDbEntity
8
0
60
1
100
AcDbViewport
10
0.0
20
0.0
30
0.0
40
10.0
41
10.0
69
0
12
0.0
22
0.0
13
0.0
23
0.0
14
1.0
24
1.0
15
0.0
25
0.0
16
0.0
26
0.0
36
1.0
17
0.0
27
0.0
37
0.0
42
0.0
43
0.0
44
0.0
45
10.0
50
0.0
51
0.0000000000007958
72
100
90
163872
1

281
0
71
0
74
0
110
0.0
120
0.0
130
0.0
111
1.0
121
0.0
131
0.0
112
0.0
122
1.0
132
0.0
79
0
146
0.0
1001
VD_INVISIBLE_NOT_FOR_READ
1000
VD_INVISIBLE_NOT_FOR_READ
0
VIEWPORT
5
297
102
{ACAD_XDICTIONARY
360
590
102
}
330
265
100
AcDbEntity
8
0
60
1
100
AcDbViewport
10
0.0
20
0.0
30
0.0
40
10.0
41
10.0
69
0
12
0.0
22
0.0
13
0.0
23
0.0
14
1.0
24
1.0
15
0.0
25
0.0
16
0.0
26
0.0
36
1.0
17
0.0
27
0.0
37
0.0
42
0.0
43
0.0
44
0.0
45
10.0
50
0.0
51
0.0000000000007958
72
100
90
163872
1

281
0
71
0
74
0
110
0.0
120
0.0
130
0.0
111
1.0
121
0.0
131
0.0
112
0.0
122
1.0
132
0.0
79
0
146
0.0
1001
VD_INVISIBLE_NOT_FOR_READ
1000
VD_INVISIBLE_NOT_FOR_READ
0
ENDBLK
5
267
330
265
100
AcDbEntity
8
0
100
AcDbBlockEnd
0
BLOCK
5
28B
330
23C
100
AcDbEntity
8
0
100
AcDbBlockBegin
2
VDDIM_DEFAULT
70
0
10
0.0
20
0.0
30
0.0
3
VDDIM_DEFAULT
1

0
LWPOLYLINE
5
23D
330
23C
100
AcDbEntity
8
0
6
Continuous
62
0
100
AcDbPolyline
90
4
70
0
43
0.0
10
0.0
20
0.0
10
-1.0
20
-0.1665
10
-1.0
20
0.1665
10
0.0
20
0.0
1001
VDEXTRAPARAM
1071
1
1071
0
1071
0
1040
1.0
1000

1000

1040
0.0
1040
0.0
0
HATCH
5
292
330
23C
100
AcDbEntity
8
0
6
Continuous
62
0
100
AcDbHatch
10
0.0
20
0.0
30
0.0
210
0.0
220
0.0
230
1.0
2
SOLID
70
1
71
0
91
1
92
2
72
0
73
1
93
3
10
0.0
20
0.0
10
-1.0
20
-0.1665
10
-1.0
20
0.1665
97
0
75
0
76
1
98
1
10
0.0
20
0.0
1001
VDEXTRAPARAM
1071
1
1071
0
1071
0
1040
1.0
1000

1000

1040
0.0
1040
0.0
1001
VD_TEMPHATCH
1000
VD_TEMPHATCH
0
ENDBLK
5
28C
330
23C
100
AcDbEntity
8
0
100
AcDbBlockEnd
0
BLOCK
5
28D
330
23E
100
AcDbEntity
8
0
100
AcDbBlockBegin
2
VDDIM_NONE
70
0
10
0.0
20
0.0
30
0.0
3
VDDIM_NONE
1

0
ENDBLK
5
28E
330
23E
100
AcDbEntity
8
0
100
AcDbBlockEnd
  0
BLOCK
  5
F10025
330
F1000C
100
AcDbEntity
  8
0
100
AcDbBlockBegin
  2
*D5
 70
     1
 10
0.0
 20
0.0
 30
0.0
  3
*D5
  1

  0
LINE
  5
F10026
330
F1000C
100
AcDbEntity
  8
Bemassung
 62
     0
370
    -2
100
AcDbLine
10
-45.2233294255570
20
19.0785463071510
30
0.000000000000000
11
-45.2233294255570
21
58.2555685814769
31
0.000000000000000
  0
LINE
  5
F10027
330
F1000C
100
AcDbEntity
  8
Bemassung
 62
     0
370
    -2
100
AcDbLine
10
4.77667057444300
20
18.4651463071510
30
0.000000000000000
11
4.77667057444300
21
45.6998827667055
31
0.000000000000000
  0
LINE
  5
F10028
330
F1000C
100
AcDbEntity
  8
Bemassung
 62
     0
370
    -2
100
AcDbLine
10
-45.2233294255570
20
43.6998827667055
30
0.000000000000000
11
4.77667057444300
21
43.6998827667055
31
0.000000000000000
  0
INSERT
  5
F10029
330
F1000C
100
AcDbEntity
  8
Bemassung
 62
     0
370
    -2
100
AcDbBlockReference
  2
VDDIM_DEFAULT
10
-45.2233294255570
20
43.6998827667055
30
0.000000000000000
 41
2.50000000000000
 42
2.50000000000000
 43
2.50000000000000
 50
180.000000000000
  0
INSERT
  5
F1002A
330
F1000C
100
AcDbEntity
  8
Bemassung
 62
     0
370
    -2
100
AcDbBlockReference
  2
VDDIM_DEFAULT
10
4.77667057444300
20
43.6998827667055
30
0.000000000000000
 41
2.50000000000000
 42
2.50000000000000
 43
2.50000000000000
  0
MTEXT
  5
F1002B
102
{ACAD_XDICTIONARY
360
F1000F
102
}
330
F1000C
100
AcDbEntity
  8
Bemassung
 62
     0
100
AcDbMText
10
-24.7042790152404
20
43.0332161000388
30
0.000000000000000
 40
2.50000000000000
 41
0.0
 71
     8
 72
     1
  1
\A1;50
 11
1.00000000000000
 21
0.000000000000000
 31
0.0
 73
     1
 44
1.0
1001
ACAD
1000
MTEXTBEGIN
1070
73
1070
1
1070
44
1040
1.0
1070
74
1070
0
1000
MTEXTEND
  0
POINT
  5
F1002C
330
F1000C
100
AcDbEntity
  8
Bemassung
 62
     0
100
AcDbPoint
10
-45.2233294255570
20
19.0785463071510
30
0.000000000000000
  0
POINT
  5
F1002D
330
F1000C
100
AcDbEntity
  8
Bemassung
 62
     0
100
AcDbPoint
10
4.77667057444300
20
18.4651463071510
30
0.000000000000000
  0
ENDBLK
  5
F1002E
330
F1000C
100
AcDbEntity
  8
0
100
AcDbBlockEnd
  0
BLOCK
  5
F1002F
330
F1001B
100
AcDbEntity
  8
0
100
AcDbBlockBegin
  2
*D8
 70
     1
 10
0.0
 20
0.0
 30
0.0
  3
*D8
  1

  0
LINE
  5
F10030
330
F1001B
100
AcDbEntity
  8
Bemassung
 62
     0
370
    -2
100
AcDbLine
10
-39.2233294255570
20
28.4665885111368
30
0.000000000000000
11
-39.2233294255570
21
3.69194630715100
31
0.000000000000000
  0
LINE
  5
F10031
330
F1001B
100
AcDbEntity
  8
Bemassung
 62
     0
370
    -2
100
AcDbLine
10
-45.2233294255570
20
19.0785463071510
30
0.000000000000000
11
-45.2233294255570
21
58.2555685814769
31
0.000000000000000
  0
LINE
  5
F10032
330
F1001B
100
AcDbEntity
  8
Bemassung
 62
     0
370
    -2
100
AcDbLine
10
-39.2233294255570
20
26.4665885111368
30
0.000000000000000
11
-45.2233294255570
21
26.4665885111369
31
0.000000000000000
  0
INSERT
  5
F10033
330
F1001B
100
AcDbEntity
  8
Bemassung
 62
     0
370
    -2
100
AcDbBlockReference
  2
VDDIM_DEFAULT
10
-39.2233294255570
20
26.4665885111368
30
0.000000000000000
 41
2.50000000000000
 42
2.50000000000000
 43
2.50000000000000
 50
180.000000000000
  0
INSERT
  5
F10034
330
F1001B
100
AcDbEntity
  8
Bemassung
 62
     0
370
    -2
100
AcDbBlockReference
  2
VDDIM_DEFAULT
10
-45.2233294255570
20
26.4665885111369
30
0.000000000000000
 41
2.50000000000000
 42
2.50000000000000
 43
2.50000000000000
  0
MTEXT
  5
F10035
102
{ACAD_XDICTIONARY
360
F1001E
102
}
330
F1001B
100
AcDbEntity
  8
Bemassung
 62
     0
100
AcDbMText
10
-41.1990035169990
20
27.1332551778035
30
0.000000000000000
 40
2.50000000000000
 41
0.0
 71
     8
 72
     1
  1
\A1;6
 11
1.00000000000000
 21
0.000000000000000
 31
0.0
 73
     1
 44
1.0
1001
ACAD
1000
MTEXTBEGIN
1070
73
1070
1
1070
44
1040
1.0
1070
74
1070
0
1000
MTEXTEND
  0
POINT
  5
F10036
330
F1001B
100
AcDbEntity
  8
Bemassung
 62
     0
100
AcDbPoint
10
-39.2233294255570
20
28.4665885111368
30
0.000000000000000
  0
POINT
  5
F10037
330
F1001B
100
AcDbEntity
  8
Bemassung
 62
     0
100
AcDbPoint
10
-45.2233294255570
20
19.0785463071510
30
0.000000000000000
  0
ENDBLK
  5
F10038
330
F1001B
100
AcDbEntity
  8
0
100
AcDbBlockEnd
  0
BLOCK
  5
F10039
330
F10020
100
AcDbEntity
  8
0
100
AcDbBlockBegin
  2
*D9
 70
     1
 10
0.0
 20
0.0
 30
0.0
  3
*D9
  1

  0
LINE
  5
F1003A
330
F10020
100
AcDbEntity
  8
Bemassung
 62
     0
370
    -2
100
AcDbLine
10
54.7766705744430
20
18.9785463071510
30
0.000000000000000
11
54.7766705744430
21
58.2555685814770
31
0.000000000000000
  0
LINE
  5
F1003B
330
F10020
100
AcDbEntity
  8
Bemassung
 62
     0
370
    -2
100
AcDbLine
10
-45.2233294255570
20
19.0785463071510
30
0.000000000000000
11
-45.2233294255570
21
58.2555685814769
31
0.000000000000000
  0
LINE
  5
F1003C
330
F10020
100
AcDbEntity
  8
Bemassung
 62
     0
370
    -2
100
AcDbLine
10
54.7766705744430
20
56.2555685814770
30
0.000000000000000
11
-45.2233294255570
21
56.2555685814769
31
0.000000000000000
  0
INSERT
  5
F1003D
330
F10020
100
AcDbEntity
  8
Bemassung
 62
     0
370
    -2
100
AcDbBlockReference
  2
VDDIM_DEFAULT
10
54.7766705744430
20
56.2555685814770
30
0.000000000000000
 41
2.50000000000000
 42
2.50000000000000
 43
2.50000000000000
  0
INSERT
  5
F1003E
330
F10020
100
AcDbEntity
  8
Bemassung
 62
     0
370
    -2
100
AcDbBlockReference
  2
VDDIM_DEFAULT
10
-45.2233294255570
20
56.2555685814769
30
0.000000000000000
 41
2.50000000000000
 42
2.50000000000000
 43
2.50000000000000
 50
180.000000000000
  0
MTEXT
  5
F1003F
102
{ACAD_XDICTIONARY
360
F10023
102
}
330
F10020
100
AcDbEntity
  8
Bemassung
 62
     0
100
AcDbMText
10
-1.19314185228620
20
56.9222352481436
30
0.000000000000000
 40
2.50000000000000
 41
0.0
 71
     8
 72
     1
  1
\A1;100
 11
1.00000000000000
 21
0.000000000000000
 31
0.0
 73
     1
 44
1.0
1001
ACAD
1000
MTEXTBEGIN
1070
73
1070
1
1070
44
1040
1.0
1070
74
1070
0
1000
MTEXTEND
  0
POINT
  5
F10040
330
F10020
100
AcDbEntity
  8
Bemassung
 62
     0
100
AcDbPoint
10
54.7766705744430
20
18.9785463071510
30
0.000000000000000
  0
POINT
  5
F10041
330
F10020
100
AcDbEntity
  8
Bemassung
 62
     0
100
AcDbPoint
10
-45.2233294255570
20
19.0785463071510
30
0.000000000000000
  0
ENDBLK
  5
F10042
330
F10020
100
AcDbEntity
  8
0
100
AcDbBlockEnd
  0
BLOCK
  5
F10043
330
F10011
100
AcDbEntity
  8
0
100
AcDbBlockBegin
  2
*D6
 70
     1
 10
0.0
 20
0.0
 30
0.0
  3
*D6
  1

 0
ARC
  5
F10044
330
F10011
100
AcDbEntity
  8
Bemassung
 62
     0
370
   -2
100
AcDbCircle
10
5.39007057444300
20
19.0785463071510
30
0.000000000000000
 40
19.4121606038077
100
AcDbArc
 50
0.000000000000000
 51
45.0000000000001
  0
LINE
  5
F10045
330
F10011
100
AcDbEntity
  8
Bemassung
 62
     0
370
    -2
100
AcDbLine
10
5.39007057444300
20
19.0785463071510
30
0.000000000000000
11
26.8022311782507
21
19.0785463071510
31
0.000000000000000
  0
LINE
  5
F10046
330
F10011
100
AcDbEntity
  8
Bemassung
 62
     0
370
    -2
100
AcDbLine
10
5.39007057444300
20
19.0785463071510
30
0.000000000000000
11
20.5307545372509
21
34.2192302699589
31
0.000000000000000
  0
INSERT
  5
F10047
330
F10011
100
AcDbEntity
  8
Bemassung
 62
     0
370
    -2
100
AcDbBlockReference
  2
VDDIM_DEFAULT
10
24.8022311782507
20
19.0785463071510
30
0.000000000000000
 41
2.50000000000000
 42
2.50000000000000
 43
2.50000000000000
 50
273.691980123188
  0
INSERT
  5
F10048
330
F10011
100
AcDbEntity
  8
Bemassung
 62
     0
370
    -2
100
AcDbBlockReference
  2
VDDIM_DEFAULT
10
19.1165409748778
20
32.8050167075858
30
0.000000000000000
 41
2.50000000000000
 42
2.50000000000000
 43
2.50000000000000
 50
131.308019876812
  0
MTEXT
  5
F10049
102
{ACAD_XDICTIONARY
360
F10014
102
}
330
F10011
100
AcDbEntity
  8
Bemassung
 62
     0
100
AcDbMText
10
23.0760667057443
20
27.0808909730361
30
0.000000000000000
 40
2.50000000000000
 41
0.0
 71
     8
 72
     1
  1
\A1;45°
 11
0.382683432365089
 21
-0.923879532511287
 31
0.0
 73
     1
 44
1.0
1001
ACAD
1000
MTEXTBEGIN
1070
73
1070
1
1070
44
1040
1.0
1070
74
1070
0
1000
MTEXTEND
  0
POINT
  5
F1004A
330
F10011
100
AcDbEntity
  8
Bemassung
 62
     0
100
AcDbPoint
10
5.39007057444300
20
19.0785463071510
30
0.000000000000000
  0
POINT
  5
F1004B
330
F10011
100
AcDbEntity
  8
Bemassung
 62
     0
100
AcDbPoint
10
24.8022311782507
20
19.0785463071510
30
0.000000000000000
  0
POINT
  5
F1004C
330
F10011
100
AcDbEntity
  8
Bemassung
 62
     0
100
AcDbPoint
10
19.1165409748778
20
32.8050167075858
30
0.000000000000000
  0
POINT
  5
F1004D
330
F10011
100
AcDbEntity
  8
Bemassung
 62
     0
100
AcDbPoint
10
23.3245684381229
20
26.5072585566385
30
0.000000000000000
  0
ENDBLK
  5
F1004E
330
F10011
100
AcDbEntity
  8
0
100
AcDbBlockEnd
  0
BLOCK
  5
F1004F
330
F10002
100
AcDbEntity
  8
0
100
AcDbBlockBegin
  2
*D3
 70
     1
 10
0.0
 20
0.0
 30
0.0
  3
*D3
  1

  0
LINE
  5
F10050
330
F10002
100
AcDbEntity
  8
Bemassung
 62
     0
370
    -2
100
AcDbLine
10
-45.2233294255570
20
3.07854630715100
30
0.000000000000000
11
-54.1922626025793
21
3.07854630715100
31
0.000000000000000
  0
LINE
  5
F10051
330
F10002
100
AcDbEntity
  8
Bemassung
 62
     0
370
    -2
100
AcDbLine
10
-45.2233294255570
20
19.0785463071510
30
0.000000000000000
11
-54.1922626025793
21
19.0785463071510
31
0.000000000000000
  0
LINE
  5
F10052
330
F10002
100
AcDbEntity
  8
Bemassung
 62
     0
370
    -2
100
AcDbLine
10
-52.1922626025793
20
3.07854630715100
30
0.000000000000000
11
-52.1922626025793
21
19.0785463071510
31
0.000000000000000
  0
INSERT
  5
F10053
330
F10002
100
AcDbEntity
  8
Bemassung
 62
     0
370
    -2
100
AcDbBlockReference
  2
VDDIM_DEFAULT
10
-52.1922626025793
20
3.07854630715100
30
0.000000000000000
 41
2.50000000000000
 42
2.50000000000000
 43
2.50000000000000
 50
270.000000000000
  0
INSERT
  5
F10054
330
F10002
100
AcDbEntity
  8
Bemassung
 62
     0
370
    -2
100
AcDbBlockReference
  2
VDDIM_DEFAULT
10
-52.1922626025793
20
19.0785463071510
30
0.000000000000000
 41
2.50000000000000
 42
2.50000000000000
 43
2.50000000000000
 50
90.0000000000000
  0
MTEXT
  5
F10055
102
{ACAD_XDICTIONARY
360
F10005
102
}
330
F10002
100
AcDbEntity
  8
Bemassung
 62
     0
100
AcDbMText
10
-52.8589292692460
20
24.4958968347008
30
0.000000000000000
 40
2.50000000000000
 41
0.0
 71
     8
 72
     1
  1
\A1;16
 11
6.12323399573677e-017
 21
1.00000000000000
 31
0.0
 73
     1
 44
1.0
1001
ACAD
1000
MTEXTBEGIN
1070
73
1070
1
1070
44
1040
1.0
1070
74
1070
0
1000
MTEXTEND
  0
POINT
  5
F10056
330
F10002
100
AcDbEntity
  8
Bemassung
 62
     0
100
AcDbPoint
10
-45.2233294255570
20
3.07854630715100
30
0.000000000000000
  0
POINT
  5
F10057
330
F10002
100
AcDbEntity
  8
Bemassung
 62
     0
100
AcDbPoint
10
-45.2233294255570
20
19.0785463071510
30
0.000000000000000
  0
ENDBLK
  5
F10058
330
F10002
100
AcDbEntity
  8
0
100
AcDbBlockEnd
  0
BLOCK
  5
F10059
330
F10007
100
AcDbEntity
  8
0
100
AcDbBlockBegin
  2
*D4
 70
     1
 10
0.0
 20
0.0
 30
0.0
  3
*D4
  1

  0
LINE
  5
F1005A
330
F10007
100
AcDbEntity
  8
Bemassung
 62
     0
370
    -2
100
AcDbLine
10
-39.2233294255570
20
3.69194630715100
30
0.000000000000000
11
7.32473622508780
21
3.69194630715100
31
0.000000000000000
  0
LINE
  5
F1005B
330
F10007
100
AcDbEntity
  8
Bemassung
 62
     0
370
    -2
100
AcDbLine
10
-39.2233294255570
20
18.4651463071510
30
0.000000000000000
11
7.32473622508780
21
18.4651463071510
31
0.000000000000000
  0
LINE
  5
F1005C
330
F10007
100
AcDbEntity
  8
Bemassung
 62
     0
370
    -2
100
AcDbLine
10
5.32473622508780
20
3.69194630715100
30
0.000000000000000
11
5.32473622508780
21
18.4651463071510
31
0.000000000000000
  0
INSERT
  5
F1005D
330
F10007
100
AcDbEntity
  8
Bemassung
 62
     0
370
    -2
100
AcDbBlockReference
  2
VDDIM_DEFAULT
10
5.32473622508780
20
3.69194630715100
30
0.000000000000000
 41
2.50000000000000
 42
2.50000000000000
 43
2.50000000000000
 50
90.0000000000000
  0
INSERT
  5
F1005E
330
F10007
100
AcDbEntity
  8
Bemassung
 62
     0
370
    -2
100
AcDbBlockReference
  2
VDDIM_DEFAULT
10
5.32473622508780
20
18.4651463071510
30
0.000000000000000
 41
2.50000000000000
 42
2.50000000000000
 43
2.50000000000000
 50
270.000000000000
  0
MTEXT
  5
F1005F
102
{ACAD_XDICTIONARY
360
F1000A
102
}
330
F10007
100
AcDbEntity
  8
Bemassung
 62
     0
100
AcDbMText
10
4.65806955842114
20
31.0199296600232
30
0.000000000000000
 40
2.50000000000000
 41
0.0
 71
     8
 72
     1
  1
\A1;14.773
 11
6.12323399573677e-017
 21
1.00000000000000
 31
0.0
 73
     1
 44
1.0
1001
ACAD
1000
MTEXTBEGIN
1070
73
1070
1
1070
44
1040
1.0
1070
74
1070
0
1000
MTEXTEND
  0
POINT
  5
F10060
330
F10007
100
AcDbEntity
  8
Bemassung
 62
     0
100
AcDbPoint
10
-39.2233294255570
20
3.69194630715100
30
0.000000000000000
  0
POINT
  5
F10061
330
F10007
100
AcDbEntity
  8
Bemassung
 62
     0
100
AcDbPoint
10
-39.2233294255570
20
18.4651463071510
30
0.000000000000000
  0
ENDBLK
  5
F10062
330
F10007
100
AcDbEntity
  8
0
100
AcDbBlockEnd
  0
BLOCK
  5
F10063
330
F10016
100
AcDbEntity
  8
0
100
AcDbBlockBegin
  2
*D7
 70
     1
 10
0.0
 20
0.0
 30
0.0
  3
*D7
  1

  0
LINE
  5
F10064
330
F10016
100
AcDbEntity
  8
Bemassung
 62
     0
370
    -2
100
AcDbLine
10
54.6766705744430
20
3.07854630715100
30
0.000000000000000
11
64.9396248534582
21
3.07854630715100
31
0.000000000000000
  0
LINE
  5
F10065
330
F10016
100
AcDbEntity
  8
Bemassung
 62
     0
370
    -2
100
AcDbLine
10
54.6766705744430
20
19.0785463071510
30
0.000000000000000
11
64.9396248534582
21
19.0785463071510
31
0.000000000000000
  0
LINE
  5
F10066
330
F10016
100
AcDbEntity
  8
Bemassung
 62
     0
370
    -2
100
AcDbLine
10
62.9396248534582
20
3.07854630715100
30
0.000000000000000
11
62.9396248534582
21
19.0785463071510
31
0.000000000000000
  0
INSERT
  5
F10067
330
F10016
100
AcDbEntity
  8
Bemassung
 62
     0
370
    -2
100
AcDbBlockReference
  2
VDDIM_DEFAULT
10
62.9396248534582
20
3.07854630715100
30
0.000000000000000
 41
2.50000000000000
 42
2.50000000000000
 43
2.50000000000000
 50
270.000000000000
  0
INSERT
  5
F10068
330
F10016
100
AcDbEntity
  8
Bemassung
 62
     0
370
    -2
100
AcDbBlockReference
  2
VDDIM_DEFAULT
10
62.9396248534582
20
19.0785463071510
30
0.000000000000000
 41
2.50000000000000
 42
2.50000000000000
 43
2.50000000000000
 50
90.0000000000000
  0
MTEXT
  5
F10069
330
F10016
100
AcDbEntity
  8
Bemassung
 62
     0
100
AcDbMText
10
62.2729581867915
20
21.0187573270807
30
0.000000000000000
 40
2.50000000000000
 41
0.0
 71
     8
 72
     1
  1
\A1;16 h6
 11
6.12323399573677e-017
 21
1.00000000000000
 31
0.0
 73
     1
 44
1.0
  0
POINT
  5
F1006A
330
F10016
100
AcDbEntity
  8
Bemassung
 62
     0
100
AcDbPoint
10
54.6766705744430
20
3.07854630715100
30
0.000000000000000
  0
POINT
  5
F1006B
330
F10016
100
AcDbEntity
  8
Bemassung
 62
     0
100
AcDbPoint
10
54.6766705744430
20
19.0785463071510
30
0.000000000000000
  0
ENDBLK
  5
F1006C
330
F10016
100
AcDbEntity
  8
0
100
AcDbBlockEnd
0
ENDSEC
0
SECTION
2
ENTITIES
  0
DIMENSION
  5
F1000D
330
261
100
AcDbEntity
  8
Bemassung
100
AcDbDimension
  2
*D5
10
4.77667057444300
20
43.6998827667055
30
0.000000000000000
11
-24.7042790152404
21
43.0332161000388
31
0.000000000000000
 70
32
 1
<>
 71
     8
  3
BEM-ISBE
100
AcDbAlignedDimension
13
-45.2233294255570
23
19.0785463071510
33
0.000000000000000
14
4.77667057444300
24
18.4651463071510
34
0.000000000000000
100
AcDbRotatedDimension
1001
ACAD
1000
DSTYLE
1002
{
1070
284
1070
8
1070
78
1070
8
1070
144
1040
1.00000000000000
1070
147
1040
0.625
1070
 72
1070
 0
1070
 71
1070
 0
1002
}
  0
DIMENSION
  5
F1001C
330
261
100
AcDbEntity
  8
Bemassung
100
AcDbDimension
  2
*D8
10
-45.2233294255570
20
26.4665885111369
30
0.000000000000000
11
-41.1990035169990
21
27.1332551778035
31
0.000000000000000
 70
32
 1
<>
 71
     8
  3
BEM-ISBE
100
AcDbAlignedDimension
13
-39.2233294255570
23
28.4665885111368
33
0.000000000000000
14
-45.2233294255570
24
19.0785463071510
34
0.000000000000000
100
AcDbRotatedDimension
1001
ACAD
1000
DSTYLE
1002
{
1070
284
1070
8
1070
78
1070
8
1070
144
1040
1.00000000000000
1070
147
1040
0.625
1070
 72
1070
 0
1070
 71
1070
 0
1002
}
  0
DIMENSION
  5
F10021
330
261
100
AcDbEntity
  8
Bemassung
100
AcDbDimension
  2
*D9
10
-45.2233294255570
20
56.2555685814769
30
0.000000000000000
11
-1.19314185228620
21
56.9222352481436
31
0.000000000000000
 70
32
 1
<>
 71
     8
  3
BEM-ISBE
100
AcDbAlignedDimension
13
54.7766705744430
23
18.9785463071510
33
0.000000000000000
14
-45.2233294255570
24
19.0785463071510
34
0.000000000000000
100
AcDbRotatedDimension
1001
ACAD
1000
DSTYLE
1002
{
1070
284
1070
8
1070
78
1070
8
1070
144
1040
1.00000000000000
1070
147
1040
0.625
1070
 72
1070
 0
1070
 71
1070
 0
1002
}
  0
DIMENSION
  5
F10012
330
261
100
AcDbEntity
  8
Bemassung
100
AcDbDimension
  2
*D6
10
5.39007057444300
20
19.0785463071510
30
0.000000000000000
11
23.0760667057443
21
27.0808909730361
31
0.000000000000000
 70
34
 1
<>
 71
     8
  3
BEM-ISBE
100
AcDb2LineAngularDimension
13
5.39007057444300
23
19.0785463071510
33
0.000000000000000
14
26.8022311782507
24
19.0785463071510
34
0.000000000000000
15
20.5307545372509
25
34.2192302699589
35
0.000000000000000
16
23.3245684381229
26
26.5072585566385
36
0.000000000000000
1001
ACAD
1000
DSTYLE
1002
{
1070
284
1070
8
1070
79
1070
2
1070
147
1040
0.625
1070
 72
1070
 0
1070
 71
1070
 0
1002
}
  0
DIMENSION
  5
F10003
330
261
100
AcDbEntity
  8
Bemassung
100
AcDbDimension
  2
*D3
10
-52.1922626025793
20
19.0785463071510
30
0.000000000000000
11
-52.8589292692460
21
24.4958968347008
31
0.000000000000000
 70
32
 1
Ø<>
 71
     8
  3
BEM-ISBE
100
AcDbAlignedDimension
13
-45.2233294255570
23
3.07854630715100
33
0.000000000000000
14
-45.2233294255570
24
19.0785463071510
34
0.000000000000000
50
90.0000000000000
100
AcDbRotatedDimension
1001
ACAD
1000
DSTYLE
1002
{
1070
284
1070
8
1070
78
1070
8
1070
144
1040
1.00000000000000
1070
147
1040
0.625
1070
 72
1070
 0
1070
 71
1070
 0
1002
}
  0
DIMENSION
  5
F10008
330
261
100
AcDbEntity
  8
Bemassung
100
AcDbDimension
  2
*D4
10
5.32473622508780
20
18.4651463071510
30
0.000000000000000
11
4.65806955842114
21
31.0199296600232
31
0.000000000000000
 70
32
 1
Ø<>
 71
     8
  3
BEM-ISBE
100
AcDbAlignedDimension
13
-39.2233294255570
23
3.69194630715100
33
0.000000000000000
14
-39.2233294255570
24
18.4651463071510
34
0.000000000000000
50
90.0000000000000
100
AcDbRotatedDimension
1001
ACAD
1000
DSTYLE
1002
{
1070
284
1070
8
1070
78
1070
8
1070
144
1040
1.00000000000000
1070
147
1040
0.625
1070
 72
1070
 0
1070
 71
1070
 0
1002
}
  0
DIMENSION
  5
F10017
330
261
100
AcDbEntity
  8
Bemassung
100
AcDbDimension
  2
*D7
10
62.9396248534582
20
19.0785463071510
30
0.000000000000000
11
62.2729581867915
21
21.0187573270807
31
0.000000000000000
 70
32
 1
Ø<> h6
 71
     8
  3
BEM-ISBE
100
AcDbAlignedDimension
13
54.6766705744430
23
3.07854630715100
33
0.000000000000000
14
54.6766705744430
24
19.0785463071510
34
0.000000000000000
50
90.0000000000000
100
AcDbRotatedDimension
1001
ACAD
1000
DSTYLE
1002
{
1070
284
1070
8
1070
78
1070
8
1070
144
1040
1.00000000000000
1070
147
1040
0.625
1070
 72
1070
 0
1070
 71
1070
 0
1002
}
  0
LINE
  5
F1006D
330
F1006E
100
AcDbEntity
8
Geo
100
AcDbLine
10
-45.2233294255570
20
11.0785463071510
30
0.000000000000000
11
-45.2233294255570
21
19.0785463071510
31
0.000000000000000
  0
LINE
  5
F1006F
330
F10070
100
AcDbEntity
8
Geo
100
AcDbLine
10
-45.2233294255570
20
19.0785463071510
30
0.000000000000000
11
-39.2233294255570
21
19.0785463071510
31
0.000000000000000
  0
LINE
  5
F10071
330
F10072
100
AcDbEntity
8
Geo
100
AcDbLine
10
-39.2233294255570
20
19.0785463071510
30
0.000000000000000
11
-39.2233294255570
21
18.4651463071510
31
0.000000000000000
  0
LINE
  5
F10073
330
F10074
100
AcDbEntity
8
Geo
100
AcDbLine
10
-39.2233294255570
20
18.4651463071510
30
0.000000000000000
11
4.77667057444300
21
18.4651463071510
31
0.000000000000000
  0
LINE
  5
F10075
330
F10076
100
AcDbEntity
8
Geo
100
AcDbLine
10
4.77667057444300
20
18.4651463071510
30
0.000000000000000
11
5.39007057444300
21
19.0785463071510
31
0.000000000000000
  0
LINE
  5
F10077
330
F10078
100
AcDbEntity
8
Geo
100
AcDbLine
10
5.39007057444300
20
19.0785463071510
30
0.000000000000000
11
54.6766705744430
21
19.0785463071510
31
0.000000000000000
  0
LINE
  5
F10079
330
F1007A
100
AcDbEntity
8
Geo
100
AcDbLine
10
54.6766705744430
20
19.0785463071510
30
0.000000000000000
11
54.7766705744430
21
18.9785463071510
31
0.000000000000000
  0
LINE
  5
F1007B
330
F1007C
100
AcDbEntity
8
Geo
100
AcDbLine
10
-39.1233294255570
20
18.4651463071510
30
0.000000000000000
11
-39.0233294255570
21
18.4553386709747
31
0.000000000000000
  0
LINE
  5
F1007D
330
F1007E
100
AcDbEntity
8
Geo
100
AcDbLine
10
-45.2233294255570
20
19.0785463071510
30
0.000000000000000
11
-45.1233294255570
21
19.0785226923473
31
0.000000000000000
  0
LINE
  5
F1007F
330
F10080
100
AcDbEntity
8
Geo
100
AcDbLine
10
-45.1233294255570
20
19.0785226923473
30
0.000000000000000
11
-45.0233294255570
21
19.0784518480754
31
0.000000000000000
  0
LINE
  5
F10081
330
F10082
100
AcDbEntity
8
Geo
100
AcDbLine
10
-45.0233294255570
20
19.0784518480754
30
0.000000000000000
11
-44.9233294255570
21
19.0783337747538
31
0.000000000000000
  0
LINE
  5
F10083
330
F10084
100
AcDbEntity
8
Geo
100
AcDbLine
10
-44.9233294255570
20
19.0783337747538
30
0.000000000000000
11
-44.8233294255570
21
19.0781684730794
31
0.000000000000000
  0
LINE
  5
F10085
330
F10086
100
AcDbEntity
8
Geo
100
AcDbLine
10
-44.8233294255570
20
19.0781684730794
30
0.000000000000000
11
-44.7233294255570
21
19.0779559440281
31
0.000000000000000
  0
LINE
  5
F10087
330
F10088
100
AcDbEntity
8
Geo
100
AcDbLine
10
-44.7233294255570
20
19.0779559440281
30
0.000000000000000
11
-44.6233294255570
21
19.0776961888546
31
0.000000000000000
  0
LINE
  5
F10089
330
F1008A
100
AcDbEntity
8
Geo
100
AcDbLine
10
-44.6233294255570
20
19.0776961888546
30
0.000000000000000
11
-44.5233294255570
21
19.0773892090926
31
0.000000000000000
  0
LINE
  5
F1008B
330
F1008C
100
AcDbEntity
8
Geo
100
AcDbLine
10
-44.5233294255570
20
19.0773892090926
30
0.000000000000000
11
-44.4233294255570
21
19.0770350065541
31
0.000000000000000
  0
LINE
  5
F1008D
330
F1008E
100
AcDbEntity
8
Geo
100
AcDbLine
10
-44.4233294255570
20
19.0770350065541
30
0.000000000000000
11
-44.3233294255570
21
19.0766335833305
31
0.000000000000000
  0
LINE
  5
F1008F
330
F10090
100
AcDbEntity
8
Geo
100
AcDbLine
10
-44.3233294255570
20
19.0766335833305
30
0.000000000000000
11
-44.2233294255570
21
19.0761849417915
31
0.000000000000000
  0
LINE
  5
F10091
330
F10092
100
AcDbEntity
8
Geo
100
AcDbLine
10
-44.2233294255570
20
19.0761849417915
30
0.000000000000000
11
-44.1233294255570
21
19.0756890845858
31
0.000000000000000
  0
LINE
  5
F10093
330
F10094
100
AcDbEntity
8
Geo
100
AcDbLine
10
-44.1233294255570
20
19.0756890845858
30
0.000000000000000
11
-44.0233294255570
21
19.0751460146408
31
0.000000000000000
  0
LINE
  5
F10095
330
F10096
100
AcDbEntity
8
Geo
100
AcDbLine
10
-44.0233294255570
20
19.0751460146408
30
0.000000000000000
11
-43.9233294255570
21
19.0745557351627
31
0.000000000000000
  0
LINE
  5
F10097
330
F10098
100
AcDbEntity
8
Geo
100
AcDbLine
10
-43.9233294255570
20
19.0745557351627
30
0.000000000000000
11
-43.8233294255570
21
19.0739182496362
31
0.000000000000000
  0
LINE
  5
F10099
330
F1009A
100
AcDbEntity
8
Geo
100
AcDbLine
10
-43.8233294255570
20
19.0739182496362
30
0.000000000000000
11
-43.7233294255570
21
19.0732335618248
31
0.000000000000000
  0
LINE
  5
F1009B
330
F1009C
100
AcDbEntity
8
Geo
100
AcDbLine
10
-43.7233294255570
20
19.0732335618248
30
0.000000000000000
11
-43.6233294255570
21
19.0725016757709
31
0.000000000000000
  0
LINE
  5
F1009D
330
F1009E
100
AcDbEntity
8
Geo
100
AcDbLine
10
-43.6233294255570
20
19.0725016757709
30
0.000000000000000
11
-43.5233294255570
21
19.0717225957951
31
0.000000000000000
  0
LINE
  5
F1009F
330
F100A0
100
AcDbEntity
8
Geo
100
AcDbLine
10
-43.5233294255570
20
19.0717225957951
30
0.000000000000000
11
-43.4233294255570
21
19.0708963264970
31
0.000000000000000
  0
LINE
  5
F100A1
330
F100A2
100
AcDbEntity
8
Geo
100
AcDbLine
10
-43.4233294255570
20
19.0708963264970
30
0.000000000000000
11
-43.3233294255570
21
19.0700228727546
31
0.000000000000000
  0
LINE
  5
F100A3
330
F100A4
100
AcDbEntity
8
Geo
100
AcDbLine
10
-43.3233294255570
20
19.0700228727546
30
0.000000000000000
11
-43.2233294255570
21
19.0691022397246
31
0.000000000000000
  0
LINE
  5
F100A5
330
F100A6
100
AcDbEntity
8
Geo
100
AcDbLine
10
-43.2233294255570
20
19.0691022397246
30
0.000000000000000
11
-43.1233294255570
21
19.0681344328420
31
0.000000000000000
  0
LINE
  5
F100A7
330
F100A8
100
AcDbEntity
8
Geo
100
AcDbLine
10
-43.1233294255570
20
19.0681344328420
30
0.000000000000000
11
-43.0233294255570
21
19.0671194578205
31
0.000000000000000
  0
LINE
  5
F100A9
330
F100AA
100
AcDbEntity
8
Geo
100
AcDbLine
10
-43.0233294255570
20
19.0671194578205
30
0.000000000000000
11
-42.9233294255570
21
19.0660573206522
31
0.000000000000000
  0
LINE
  5
F100AB
330
F100AC
100
AcDbEntity
8
Geo
100
AcDbLine
10
-42.9233294255570
20
19.0660573206522
30
0.000000000000000
11
-42.8233294255570
21
19.0649480276076
31
0.000000000000000
  0
LINE
  5
F100AD
330
F100AE
100
AcDbEntity
8
Geo
100
AcDbLine
10
-42.8233294255570
20
19.0649480276076
30
0.000000000000000
11
-42.7233294255570
21
19.0637915852358
31
0.000000000000000
  0
LINE
  5
F100AF
330
F100B0
100
AcDbEntity
8
Geo
100
AcDbLine
10
-42.7233294255570
20
19.0637915852358
30
0.000000000000000
11
-42.6233294255570
21
19.0625880003639
31
0.000000000000000
  0
LINE
  5
F100B1
330
F100B2
100
AcDbEntity
8
Geo
100
AcDbLine
10
-42.6233294255570
20
19.0625880003639
30
0.000000000000000
11
-42.5233294255570
21
19.0613372800976
31
0.000000000000000
  0
LINE
  5
F100B3
330
F100B4
100
AcDbEntity
8
Geo
100
AcDbLine
10
-42.5233294255570
20
19.0613372800976
30
0.000000000000000
11
-42.4233294255570
21
19.0600394318208
31
0.000000000000000
  0
LINE
  5
F100B5
330
F100B6
100
AcDbEntity
8
Geo
100
AcDbLine
10
-42.4233294255570
20
19.0600394318208
30
0.000000000000000
11
-42.3233294255570
21
19.0586944631955
31
0.000000000000000
  0
LINE
  5
F100B7
330
F100B8
100
AcDbEntity
8
Geo
100
AcDbLine
10
-42.3233294255570
20
19.0586944631955
30
0.000000000000000
11
-42.2233294255570
21
19.0573023821621
31
0.000000000000000
  0
LINE
  5
F100B9
330
F100BA
100
AcDbEntity
8
Geo
100
AcDbLine
10
-42.2233294255570
20
19.0573023821621
30
0.000000000000000
11
-42.1233294255570
21
19.0558631969390
31
0.000000000000000
  0
LINE
  5
F100BB
330
F100BC
100
AcDbEntity
8
Geo
100
AcDbLine
10
-42.1233294255570
20
19.0558631969390
30
0.000000000000000
11
-42.0233294255570
21
19.0543769160226
31
0.000000000000000
  0
LINE
  5
F100BD
330
F100BE
100
AcDbEntity
8
Geo
100
AcDbLine
10
-42.0233294255570
20
19.0543769160226
30
0.000000000000000
11
-41.9233294255570
21
19.0528435481877
31
0.000000000000000
  0
LINE
  5
F100BF
330
F100C0
100
AcDbEntity
8
Geo
100
AcDbLine
10
-41.9233294255570
20
19.0528435481877
30
0.000000000000000
11
-41.8233294255570
21
19.0512631024867
31
0.000000000000000
  0
LINE
  5
F100C1
330
F100C2
100
AcDbEntity
8
Geo
100
AcDbLine
10
-41.8233294255570
20
19.0512631024867
30
0.000000000000000
11
-41.7233294255570
21
19.0496355882500
31
0.000000000000000
  0
LINE
  5
F100C3
330
F100C4
100
AcDbEntity
8
Geo
100
AcDbLine
10
-41.7233294255570
20
19.0496355882500
30
0.000000000000000
11
-41.6233294255570
21
19.0479610150861
31
0.000000000000000
  0
LINE
  5
F100C5
330
F100C6
100
AcDbEntity
8
Geo
100
AcDbLine
10
-41.6233294255570
20
19.0479610150861
30
0.000000000000000
11
-41.5233294255570
21
19.0462393928812
31
0.000000000000000
  0
LINE
  5
F100C7
330
F100C8
100
AcDbEntity
8
Geo
100
AcDbLine
10
-41.5233294255570
20
19.0462393928812
30
0.000000000000000
11
-41.4233294255570
21
19.0444707317991
31
0.000000000000000
  0
LINE
  5
F100C9
330
F100CA
100
AcDbEntity
8
Geo
100
AcDbLine
10
-41.4233294255570
20
19.0444707317991
30
0.000000000000000
11
-41.3233294255570
21
19.0426550422815
31
0.000000000000000
  0
LINE
  5
F100CB
330
F100CC
100
AcDbEntity
8
Geo
100
AcDbLine
10
-41.3233294255570
20
19.0426550422815
30
0.000000000000000
11
-41.2233294255570
21
19.0407923350477
31
0.000000000000000
  0
LINE
  5
F100CD
330
F100CE
100
AcDbEntity
8
Geo
100
AcDbLine
10
-41.2233294255570
20
19.0407923350477
30
0.000000000000000
11
-41.1233294255570
21
19.0388826210946
31
0.000000000000000
  0
LINE
  5
F100CF
330
F100D0
100
AcDbEntity
8
Geo
100
AcDbLine
10
-41.1233294255570
20
19.0388826210946
30
0.000000000000000
11
-41.0233294255570
21
19.0369259116965
31
0.000000000000000
  0
LINE
  5
F100D1
330
F100D2
100
AcDbEntity
8
Geo
100
AcDbLine
10
-41.0233294255570
20
19.0369259116965
30
0.000000000000000
11
-40.9233294255570
21
19.0349222184054
31
0.000000000000000
  0
LINE
  5
F100D3
330
F100D4
100
AcDbEntity
8
Geo
100
AcDbLine
10
-40.9233294255570
20
19.0349222184054
30
0.000000000000000
11
-40.8233294255570
21
19.0328715530503
31
0.000000000000000
  0
LINE
  5
F100D5
330
F100D6
100
AcDbEntity
8
Geo
100
AcDbLine
10
-40.8233294255570
20
19.0328715530503
30
0.000000000000000
11
-40.7233294255570
21
19.0307739277378
31
0.000000000000000
  0
LINE
  5
F100D7
330
F100D8
100
AcDbEntity
8
Geo
100
AcDbLine
10
-40.7233294255570
20
19.0307739277378
30
0.000000000000000
11
-40.6233294255570
21
19.0286293548517
31
0.000000000000000
  0
LINE
  5
F100D9
330
F100DA
100
AcDbEntity
8
Geo
100
AcDbLine
10
-40.6233294255570
20
19.0286293548517
30
0.000000000000000
11
-40.5233294255570
21
19.0264378470528
31
0.000000000000000
  0
LINE
  5
F100DB
330
F100DC
100
AcDbEntity
8
Geo
100
AcDbLine
10
-40.5233294255570
20
19.0264378470528
30
0.000000000000000
11
-40.4233294255570
21
19.0241994172792
31
0.000000000000000
  0
LINE
  5
F100DD
330
F100DE
100
AcDbEntity
8
Geo
100
AcDbLine
10
-40.4233294255570
20
19.0241994172792
30
0.000000000000000
11
-40.3233294255570
21
19.0219140787459
31
0.000000000000000
  0
LINE
  5
F100DF
330
F100E0
100
AcDbEntity
8
Geo
100
AcDbLine
10
-40.3233294255570
20
19.0219140787459
30
0.000000000000000
11
-40.2233294255570
21
19.0195818449448
31
0.000000000000000
  0
LINE
  5
F100E1
330
F100E2
100
AcDbEntity
8
Geo
100
AcDbLine
10
-40.2233294255570
20
19.0195818449448
30
0.000000000000000
11
-40.1233294255570
21
19.0172027296448
31
0.000000000000000
  0
LINE
  5
F100E3
330
F100E4
100
AcDbEntity
8
Geo
100
AcDbLine
10
-40.1233294255570
20
19.0172027296448
30
0.000000000000000
11
-40.0233294255570
21
19.0147767468915
31
0.000000000000000
  0
LINE
  5
F100E5
330
F100E6
100
AcDbEntity
8
Geo
100
AcDbLine
10
-40.0233294255570
20
19.0147767468915
30
0.000000000000000
11
-39.9233294255570
21
19.0123039110071
31
0.000000000000000
  0
LINE
  5
F100E7
330
F100E8
100
AcDbEntity
8
Geo
100
AcDbLine
10
-39.9233294255570
20
19.0123039110071
30
0.000000000000000
11
-39.8233294255570
21
19.0097842365904
31
0.000000000000000
  0
LINE
  5
F100E9
330
F100EA
100
AcDbEntity
8
Geo
100
AcDbLine
10
-39.8233294255570
20
19.0097842365904
30
0.000000000000000
11
-39.7233294255570
21
19.0072177385170
31
0.000000000000000
  0
LINE
  5
F100EB
330
F100EC
100
AcDbEntity
8
Geo
100
AcDbLine
10
-39.7233294255570
20
19.0072177385170
30
0.000000000000000
11
-39.6233294255570
21
19.0046044319387
31
0.000000000000000
  0
LINE
  5
F100ED
330
F100EE
100
AcDbEntity
8
Geo
100
AcDbLine
10
-39.6233294255570
20
19.0046044319387
30
0.000000000000000
11
-39.5233294255570
21
19.0019443322835
31
0.000000000000000
  0
LINE
  5
F100EF
330
F100F0
100
AcDbEntity
8
Geo
100
AcDbLine
10
-39.5233294255570
20
19.0019443322835
30
0.000000000000000
11
-39.4233294255570
21
18.9992374552561
31
0.000000000000000
  0
LINE
  5
F100F1
330
F100F2
100
AcDbEntity
8
Geo
100
AcDbLine
10
-39.4233294255570
20
18.9992374552561
30
0.000000000000000
11
-39.3233294255570
21
18.9964838168369
31
0.000000000000000
  0
LINE
  5
F100F3
330
F100F4
100
AcDbEntity
8
Geo
100
AcDbLine
10
-39.3233294255570
20
18.9964838168369
30
0.000000000000000
11
-39.2233294255570
21
18.9936834332825
31
0.000000000000000
  0
LINE
  5
F100F5
330
F100F6
100
AcDbEntity
8
Geo
100
AcDbLine
10
-39.2233294255570
20
18.9936834332825
30
0.000000000000000
11
-39.1233294255570
21
18.4101455427128
31
0.000000000000000
  0
LINE
  5
F100F7
330
F100F8
100
AcDbEntity
8
Geo
100
AcDbLine
10
-39.1233294255570
20
18.4101455427128
30
0.000000000000000
11
-39.0233294255570
21
18.4553386709747
31
0.000000000000000
  0
LINE
  5
F100F9
330
F100FA
100
AcDbEntity
8
Geo
100
AcDbLine
10
-45.2233294255570
20
18.6869984375122
30
0.000000000000000
11
-45.1233294255570
21
18.6809693025200
31
0.000000000000000
  0
LINE
  5
F100FB
330
F100FC
100
AcDbEntity
8
Geo
100
AcDbLine
10
-45.1233294255570
20
18.6809693025200
30
0.000000000000000
11
-45.0233294255570
21
18.6748952850960
31
0.000000000000000
  0
LINE
  5
F100FD
330
F100FE
100
AcDbEntity
8
Geo
100
AcDbLine
10
-45.0233294255570
20
18.6748952850960
30
0.000000000000000
11
-44.9233294255570
21
18.6687764210994
31
0.000000000000000
  0
LINE
  5
F100FF
330
F10100
100
AcDbEntity
8
Geo
100
AcDbLine
10
-44.9233294255570
20
18.6687764210994
30
0.000000000000000
11
-44.8233294255570
21
18.6626127466542
31
0.000000000000000
  0
LINE
  5
F10101
330
F10102
100
AcDbEntity
8
Geo
100
AcDbLine
10
-44.8233294255570
20
18.6626127466542
30
0.000000000000000
11
-44.7233294255570
21
18.6564042981489
31
0.000000000000000
  0
LINE
  5
F10103
330
F10104
100
AcDbEntity
8
Geo
100
AcDbLine
10
-44.7233294255570
20
18.6564042981489
30
0.000000000000000
11
-44.6233294255570
21
18.6501511122362
31
0.000000000000000
  0
LINE
  5
F10105
330
F10106
100
AcDbEntity
8
Geo
100
AcDbLine
10
-44.6233294255570
20
18.6501511122362
30
0.000000000000000
11
-44.5233294255570
21
18.6438532258332
31
0.000000000000000
  0
LINE
  5
F10107
330
F10108
100
AcDbEntity
8
Geo
100
AcDbLine
10
-44.5233294255570
20
18.6438532258332
30
0.000000000000000
11
-44.4233294255570
21
18.6375106761206
31
0.000000000000000
  0
LINE
  5
F10109
330
F1010A
100
AcDbEntity
8
Geo
100
AcDbLine
10
-44.4233294255570
20
18.6375106761206
30
0.000000000000000
11
-44.3233294255570
21
18.6311235005430
31
0.000000000000000
  0
LINE
  5
F1010B
330
F1010C
100
AcDbEntity
8
Geo
100
AcDbLine
10
-44.3233294255570
20
18.6311235005430
30
0.000000000000000
11
-44.2233294255570
21
18.6246917368083
31
0.000000000000000
  0
LINE
  5
F1010D
330
F1010E
100
AcDbEntity
8
Geo
100
AcDbLine
10
-44.2233294255570
20
18.6246917368083
30
0.000000000000000
11
-44.1233294255570
21
18.6182154228879
31
0.000000000000000
  0
LINE
  5
F1010F
330
F10110
100
AcDbEntity
8
Geo
100
AcDbLine
10
-44.1233294255570
20
18.6182154228879
30
0.000000000000000
11
-44.0233294255570
21
18.6116945970157
31
0.000000000000000
  0
LINE
  5
F10111
330
F10112
100
AcDbEntity
8
Geo
100
AcDbLine
10
-44.0233294255570
20
18.6116945970157
30
0.000000000000000
11
-43.9233294255570
21
18.6051292976890
31
0.000000000000000
  0
LINE
  5
F10113
330
F10114
100
AcDbEntity
8
Geo
100
AcDbLine
10
-43.9233294255570
20
18.6051292976890
30
0.000000000000000
11
-43.8233294255570
21
18.5985195636673
31
0.000000000000000
  0
LINE
  5
F10115
330
F10116
100
AcDbEntity
8
Geo
100
AcDbLine
10
-43.8233294255570
20
18.5985195636673
30
0.000000000000000
11
-43.7233294255570
21
18.5918654339724
31
0.000000000000000
  0
LINE
  5
F10117
330
F10118
100
AcDbEntity
8
Geo
100
AcDbLine
10
-43.7233294255570
20
18.5918654339724
30
0.000000000000000
11
-43.6233294255570
21
18.5851669478883
31
0.000000000000000
  0
LINE
  5
F10119
330
F1011A
100
AcDbEntity
8
Geo
100
AcDbLine
10
-43.6233294255570
20
18.5851669478883
30
0.000000000000000
11
-43.5233294255570
21
18.5784241449609
31
0.000000000000000
  0
LINE
  5
F1011B
330
F1011C
100
AcDbEntity
8
Geo
100
AcDbLine
10
-43.5233294255570
20
18.5784241449609
30
0.000000000000000
11
-43.4233294255570
21
18.5716370649977
31
0.000000000000000
  0
LINE
  5
F1011D
330
F1011E
100
AcDbEntity
8
Geo
100
AcDbLine
10
-43.4233294255570
20
18.5716370649977
30
0.000000000000000
11
-43.3233294255570
21
18.5648057480676
31
0.000000000000000
  0
LINE
  5
F1011F
330
F10120
100
AcDbEntity
8
Geo
100
AcDbLine
10
-43.3233294255570
20
18.5648057480676
30
0.000000000000000
11
-43.2233294255570
21
18.5579302345006
31
0.000000000000000
  0
LINE
  5
F10121
330
F10122
100
AcDbEntity
8
Geo
100
AcDbLine
10
-43.2233294255570
20
18.5579302345006
30
0.000000000000000
11
-43.1233294255570
21
18.5510105648877
31
0.000000000000000
  0
LINE
  5
F10123
330
F10124
100
AcDbEntity
8
Geo
100
AcDbLine
10
-43.1233294255570
20
18.5510105648877
30
0.000000000000000
11
-43.0233294255570
21
18.5440467800806
31
0.000000000000000
  0
LINE
  5
F10125
330
F10126
100
AcDbEntity
8
Geo
100
AcDbLine
10
-43.0233294255570
20
18.5440467800806
30
0.000000000000000
11
-42.9233294255570
21
18.5370389211914
31
0.000000000000000
  0
LINE
  5
F10127
330
F10128
100
AcDbEntity
8
Geo
100
AcDbLine
10
-42.9233294255570
20
18.5370389211914
30
0.000000000000000
11
-42.8233294255570
21
18.5299870295923
31
0.000000000000000
  0
LINE
  5
F10129
330
F1012A
100
AcDbEntity
8
Geo
100
AcDbLine
10
-42.8233294255570
20
18.5299870295923
30
0.000000000000000
11
-42.7233294255570
21
18.5228911469156
31
0.000000000000000
  0
LINE
  5
F1012B
330
F1012C
100
AcDbEntity
8
Geo
100
AcDbLine
10
-42.7233294255570
20
18.5228911469156
30
0.000000000000000
11
-42.6233294255570
21
18.5157513150534
31
0.000000000000000
  0
LINE
  5
F1012D
330
F1012E
100
AcDbEntity
8
Geo
100
AcDbLine
10
-42.6233294255570
20
18.5157513150534
30
0.000000000000000
11
-42.5233294255570
21
18.5085675761570
31
0.000000000000000
  0
LINE
  5
F1012F
330
F10130
100
AcDbEntity
8
Geo
100
AcDbLine
10
-42.5233294255570
20
18.5085675761570
30
0.000000000000000
11
-42.4233294255570
21
18.5013399726370
31
0.000000000000000
  0
LINE
  5
F10131
330
F10132
100
AcDbEntity
8
Geo
100
AcDbLine
10
-42.4233294255570
20
18.5013399726370
30
0.000000000000000
11
-42.3233294255570
21
18.4940685471632
31
0.000000000000000
  0
LINE
  5
F10133
330
F10134
100
AcDbEntity
8
Geo
100
AcDbLine
10
-42.3233294255570
20
18.4940685471632
30
0.000000000000000
11
-42.2233294255570
21
18.4867533426638
31
0.000000000000000
  0
LINE
  5
F10135
330
F10136
100
AcDbEntity
8
Geo
100
AcDbLine
10
-42.2233294255570
20
18.4867533426638
30
0.000000000000000
11
-42.1233294255570
21
18.4793944023255
31
0.000000000000000
  0
LINE
  5
F10137
330
F10138
100
AcDbEntity
8
Geo
100
AcDbLine
10
-42.1233294255570
20
18.4793944023255
30
0.000000000000000
11
-42.0233294255570
21
18.4719917695934
31
0.000000000000000
  0
LINE
  5
F10139
330
F1013A
100
AcDbEntity
8
Geo
100
AcDbLine
10
-42.0233294255570
20
18.4719917695934
30
0.000000000000000
11
-41.9233294255570
21
18.4645454881705
31
0.000000000000000
  0
LINE
  5
F1013B
330
F1013C
100
AcDbEntity
8
Geo
100
AcDbLine
10
-41.9233294255570
20
18.4645454881705
30
0.000000000000000
11
-41.8233294255570
21
18.4570556020172
31
0.000000000000000
  0
LINE
  5
F1013D
330
F1013E
100
AcDbEntity
8
Geo
100
AcDbLine
10
-41.8233294255570
20
18.4570556020172
30
0.000000000000000
11
-41.7233294255570
21
18.4495221553517
31
0.000000000000000
  0
LINE
  5
F1013F
330
F10140
100
AcDbEntity
8
Geo
100
AcDbLine
10
-41.7233294255570
20
18.4495221553517
30
0.000000000000000
11
-41.6233294255570
21
18.4419451926492
31
0.000000000000000
  0
LINE
  5
F10141
330
F10142
100
AcDbEntity
8
Geo
100
AcDbLine
10
-41.6233294255570
20
18.4419451926492
30
0.000000000000000
11
-41.5233294255570
21
18.4343247586418
31
0.000000000000000
  0
LINE
  5
F10143
330
F10144
100
AcDbEntity
8
Geo
100
AcDbLine
10
-41.5233294255570
20
18.4343247586418
30
0.000000000000000
11
-41.4233294255570
21
18.4266608983183
31
0.000000000000000
  0
LINE
  5
F10145
330
F10146
100
AcDbEntity
8
Geo
100
AcDbLine
10
-41.4233294255570
20
18.4266608983183
30
0.000000000000000
11
-41.3233294255570
21
18.4189536569238
31
0.000000000000000
  0
LINE
  5
F10147
330
F10148
100
AcDbEntity
8
Geo
100
AcDbLine
10
-41.3233294255570
20
18.4189536569238
30
0.000000000000000
11
-41.2233294255570
21
18.4112030799595
31
0.000000000000000
  0
LINE
  5
F10149
330
F1014A
100
AcDbEntity
8
Geo
100
AcDbLine
10
-41.2233294255570
20
18.4112030799595
30
0.000000000000000
11
-41.1233294255570
21
18.4034092131826
31
0.000000000000000
  0
LINE
  5
F1014B
330
F1014C
100
AcDbEntity
8
Geo
100
AcDbLine
10
-41.1233294255570
20
18.4034092131826
30
0.000000000000000
11
-41.0233294255570
21
18.3955721026057
31
0.000000000000000
  0
LINE
  5
F1014D
330
F1014E
100
AcDbEntity
8
Geo
100
AcDbLine
10
-41.0233294255570
20
18.3955721026057
30
0.000000000000000
11
-40.9233294255570
21
18.3876917944967
31
0.000000000000000
  0
LINE
  5
F1014F
330
F10150
100
AcDbEntity
8
Geo
100
AcDbLine
10
-40.9233294255570
20
18.3876917944967
30
0.000000000000000
11
-40.8233294255570
21
18.3797683353787
31
0.000000000000000
  0
LINE
  5
F10151
330
F10152
100
AcDbEntity
8
Geo
100
AcDbLine
10
-40.8233294255570
20
18.3797683353787
30
0.000000000000000
11
-40.7233294255570
21
18.3718017720294
31
0.000000000000000
  0
LINE
  5
F10153
330
F10154
100
AcDbEntity
8
Geo
100
AcDbLine
10
-40.7233294255570
20
18.3718017720294
30
0.000000000000000
11
-40.6233294255570
21
18.3637921514809
31
0.000000000000000
  0
LINE
  5
F10155
330
F10156
100
AcDbEntity
8
Geo
100
AcDbLine
10
-40.6233294255570
20
18.3637921514809
30
0.000000000000000
11
-40.5233294255570
21
18.3557395210198
31
0.000000000000000
  0
LINE
  5
F10157
330
F10158
100
AcDbEntity
8
Geo
100
AcDbLine
10
-40.5233294255570
20
18.3557395210198
30
0.000000000000000
11
-40.4233294255570
21
18.3476439281862
31
0.000000000000000
  0
LINE
  5
F10159
330
F1015A
100
AcDbEntity
8
Geo
100
AcDbLine
10
-40.4233294255570
20
18.3476439281862
30
0.000000000000000
11
-40.3233294255570
21
18.3395054207742
31
0.000000000000000
  0
LINE
  5
F1015B
330
F1015C
100
AcDbEntity
8
Geo
100
AcDbLine
10
-40.3233294255570
20
18.3395054207742
30
0.000000000000000
11
-40.2233294255570
21
18.3313240468311
31
0.000000000000000
  0
LINE
  5
F1015D
330
F1015E
100
AcDbEntity
8
Geo
100
AcDbLine
10
-40.2233294255570
20
18.3313240468311
30
0.000000000000000
11
-40.1233294255570
21
18.3230998546573
31
0.000000000000000
  0
LINE
  5
F1015F
330
F10160
100
AcDbEntity
8
Geo
100
AcDbLine
10
-40.1233294255570
20
18.3230998546573
30
0.000000000000000
11
-40.0233294255570
21
18.3148328928059
31
0.000000000000000
  0
LINE
  5
F10161
330
F10162
100
AcDbEntity
8
Geo
100
AcDbLine
10
-40.0233294255570
20
18.3148328928059
30
0.000000000000000
11
-39.9233294255570
21
18.3065232100826
31
0.000000000000000
  0
LINE
  5
F10163
330
F10164
100
AcDbEntity
8
Geo
100
AcDbLine
10
-39.9233294255570
20
18.3065232100826
30
0.000000000000000
11
-39.8233294255570
21
18.2981708555453
31
0.000000000000000
  0
LINE
  5
F10165
330
F10166
100
AcDbEntity
8
Geo
100
AcDbLine
10
-39.8233294255570
20
18.2981708555453
30
0.000000000000000
11
-39.7233294255570
21
18.2897758785038
31
0.000000000000000
  0
LINE
  5
F10167
330
F10168
100
AcDbEntity
8
Geo
100
AcDbLine
10
-39.7233294255570
20
18.2897758785038
30
0.000000000000000
11
-39.6233294255570
21
18.2813383285196
31
0.000000000000000
  0
LINE
  5
F10169
330
F1016A
100
AcDbEntity
8
Geo
100
AcDbLine
10
-39.6233294255570
20
18.2813383285196
30
0.000000000000000
11
-39.5233294255570
21
18.2728582554053
31
0.000000000000000
  0
LINE
  5
F1016B
330
F1016C
100
AcDbEntity
8
Geo
100
AcDbLine
10
-39.5233294255570
20
18.2728582554053
30
0.000000000000000
11
-39.4233294255570
21
18.2643357092248
31
0.000000000000000
  0
LINE
  5
F1016D
330
F1016E
100
AcDbEntity
8
Geo
100
AcDbLine
10
-39.4233294255570
20
18.2643357092248
30
0.000000000000000
11
-39.3233294255570
21
18.2557707402928
31
0.000000000000000
  0
LINE
  5
F1016F
330
F10170
100
AcDbEntity
8
Geo
100
AcDbLine
10
-39.3233294255570
20
18.2557707402928
30
0.000000000000000
11
-39.2233294255570
21
18.2471633991741
31
0.000000000000000
  0
LINE
  5
F10171
330
F10172
100
AcDbEntity
8
Geo
100
AcDbLine
10
-39.2233294255570
20
18.2471633991741
30
0.000000000000000
11
-39.1233294255570
21
16.8543868386939
31
0.000000000000000
  0
LINE
  5
F10173
330
F10174
100
AcDbEntity
8
Geo
100
AcDbLine
10
-39.1233294255570
20
16.8543868386939
30
0.000000000000000
11
-39.0233294255570
21
12.9962063472055
31
0.000000000000000
  0
LINE
  5
F10175
330
F10176
100
AcDbEntity
8
Geo
100
AcDbLine
10
-45.2233294255570
20
13.5506822621506
30
0.000000000000000
11
-45.1233294255570
21
13.5321883170004
31
0.000000000000000
  0
LINE
  5
F10177
330
F10178
100
AcDbEntity
8
Geo
100
AcDbLine
10
-45.1233294255570
20
13.5321883170004
30
0.000000000000000
11
-45.0233294255570
21
13.5136798862815
31
0.000000000000000
  0
LINE
  5
F10179
330
F1017A
100
AcDbEntity
8
Geo
100
AcDbLine
10
-45.0233294255570
20
13.5136798862815
30
0.000000000000000
11
-44.9233294255570
21
13.4951570792623
31
0.000000000000000
  0
LINE
  5
F1017B
330
F1017C
100
AcDbEntity
8
Geo
100
AcDbLine
10
-44.9233294255570
20
13.4951570792623
30
0.000000000000000
11
-44.8233294255570
21
13.4766200052958
31
0.000000000000000
  0
LINE
  5
F1017D
330
F1017E
100
AcDbEntity
8
Geo
100
AcDbLine
10
-44.8233294255570
20
13.4766200052958
30
0.000000000000000
11
-44.7233294255570
21
13.4580687738194
31
0.000000000000000
  0
LINE
  5
F1017F
330
F10180
100
AcDbEntity
8
Geo
100
AcDbLine
10
-44.7233294255570
20
13.4580687738194
30
0.000000000000000
11
-44.6233294255570
21
13.4395034943539
31
0.000000000000000
  0
LINE
  5
F10181
330
F10182
100
AcDbEntity
8
Geo
100
AcDbLine
10
-44.6233294255570
20
13.4395034943539
30
0.000000000000000
11
-44.5233294255570
21
13.4209242765033
31
0.000000000000000
  0
LINE
  5
F10183
330
F10184
100
AcDbEntity
8
Geo
100
AcDbLine
10
-44.5233294255570
20
13.4209242765033
30
0.000000000000000
11
-44.4233294255570
21
13.4023312299537
31
0.000000000000000
  0
LINE
  5
F10185
330
F10186
100
AcDbEntity
8
Geo
100
AcDbLine
10
-44.4233294255570
20
13.4023312299537
30
0.000000000000000
11
-44.3233294255570
21
13.3837244644728
31
0.000000000000000
  0
LINE
  5
F10187
330
F10188
100
AcDbEntity
8
Geo
100
AcDbLine
10
-44.3233294255570
20
13.3837244644728
30
0.000000000000000
11
-44.2233294255570
21
13.3651040899095
31
0.000000000000000
  0
LINE
  5
F10189
330
F1018A
100
AcDbEntity
8
Geo
100
AcDbLine
10
-44.2233294255570
20
13.3651040899095
30
0.000000000000000
11
-44.1233294255570
21
13.3464702161929
31
0.000000000000000
  0
LINE
  5
F1018B
330
F1018C
100
AcDbEntity
8
Geo
100
AcDbLine
10
-44.1233294255570
20
13.3464702161929
30
0.000000000000000
11
-44.0233294255570
21
13.3278229533318
31
0.000000000000000
  0
LINE
  5
F1018D
330
F1018E
100
AcDbEntity
8
Geo
100
AcDbLine
10
-44.0233294255570
20
13.3278229533318
30
0.000000000000000
11
-43.9233294255570
21
13.3091624114140
31
0.000000000000000
  0
LINE
  5
F1018F
330
F10190
100
AcDbEntity
8
Geo
100
AcDbLine
10
-43.9233294255570
20
13.3091624114140
30
0.000000000000000
11
-43.8233294255570
21
13.2904887006059
31
0.000000000000000
  0
LINE
  5
F10191
330
F10192
100
AcDbEntity
8
Geo
100
AcDbLine
10
-43.8233294255570
20
13.2904887006059
30
0.000000000000000
11
-43.7233294255570
21
13.2718019311514
31
0.000000000000000
  0
LINE
  5
F10193
330
F10194
100
AcDbEntity
8
Geo
100
AcDbLine
10
-43.7233294255570
20
13.2718019311514
30
0.000000000000000
11
-43.6233294255570
21
13.2531022133716
31
0.000000000000000
  0
LINE
  5
F10195
330
F10196
100
AcDbEntity
8
Geo
100
AcDbLine
10
-43.6233294255570
20
13.2531022133716
30
0.000000000000000
11
-43.5233294255570
21
13.2343896576640
31
0.000000000000000
  0
LINE
  5
F10197
330
F10198
100
AcDbEntity
8
Geo
100
AcDbLine
10
-43.5233294255570
20
13.2343896576640
30
0.000000000000000
11
-43.4233294255570
21
13.2156643745021
31
0.000000000000000
  0
LINE
  5
F10199
330
F1019A
100
AcDbEntity
8
Geo
100
AcDbLine
10
-43.4233294255570
20
13.2156643745021
30
0.000000000000000
11
-43.3233294255570
21
13.1969264744342
31
0.000000000000000
  0
LINE
  5
F1019B
330
F1019C
100
AcDbEntity
8
Geo
100
AcDbLine
10
-43.3233294255570
20
13.1969264744342
30
0.000000000000000
11
-43.2233294255570
21
13.1781760680833
31
0.000000000000000
  0
LINE
  5
F1019D
330
F1019E
100
AcDbEntity
8
Geo
100
AcDbLine
10
-43.2233294255570
20
13.1781760680833
30
0.000000000000000
11
-43.1233294255570
21
13.1594132661463
31
0.000000000000000
  0
LINE
  5
F1019F
330
F101A0
100
AcDbEntity
8
Geo
100
AcDbLine
10
-43.1233294255570
20
13.1594132661463
30
0.000000000000000
11
-43.0233294255570
21
13.1406381793930
31
0.000000000000000
  0
LINE
  5
F101A1
330
F101A2
100
AcDbEntity
8
Geo
100
AcDbLine
10
-43.0233294255570
20
13.1406381793930
30
0.000000000000000
11
-42.9233294255570
21
13.1218509186660
31
0.000000000000000
  0
LINE
  5
F101A3
330
F101A4
100
AcDbEntity
8
Geo
100
AcDbLine
10
-42.9233294255570
20
13.1218509186660
30
0.000000000000000
11
-42.8233294255570
21
13.1030515948797
31
0.000000000000000
  0
LINE
  5
F101A5
330
F101A6
100
AcDbEntity
8
Geo
100
AcDbLine
10
-42.8233294255570
20
13.1030515948797
30
0.000000000000000
11
-42.7233294255570
21
13.0842403190196
31
0.000000000000000
  0
LINE
  5
F101A7
330
F101A8
100
AcDbEntity
8
Geo
100
AcDbLine
10
-42.7233294255570
20
13.0842403190196
30
0.000000000000000
11
-42.6233294255570
21
13.0654172021419
31
0.000000000000000
  0
LINE
  5
F101A9
330
F101AA
100
AcDbEntity
8
Geo
100
AcDbLine
10
-42.6233294255570
20
13.0654172021419
30
0.000000000000000
11
-42.5233294255570
21
13.0465823553726
31
0.000000000000000
  0
LINE
  5
F101AB
330
F101AC
100
AcDbEntity
8
Geo
100
AcDbLine
10
-42.5233294255570
20
13.0465823553726
30
0.000000000000000
11
-42.4233294255570
21
13.0277358899071
31
0.000000000000000
  0
LINE
  5
F101AD
330
F101AE
100
AcDbEntity
8
Geo
100
AcDbLine
10
-42.4233294255570
20
13.0277358899071
30
0.000000000000000
11
-42.3233294255570
21
13.0088779170092
31
0.000000000000000
  0
LINE
  5
F101AF
330
F101B0
100
AcDbEntity
8
Geo
100
AcDbLine
10
-42.3233294255570
20
13.0088779170092
30
0.000000000000000
11
-42.2233294255570
21
12.9900085480108
31
0.000000000000000
  0
LINE
  5
F101B1
330
F101B2
100
AcDbEntity
8
Geo
100
AcDbLine
10
-42.2233294255570
20
12.9900085480108
30
0.000000000000000
11
-42.1233294255570
21
12.9711278943110
31
0.000000000000000
  0
LINE
  5
F101B3
330
F101B4
100
AcDbEntity
8
Geo
100
AcDbLine
10
-42.1233294255570
20
12.9711278943110
30
0.000000000000000
11
-42.0233294255570
21
12.9522360673754
31
0.000000000000000
  0
LINE
  5
F101B5
330
F101B6
100
AcDbEntity
8
Geo
100
AcDbLine
10
-42.0233294255570
20
12.9522360673754
30
0.000000000000000
11
-41.9233294255570
21
12.9333331787359
31
0.000000000000000
  0
LINE
  5
F101B7
330
F101B8
100
AcDbEntity
8
Geo
100
AcDbLine
10
-41.9233294255570
20
12.9333331787359
30
0.000000000000000
11
-41.8233294255570
21
12.9144193399894
31
0.000000000000000
  0
LINE
  5
F101B9
330
F101BA
100
AcDbEntity
8
Geo
100
AcDbLine
10
-41.8233294255570
20
12.9144193399894
30
0.000000000000000
11
-41.7233294255570
21
12.8954946627975
31
0.000000000000000
  0
LINE
  5
F101BB
330
F101BC
100
AcDbEntity
8
Geo
100
AcDbLine
10
-41.7233294255570
20
12.8954946627975
30
0.000000000000000
11
-41.6233294255570
21
12.8765592588860
31
0.000000000000000
  0
LINE
  5
F101BD
330
F101BE
100
AcDbEntity
8
Geo
100
AcDbLine
10
-41.6233294255570
20
12.8765592588860
30
0.000000000000000
11
-41.5233294255570
21
12.8576132400436
31
0.000000000000000
  0
LINE
  5
F101BF
330
F101C0
100
AcDbEntity
8
Geo
100
AcDbLine
10
-41.5233294255570
20
12.8576132400436
30
0.000000000000000
11
-41.4233294255570
21
12.8386567181222
31
0.000000000000000
  0
LINE
  5
F101C1
330
F101C2
100
AcDbEntity
8
Geo
100
AcDbLine
10
-41.4233294255570
20
12.8386567181222
30
0.000000000000000
11
-41.3233294255570
21
12.8196898050353
31
0.000000000000000
  0
LINE
  5
F101C3
330
F101C4
100
AcDbEntity
8
Geo
100
AcDbLine
10
-41.3233294255570
20
12.8196898050353
30
0.000000000000000
11
-41.2233294255570
21
12.8007126127579
31
0.000000000000000
  0
LINE
  5
F101C5
330
F101C6
100
AcDbEntity
8
Geo
100
AcDbLine
10
-41.2233294255570
20
12.8007126127579
30
0.000000000000000
11
-41.1233294255570
21
12.7817252533257
31
0.000000000000000
  0
LINE
  5
F101C7
330
F101C8
100
AcDbEntity
8
Geo
100
AcDbLine
10
-41.1233294255570
20
12.7817252533257
30
0.000000000000000
11
-41.0233294255570
21
12.7627278388343
31
0.000000000000000
  0
LINE
  5
F101C9
330
F101CA
100
AcDbEntity
8
Geo
100
AcDbLine
10
-41.0233294255570
20
12.7627278388343
30
0.000000000000000
11
-40.9233294255570
21
12.7437204814388
31
0.000000000000000
  0
LINE
  5
F101CB
330
F101CC
100
AcDbEntity
8
Geo
100
AcDbLine
10
-40.9233294255570
20
12.7437204814388
30
0.000000000000000
11
-40.8233294255570
21
12.7247032933530
31
0.000000000000000
  0
LINE
  5
F101CD
330
F101CE
100
AcDbEntity
8
Geo
100
AcDbLine
10
-40.8233294255570
20
12.7247032933530
30
0.000000000000000
11
-40.7233294255570
21
12.7056763868487
31
0.000000000000000
  0
LINE
  5
F101CF
330
F101D0
100
AcDbEntity
8
Geo
100
AcDbLine
10
-40.7233294255570
20
12.7056763868487
30
0.000000000000000
11
-40.6233294255570
21
12.6866398742550
31
0.000000000000000
  0
LINE
  5
F101D1
330
F101D2
100
AcDbEntity
8
Geo
100
AcDbLine
10
-40.6233294255570
20
12.6866398742550
30
0.000000000000000
11
-40.5233294255570
21
12.6675938679577
31
0.000000000000000
  0
LINE
  5
F101D3
330
F101D4
100
AcDbEntity
8
Geo
100
AcDbLine
10
-40.5233294255570
20
12.6675938679577
30
0.000000000000000
11
-40.4233294255570
21
12.6485384803990
31
0.000000000000000
  0
LINE
  5
F101D5
330
F101D6
100
AcDbEntity
8
Geo
100
AcDbLine
10
-40.4233294255570
20
12.6485384803990
30
0.000000000000000
11
-40.3233294255570
21
12.6294738240759
31
0.000000000000000
  0
LINE
  5
F101D7
330
F101D8
100
AcDbEntity
8
Geo
100
AcDbLine
10
-40.3233294255570
20
12.6294738240759
30
0.000000000000000
11
-40.2233294255570
21
12.6104000115406
31
0.000000000000000
  0
LINE
  5
F101D9
330
F101DA
100
AcDbEntity
8
Geo
100
AcDbLine
10
-40.2233294255570
20
12.6104000115406
30
0.000000000000000
11
-40.1233294255570
21
12.5913171553992
31
0.000000000000000
  0
LINE
  5
F101DB
330
F101DC
100
AcDbEntity
8
Geo
100
AcDbLine
10
-40.1233294255570
20
12.5913171553992
30
0.000000000000000
11
-40.0233294255570
21
12.5722253683111
31
0.000000000000000
  0
LINE
  5
F101DD
330
F101DE
100
AcDbEntity
8
Geo
100
AcDbLine
10
-40.0233294255570
20
12.5722253683111
30
0.000000000000000
11
-39.9233294255570
21
12.5531247629885
31
0.000000000000000
  0
LINE
  5
F101DF
330
F101E0
100
AcDbEntity
8
Geo
100
AcDbLine
10
-39.9233294255570
20
12.5531247629885
30
0.000000000000000
11
-39.8233294255570
21
12.5340154521958
31
0.000000000000000
  0
LINE
  5
F101E1
330
F101E2
100
AcDbEntity
8
Geo
100
AcDbLine
10
-39.8233294255570
20
12.5340154521958
30
0.000000000000000
11
-39.7233294255570
21
12.5148975487484
31
0.000000000000000
  0
LINE
  5
F101E3
330
F101E4
100
AcDbEntity
8
Geo
100
AcDbLine
10
-39.7233294255570
20
12.5148975487484
30
0.000000000000000
11
-39.6233294255570
21
12.4957711655129
31
0.000000000000000
  0
LINE
  5
F101E5
330
F101E6
100
AcDbEntity
8
Geo
100
AcDbLine
10
-39.6233294255570
20
12.4957711655129
30
0.000000000000000
11
-39.5233294255570
21
12.4766364154057
31
0.000000000000000
  0
LINE
  5
F101E7
330
F101E8
100
AcDbEntity
8
Geo
100
AcDbLine
10
-39.5233294255570
20
12.4766364154057
30
0.000000000000000
11
-39.4233294255570
21
12.4574934113926
31
0.000000000000000
  0
LINE
  5
F101E9
330
F101EA
100
AcDbEntity
8
Geo
100
AcDbLine
10
-39.4233294255570
20
12.4574934113926
30
0.000000000000000
11
-39.3233294255570
21
12.4383422664881
31
0.000000000000000
  0
LINE
  5
F101EB
330
F101EC
100
AcDbEntity
8
Geo
100
AcDbLine
10
-39.3233294255570
20
12.4383422664881
30
0.000000000000000
11
-39.2233294255570
21
12.4191830937550
31
0.000000000000000
  0
LINE
  5
F101ED
330
F101EE
100
AcDbEntity
8
Geo
100
AcDbLine
10
-39.2233294255570
20
12.4191830937550
30
0.000000000000000
11
-39.1233294255570
21
12.4884419725370
31
0.000000000000000
  0
LINE
  5
F101EF
330
F101F0
100
AcDbEntity
8
Geo
100
AcDbLine
10
-39.1233294255570
20
12.4884419725370
30
0.000000000000000
11
-39.0233294255570
21
12.9962063472055
31
0.000000000000000
  0
LINE
  5
F101F1
330
F101F2
100
AcDbEntity
8
Geo
100
AcDbLine
10
-45.2233294255570
20
11.0785463071510
30
0.000000000000000
11
-45.1233294255570
21
11.0591082953633
31
0.000000000000000
  0
LINE
  5
F101F3
330
F101F4
100
AcDbEntity
8
Geo
100
AcDbLine
10
-45.1233294255570
20
11.0591082953633
30
0.000000000000000
11
-45.0233294255570
21
11.0396703983318
31
0.000000000000000
  0
LINE
  5
F101F5
330
F101F6
100
AcDbEntity
8
Geo
100
AcDbLine
10
-45.0233294255570
20
11.0396703983318
30
0.000000000000000
11
-44.9233294255570
21
11.0202327308120
31
0.000000000000000
  0
LINE
  5
F101F7
330
F101F8
100
AcDbEntity
8
Geo
100
AcDbLine
10
-44.9233294255570
20
11.0202327308120
30
0.000000000000000
11
-44.8233294255570
21
11.0007954075582
31
0.000000000000000
  0
LINE
  5
F101F9
330
F101FA
100
AcDbEntity
8
Geo
100
AcDbLine
10
-44.8233294255570
20
11.0007954075582
30
0.000000000000000
11
-44.7233294255570
21
10.9813585433224
31
0.000000000000000
  0
LINE
  5
F101FB
330
F101FC
100
AcDbEntity
8
Geo
100
AcDbLine
10
-44.7233294255570
20
10.9813585433224
30
0.000000000000000
11
-44.6233294255570
21
10.9619222528541
31
0.000000000000000
  0
LINE
  5
F101FD
330
F101FE
100
AcDbEntity
8
Geo
100
AcDbLine
10
-44.6233294255570
20
10.9619222528541
30
0.000000000000000
11
-44.5233294255570
21
10.9424866508993
31
0.000000000000000
  0
LINE
  5
F101FF
330
F10200
100
AcDbEntity
8
Geo
100
AcDbLine
10
-44.5233294255570
20
10.9424866508993
30
0.000000000000000
11
-44.4233294255570
21
10.9230518522001
31
0.000000000000000
  0
LINE
  5
F10201
330
F10202
100
AcDbEntity
8
Geo
100
AcDbLine
10
-44.4233294255570
20
10.9230518522001
30
0.000000000000000
11
-44.3233294255570
21
10.9036179714936
31
0.000000000000000
  0
LINE
  5
F10203
330
F10204
100
AcDbEntity
8
Geo
100
AcDbLine
10
-44.3233294255570
20
10.9036179714936
30
0.000000000000000
11
-44.2233294255570
21
10.8841851235117
31
0.000000000000000
  0
LINE
  5
F10205
330
F10206
100
AcDbEntity
8
Geo
100
AcDbLine
10
-44.2233294255570
20
10.8841851235117
30
0.000000000000000
11
-44.1233294255570
21
10.8647534229801
31
0.000000000000000
  0
LINE
  5
F10207
330
F10208
100
AcDbEntity
8
Geo
100
AcDbLine
10
-44.1233294255570
20
10.8647534229801
30
0.000000000000000
11
-44.0233294255570
21
10.8453229846178
31
0.000000000000000
  0
LINE
  5
F10209
330
F1020A
100
AcDbEntity
8
Geo
100
AcDbLine
10
-44.0233294255570
20
10.8453229846178
30
0.000000000000000
11
-43.9233294255570
21
10.8258939231362
31
0.000000000000000
  0
LINE
  5
F1020B
330
F1020C
100
AcDbEntity
8
Geo
100
AcDbLine
10
-43.9233294255570
20
10.8258939231362
30
0.000000000000000
11
-43.8233294255570
21
10.8064663532387
31
0.000000000000000
  0
LINE
  5
F1020D
330
F1020E
100
AcDbEntity
8
Geo
100
AcDbLine
10
-43.8233294255570
20
10.8064663532387
30
0.000000000000000
11
-43.7233294255570
21
10.7870403896199
31
0.000000000000000
  0
LINE
  5
F1020F
330
F10210
100
AcDbEntity
8
Geo
100
AcDbLine
10
-43.7233294255570
20
10.7870403896199
30
0.000000000000000
11
-43.6233294255570
21
10.7676161469648
31
0.000000000000000
  0
LINE
  5
F10211
330
F10212
100
AcDbEntity
8
Geo
100
AcDbLine
10
-43.6233294255570
20
10.7676161469648
30
0.000000000000000
11
-43.5233294255570
21
10.7481937399484
31
0.000000000000000
  0
LINE
  5
F10213
330
F10214
100
AcDbEntity
8
Geo
100
AcDbLine
10
-43.5233294255570
20
10.7481937399484
30
0.000000000000000
11
-43.4233294255570
21
10.7287732832348
31
0.000000000000000
  0
LINE
  5
F10215
330
F10216
100
AcDbEntity
8
Geo
100
AcDbLine
10
-43.4233294255570
20
10.7287732832348
30
0.000000000000000
11
-43.3233294255570
21
10.7093548914765
31
0.000000000000000
  0
LINE
  5
F10217
330
F10218
100
AcDbEntity
8
Geo
100
AcDbLine
10
-43.3233294255570
20
10.7093548914765
30
0.000000000000000
11
-43.2233294255570
21
10.6899386793140
31
0.000000000000000
  0
LINE
  5
F10219
330
F1021A
100
AcDbEntity
8
Geo
100
AcDbLine
10
-43.2233294255570
20
10.6899386793140
30
0.000000000000000
11
-43.1233294255570
21
10.6705247613746
31
0.000000000000000
  0
LINE
  5
F1021B
330
F1021C
100
AcDbEntity
8
Geo
100
AcDbLine
10
-43.1233294255570
20
10.6705247613746
30
0.000000000000000
11
-43.0233294255570
21
10.6511132522724
31
0.000000000000000
  0
LINE
  5
F1021D
330
F1021E
100
AcDbEntity
8
Geo
100
AcDbLine
10
-43.0233294255570
20
10.6511132522724
30
0.000000000000000
11
-42.9233294255570
21
10.6317042666072
31
0.000000000000000
  0
LINE
  5
F1021F
330
F10220
100
AcDbEntity
8
Geo
100
AcDbLine
10
-42.9233294255570
20
10.6317042666072
30
0.000000000000000
11
-42.8233294255570
21
10.6122979189637
31
0.000000000000000
  0
LINE
  5
F10221
330
F10222
100
AcDbEntity
8
Geo
100
AcDbLine
10
-42.8233294255570
20
10.6122979189637
30
0.000000000000000
11
-42.7233294255570
21
10.5928943239112
31
0.000000000000000
  0
LINE
  5
F10223
330
F10224
100
AcDbEntity
8
Geo
100
AcDbLine
10
-42.7233294255570
20
10.5928943239112
30
0.000000000000000
11
-42.6233294255570
21
10.5734935960029
31
0.000000000000000
  0
LINE
  5
F10225
330
F10226
100
AcDbEntity
8
Geo
100
AcDbLine
10
-42.6233294255570
20
10.5734935960029
30
0.000000000000000
11
-42.5233294255570
21
10.5540958497747
31
0.000000000000000
  0
LINE
  5
F10227
330
F10228
100
AcDbEntity
8
Geo
100
AcDbLine
10
-42.5233294255570
20
10.5540958497747
30
0.000000000000000
11
-42.4233294255570
21
10.5347011997451
31
0.000000000000000
  0
LINE
  5
F10229
330
F1022A
100
AcDbEntity
8
Geo
100
AcDbLine
10
-42.4233294255570
20
10.5347011997451
30
0.000000000000000
11
-42.3233294255570
21
10.5153097604145
31
0.000000000000000
  0
LINE
  5
F1022B
330
F1022C
100
AcDbEntity
8
Geo
100
AcDbLine
10
-42.3233294255570
20
10.5153097604145
30
0.000000000000000
11
-42.2233294255570
21
10.4959216462639
31
0.000000000000000
  0
LINE
  5
F1022D
330
F1022E
100
AcDbEntity
8
Geo
100
AcDbLine
10
-42.2233294255570
20
10.4959216462639
30
0.000000000000000
11
-42.1233294255570
21
10.4765369717551
31
0.000000000000000
  0
LINE
  5
F1022F
330
F10230
100
AcDbEntity
8
Geo
100
AcDbLine
10
-42.1233294255570
20
10.4765369717551
30
0.000000000000000
11
-42.0233294255570
21
10.4571558513294
31
0.000000000000000
  0
LINE
  5
F10231
330
F10232
100
AcDbEntity
8
Geo
100
AcDbLine
10
-42.0233294255570
20
10.4571558513294
30
0.000000000000000
11
-41.9233294255570
21
10.4377783994071
31
0.000000000000000
  0
LINE
  5
F10233
330
F10234
100
AcDbEntity
8
Geo
100
AcDbLine
10
-41.9233294255570
20
10.4377783994071
30
0.000000000000000
11
-41.8233294255570
21
10.4184047303869
31
0.000000000000000
  0
LINE
  5
F10235
330
F10236
100
AcDbEntity
8
Geo
100
AcDbLine
10
-41.8233294255570
20
10.4184047303869
30
0.000000000000000
11
-41.7233294255570
21
10.3990349586451
31
0.000000000000000
  0
LINE
  5
F10237
330
F10238
100
AcDbEntity
8
Geo
100
AcDbLine
10
-41.7233294255570
20
10.3990349586451
30
0.000000000000000
11
-41.6233294255570
21
10.3796691985352
31
0.000000000000000
  0
LINE
  5
F10239
330
F1023A
100
AcDbEntity
8
Geo
100
AcDbLine
10
-41.6233294255570
20
10.3796691985352
30
0.000000000000000
11
-41.5233294255570
21
10.3603075643866
31
0.000000000000000
  0
LINE
  5
F1023B
330
F1023C
100
AcDbEntity
8
Geo
100
AcDbLine
10
-41.5233294255570
20
10.3603075643866
30
0.000000000000000
11
-41.4233294255570
21
10.3409501705048
31
0.000000000000000
  0
LINE
  5
F1023D
330
F1023E
100
AcDbEntity
8
Geo
100
AcDbLine
10
-41.4233294255570
20
10.3409501705048
30
0.000000000000000
11
-41.3233294255570
21
10.3215971311700
31
0.000000000000000
  0
LINE
  5
F1023F
330
F10240
100
AcDbEntity
8
Geo
100
AcDbLine
10
-41.3233294255570
20
10.3215971311700
30
0.000000000000000
11
-41.2233294255570
21
10.3022485606368
31
0.000000000000000
  0
LINE
  5
F10241
330
F10242
100
AcDbEntity
8
Geo
100
AcDbLine
10
-41.2233294255570
20
10.3022485606368
30
0.000000000000000
11
-41.1233294255570
21
10.2829045731333
31
0.000000000000000
  0
LINE
  5
F10243
330
F10244
100
AcDbEntity
8
Geo
100
AcDbLine
10
-41.1233294255570
20
10.2829045731333
30
0.000000000000000
11
-41.0233294255570
21
10.2635652828607
31
0.000000000000000
  0
LINE
  5
F10245
330
F10246
100
AcDbEntity
8
Geo
100
AcDbLine
10
-41.0233294255570
20
10.2635652828607
30
0.000000000000000
11
-40.9233294255570
21
10.2442308039922
31
0.000000000000000
  0
LINE
  5
F10247
330
F10248
100
AcDbEntity
8
Geo
100
AcDbLine
10
-40.9233294255570
20
10.2442308039922
30
0.000000000000000
11
-40.8233294255570
21
10.2249012506730
31
0.000000000000000
  0
LINE
  5
F10249
330
F1024A
100
AcDbEntity
8
Geo
100
AcDbLine
10
-40.8233294255570
20
10.2249012506730
30
0.000000000000000
11
-40.7233294255570
21
10.2055767370190
31
0.000000000000000
  0
LINE
  5
F1024B
330
F1024C
100
AcDbEntity
8
Geo
100
AcDbLine
10
-40.7233294255570
20
10.2055767370190
30
0.000000000000000
11
-40.6233294255570
21
10.1862573771162
31
0.000000000000000
  0
LINE
  5
F1024D
330
F1024E
100
AcDbEntity
8
Geo
100
AcDbLine
10
-40.6233294255570
20
10.1862573771162
30
0.000000000000000
11
-40.5233294255570
21
10.1669432850203
31
0.000000000000000
  0
LINE
  5
F1024F
330
F10250
100
AcDbEntity
8
Geo
100
AcDbLine
10
-40.5233294255570
20
10.1669432850203
30
0.000000000000000
11
-40.4233294255570
21
10.1476345747561
31
0.000000000000000
  0
LINE
  5
F10251
330
F10252
100
AcDbEntity
8
Geo
100
AcDbLine
10
-40.4233294255570
20
10.1476345747561
30
0.000000000000000
11
-40.3233294255570
21
10.1283313603164
31
0.000000000000000
  0
LINE
  5
F10253
330
F10254
100
AcDbEntity
8
Geo
100
AcDbLine
10
-40.3233294255570
20
10.1283313603164
30
0.000000000000000
11
-40.2233294255570
21
10.1090337556615
31
0.000000000000000
  0
LINE
  5
F10255
330
F10256
100
AcDbEntity
8
Geo
100
AcDbLine
10
-40.2233294255570
20
10.1090337556615
30
0.000000000000000
11
-40.1233294255570
21
10.0897418747188
31
0.000000000000000
  0
LINE
  5
F10257
330
F10258
100
AcDbEntity
8
Geo
100
AcDbLine
10
-40.1233294255570
20
10.0897418747188
30
0.000000000000000
11
-40.0233294255570
21
10.0704558313818
31
0.000000000000000
  0
LINE
  5
F10259
330
F1025A
100
AcDbEntity
8
Geo
100
AcDbLine
10
-40.0233294255570
20
10.0704558313818
30
0.000000000000000
11
-39.9233294255570
21
10.0511757395094
31
0.000000000000000
  0
LINE
  5
F1025B
330
F1025C
100
AcDbEntity
8
Geo
100
AcDbLine
10
-39.9233294255570
20
10.0511757395094
30
0.000000000000000
11
-39.8233294255570
21
10.0319017129256
31
0.000000000000000
  0
LINE
  5
F1025D
330
F1025E
100
AcDbEntity
8
Geo
100
AcDbLine
10
-39.8233294255570
20
10.0319017129256
30
0.000000000000000
11
-39.7233294255570
21
10.0126338654185
31
0.000000000000000
  0
LINE
  5
F1025F
330
F10260
100
AcDbEntity
8
Geo
100
AcDbLine
10
-39.7233294255570
20
10.0126338654185
30
0.000000000000000
11
-39.6233294255570
21
9.99337231073966
31
0.000000000000000
  0
LINE
  5
F10261
330
F10262
100
AcDbEntity
8
Geo
100
AcDbLine
10
-39.6233294255570
20
9.99337231073966
30
0.000000000000000
11
-39.5233294255570
21
9.97411716260357
31
0.000000000000000
  0
LINE
  5
F10263
330
F10264
100
AcDbEntity
8
Geo
100
AcDbLine
10
-39.5233294255570
20
9.97411716260357
30
0.000000000000000
11
-39.4233294255570
21
9.95486853468684
31
0.000000000000000
  0
LINE
  5
F10265
330
F10266
100
AcDbEntity
8
Geo
100
AcDbLine
10
-39.4233294255570
20
9.95486853468684
30
0.000000000000000
11
-39.3233294255570
21
9.93562654062764
31
0.000000000000000
  0
LINE
  5
F10267
330
F10268
100
AcDbEntity
8
Geo
100
AcDbLine
10
-39.3233294255570
20
9.93562654062764
30
0.000000000000000
11
-39.2233294255570
21
9.91639129402493
31
0.000000000000000
  0
LINE
  5
F10269
330
F1026A
100
AcDbEntity
8
Geo
100
AcDbLine
10
-39.2233294255570
20
9.91639129402493
30
0.000000000000000
11
-39.1233294255570
21
8.48422856714997
31
0.000000000000000
  0
LINE
  5
F1026B
330
F1026C
100
AcDbEntity
8
Geo
100
AcDbLine
10
-39.1233294255570
20
8.48422856714997
30
0.000000000000000
11
-39.0233294255570
21
4.88693302694849
31
0.000000000000000
  0
LINE
  5
F1026D
330
F1026E
100
AcDbEntity
8
Geo
100
AcDbLine
10
-45.2233294255570
20
4.60641035215144
30
0.000000000000000
11
-45.1233294255570
21
4.59500408026628
31
0.000000000000000
  0
LINE
  5
F1026F
330
F10270
100
AcDbEntity
8
Geo
100
AcDbLine
10
-45.1233294255570
20
4.59500408026628
30
0.000000000000000
11
-45.0233294255570
21
4.58363608527544
31
0.000000000000000
  0
LINE
  5
F10271
330
F10272
100
AcDbEntity
8
Geo
100
AcDbLine
10
-45.0233294255570
20
4.58363608527544
30
0.000000000000000
11
-44.9233294255570
21
4.57230643429216
31
0.000000000000000
  0
LINE
  5
F10273
330
F10274
100
AcDbEntity
8
Geo
100
AcDbLine
10
-44.9233294255570
20
4.57230643429216
30
0.000000000000000
11
-44.8233294255570
21
4.56101519420330
31
0.000000000000000
  0
LINE
  5
F10275
330
F10276
100
AcDbEntity
8
Geo
100
AcDbLine
10
-44.8233294255570
20
4.56101519420330
30
0.000000000000000
11
-44.7233294255570
21
4.54976243166898
31
0.000000000000000
  0
LINE
  5
F10277
330
F10278
100
AcDbEntity
8
Geo
100
AcDbLine
10
-44.7233294255570
20
4.54976243166898
30
0.000000000000000
11
-44.6233294255570
21
4.53854821312213
31
0.000000000000000
  0
LINE
  5
F10279
330
F1027A
100
AcDbEntity
8
Geo
100
AcDbLine
10
-44.6233294255570
20
4.53854821312213
30
0.000000000000000
11
-44.5233294255570
21
4.52737260476816
31
0.000000000000000
  0
LINE
  5
F1027B
330
F1027C
100
AcDbEntity
8
Geo
100
AcDbLine
10
-44.5233294255570
20
4.52737260476816
30
0.000000000000000
11
-44.4233294255570
21
4.51623567258451
31
0.000000000000000
  0
LINE
  5
F1027D
330
F1027E
100
AcDbEntity
8
Geo
100
AcDbLine
10
-44.4233294255570
20
4.51623567258451
30
0.000000000000000
11
-44.3233294255570
21
4.50513748232029
31
0.000000000000000
  0
LINE
  5
F1027F
330
F10280
100
AcDbEntity
8
Geo
100
AcDbLine
10
-44.3233294255570
20
4.50513748232029
30
0.000000000000000
11
-44.2233294255570
21
4.49407809949590
31
0.000000000000000
  0
LINE
  5
F10281
330
F10282
100
AcDbEntity
8
Geo
100
AcDbLine
10
-44.2233294255570
20
4.49407809949590
30
0.000000000000000
11
-44.1233294255570
21
4.48305758940264
31
0.000000000000000
  0
LINE
  5
F10283
330
F10284
100
AcDbEntity
8
Geo
100
AcDbLine
10
-44.1233294255570
20
4.48305758940264
30
0.000000000000000
11
-44.0233294255570
21
4.47207601710230
31
0.000000000000000
  0
LINE
  5
F10285
330
F10286
100
AcDbEntity
8
Geo
100
AcDbLine
10
-44.0233294255570
20
4.47207601710230
30
0.000000000000000
11
-43.9233294255570
21
4.46113344742679
31
0.000000000000000
  0
LINE
  5
F10287
330
F10288
100
AcDbEntity
8
Geo
100
AcDbLine
10
-43.9233294255570
20
4.46113344742679
30
0.000000000000000
11
-43.8233294255570
21
4.45022994497778
31
0.000000000000000
  0
LINE
  5
F10289
330
F1028A
100
AcDbEntity
8
Geo
100
AcDbLine
10
-43.8233294255570
20
4.45022994497778
30
0.000000000000000
11
-43.7233294255570
21
4.43936557412628
31
0.000000000000000
  0
LINE
  5
F1028B
330
F1028C
100
AcDbEntity
8
Geo
100
AcDbLine
10
-43.7233294255570
20
4.43936557412628
30
0.000000000000000
11
-43.6233294255570
21
4.42854039901229
31
0.000000000000000
  0
LINE
  5
F1028D
330
F1028E
100
AcDbEntity
8
Geo
100
AcDbLine
10
-43.6233294255570
20
4.42854039901229
30
0.000000000000000
11
-43.5233294255570
21
4.41775448354441
31
0.000000000000000
  0
LINE
  5
F1028F
330
F10290
100
AcDbEntity
8
Geo
100
AcDbLine
10
-43.5233294255570
20
4.41775448354441
30
0.000000000000000
11
-43.4233294255570
21
4.40700789139945
31
0.000000000000000
  0
LINE
  5
F10291
330
F10292
100
AcDbEntity
8
Geo
100
AcDbLine
10
-43.4233294255570
20
4.40700789139945
30
0.000000000000000
11
-43.3233294255570
21
4.39630068602208
31
0.000000000000000
  0
LINE
  5
F10293
330
F10294
100
AcDbEntity
8
Geo
100
AcDbLine
10
-43.3233294255570
20
4.39630068602208
30
0.000000000000000
11
-43.2233294255570
21
4.38563293062444
31
0.000000000000000
  0
LINE
  5
F10295
330
F10296
100
AcDbEntity
8
Geo
100
AcDbLine
10
-43.2233294255570
20
4.38563293062444
30
0.000000000000000
11
-43.1233294255570
21
4.37500468818577
31
0.000000000000000
  0
LINE
  5
F10297
330
F10298
100
AcDbEntity
8
Geo
100
AcDbLine
10
-43.1233294255570
20
4.37500468818577
30
0.000000000000000
11
-43.0233294255570
21
4.36441602145203
31
0.000000000000000
  0
LINE
  5
F10299
330
F1029A
100
AcDbEntity
8
Geo
100
AcDbLine
10
-43.0233294255570
20
4.36441602145203
30
0.000000000000000
11
-42.9233294255570
21
4.35386699293554
31
0.000000000000000
  0
LINE
  5
F1029B
330
F1029C
100
AcDbEntity
8
Geo
100
AcDbLine
10
-42.9233294255570
20
4.35386699293554
30
0.000000000000000
11
-42.8233294255570
21
4.34335766491462
31
0.000000000000000
  0
LINE
  5
F1029D
330
F1029E
100
AcDbEntity
8
Geo
100
AcDbLine
10
-42.8233294255570
20
4.34335766491462
30
0.000000000000000
11
-42.7233294255570
21
4.33288809943319
31
0.000000000000000
  0
LINE
  5
F1029F
330
F102A0
100
AcDbEntity
8
Geo
100
AcDbLine
10
-42.7233294255570
20
4.33288809943319
30
0.000000000000000
11
-42.6233294255570
21
4.32245835830044
31
0.000000000000000
  0
LINE
  5
F102A1
330
F102A2
100
AcDbEntity
8
Geo
100
AcDbLine
10
-42.6233294255570
20
4.32245835830044
30
0.000000000000000
11
-42.5233294255570
21
4.31206850309044
31
0.000000000000000
  0
LINE
  5
F102A3
330
F102A4
100
AcDbEntity
8
Geo
100
AcDbLine
10
-42.5233294255570
20
4.31206850309044
30
0.000000000000000
11
-42.4233294255570
21
4.30171859514178
31
0.000000000000000
  0
LINE
  5
F102A5
330
F102A6
100
AcDbEntity
8
Geo
100
AcDbLine
10
-42.4233294255570
20
4.30171859514178
30
0.000000000000000
11
-42.3233294255570
21
4.29140869555723
31
0.000000000000000
  0
LINE
  5
F102A7
330
F102A8
100
AcDbEntity
8
Geo
100
AcDbLine
10
-42.3233294255570
20
4.29140869555723
30
0.000000000000000
11
-42.2233294255570
21
4.28113886520335
31
0.000000000000000
  0
LINE
  5
F102A9
330
F102AA
100
AcDbEntity
8
Geo
100
AcDbLine
10
-42.2233294255570
20
4.28113886520335
30
0.000000000000000
11
-42.1233294255570
21
4.27090916471015
31
0.000000000000000
  0
LINE
  5
F102AB
330
F102AC
100
AcDbEntity
8
Geo
100
AcDbLine
10
-42.1233294255570
20
4.27090916471015
30
0.000000000000000
11
-42.0233294255570
21
4.26071965447072
31
0.000000000000000
  0
LINE
  5
F102AD
330
F102AE
100
AcDbEntity
8
Geo
100
AcDbLine
10
-42.0233294255570
20
4.26071965447072
30
0.000000000000000
11
-41.9233294255570
21
4.25057039464089
31
0.000000000000000
  0
LINE
  5
F102AF
330
F102B0
100
AcDbEntity
8
Geo
100
AcDbLine
10
-41.9233294255570
20
4.25057039464089
30
0.000000000000000
11
-41.8233294255570
21
4.24046144513884
31
0.000000000000000
  0
LINE
  5
F102B1
330
F102B2
100
AcDbEntity
8
Geo
100
AcDbLine
10
-41.8233294255570
20
4.24046144513884
30
0.000000000000000
11
-41.7233294255570
21
4.23039286564479
31
0.000000000000000
  0
LINE
  5
F102B3
330
F102B4
100
AcDbEntity
8
Geo
100
AcDbLine
10
-41.7233294255570
20
4.23039286564479
30
0.000000000000000
11
-41.6233294255570
21
4.22036471560063
31
0.000000000000000
  0
LINE
  5
F102B5
330
F102B6
100
AcDbEntity
8
Geo
100
AcDbLine
10
-41.6233294255570
20
4.22036471560063
30
0.000000000000000
11
-41.5233294255570
21
4.21037705420955
31
0.000000000000000
  0
LINE
  5
F102B7
330
F102B8
100
AcDbEntity
8
Geo
100
AcDbLine
10
-41.5233294255570
20
4.21037705420955
30
0.000000000000000
11
-41.4233294255570
21
4.20042994043572
31
0.000000000000000
  0
LINE
  5
F102B9
330
F102BA
100
AcDbEntity
8
Geo
100
AcDbLine
10
-41.4233294255570
20
4.20042994043572
30
0.000000000000000
11
-41.3233294255570
21
4.19052343300392
31
0.000000000000000
  0
LINE
  5
F102BB
330
F102BC
100
AcDbEntity
8
Geo
100
AcDbLine
10
-41.3233294255570
20
4.19052343300392
30
0.000000000000000
11
-41.2233294255570
21
4.18065759039922
31
0.000000000000000
  0
LINE
  5
F102BD
330
F102BE
100
AcDbEntity
8
Geo
100
AcDbLine
10
-41.2233294255570
20
4.18065759039922
30
0.000000000000000
11
-41.1233294255570
21
4.17083247086659
31
0.000000000000000
  0
LINE
  5
F102BF
330
F102C0
100
AcDbEntity
8
Geo
100
AcDbLine
10
-41.1233294255570
20
4.17083247086659
30
0.000000000000000
11
-41.0233294255570
21
4.16104813241060
31
0.000000000000000
  0
LINE
  5
F102C1
330
F102C2
100
AcDbEntity
8
Geo
100
AcDbLine
10
-41.0233294255570
20
4.16104813241060
30
0.000000000000000
11
-40.9233294255570
21
4.15130463279506
31
0.000000000000000
  0
LINE
  5
F102C3
330
F102C4
100
AcDbEntity
8
Geo
100
AcDbLine
10
-40.9233294255570
20
4.15130463279506
30
0.000000000000000
11
-40.8233294255570
21
4.14160202954268
31
0.000000000000000
  0
LINE
  5
F102C5
330
F102C6
100
AcDbEntity
8
Geo
100
AcDbLine
10
-40.8233294255570
20
4.14160202954268
30
0.000000000000000
11
-40.7233294255570
21
4.13194037993472
31
0.000000000000000
  0
LINE
  5
F102C7
330
F102C8
100
AcDbEntity
8
Geo
100
AcDbLine
10
-40.7233294255570
20
4.13194037993472
30
0.000000000000000
11
-40.6233294255570
21
4.12231974101069
31
0.000000000000000
  0
LINE
  5
F102C9
330
F102CA
100
AcDbEntity
8
Geo
100
AcDbLine
10
-40.6233294255570
20
4.12231974101069
30
0.000000000000000
11
-40.5233294255570
21
4.11274016956794
31
0.000000000000000
  0
LINE
  5
F102CB
330
F102CC
100
AcDbEntity
8
Geo
100
AcDbLine
10
-40.5233294255570
20
4.11274016956794
30
0.000000000000000
11
-40.4233294255570
21
4.10320172216141
31
0.000000000000000
  0
LINE
  5
F102CD
330
F102CE
100
AcDbEntity
8
Geo
100
AcDbLine
10
-40.4233294255570
20
4.10320172216141
30
0.000000000000000
11
-40.3233294255570
21
4.09370445510324
31
0.000000000000000
  0
LINE
  5
F102CF
330
F102D0
100
AcDbEntity
8
Geo
100
AcDbLine
10
-40.3233294255570
20
4.09370445510324
30
0.000000000000000
11
-40.2233294255570
21
4.08424842446244
31
0.000000000000000
  0
LINE
  5
F102D1
330
F102D2
100
AcDbEntity
8
Geo
100
AcDbLine
10
-40.2233294255570
20
4.08424842446244
30
0.000000000000000
11
-40.1233294255570
21
4.07483368606461
31
0.000000000000000
  0
LINE
  5
F102D3
330
F102D4
100
AcDbEntity
8
Geo
100
AcDbLine
10
-40.1233294255570
20
4.07483368606461
30
0.000000000000000
11
-40.0233294255570
21
4.06546029549154
31
0.000000000000000
  0
LINE
  5
F102D5
330
F102D6
100
AcDbEntity
8
Geo
100
AcDbLine
10
-40.0233294255570
20
4.06546029549154
30
0.000000000000000
11
-39.9233294255570
21
4.05612830808091
31
0.000000000000000
  0
LINE
  5
F102D7
330
F102D8
100
AcDbEntity
8
Geo
100
AcDbLine
10
-39.9233294255570
20
4.05612830808091
30
0.000000000000000
11
-39.8233294255570
21
4.04683777892600
31
0.000000000000000
  0
LINE
  5
F102D9
330
F102DA
100
AcDbEntity
8
Geo
100
AcDbLine
10
-39.8233294255570
20
4.04683777892600
30
0.000000000000000
11
-39.7233294255570
21
4.03758876287532
31
0.000000000000000
  0
LINE
  5
F102DB
330
F102DC
100
AcDbEntity
8
Geo
100
AcDbLine
10
-39.7233294255570
20
4.03758876287532
30
0.000000000000000
11
-39.6233294255570
21
4.02838131453228
31
0.000000000000000
  0
LINE
  5
F102DD
330
F102DE
100
AcDbEntity
8
Geo
100
AcDbLine
10
-39.6233294255570
20
4.02838131453228
30
0.000000000000000
11
-39.5233294255570
21
4.01921548825490
31
0.000000000000000
  0
LINE
  5
F102DF
330
F102E0
100
AcDbEntity
8
Geo
100
AcDbLine
10
-39.5233294255570
20
4.01921548825490
30
0.000000000000000
11
-39.4233294255570
21
4.01009133815550
31
0.000000000000000
  0
LINE
  5
F102E1
330
F102E2
100
AcDbEntity
8
Geo
100
AcDbLine
10
-39.4233294255570
20
4.01009133815550
30
0.000000000000000
11
-39.3233294255570
21
4.00100891810031
31
0.000000000000000
  0
LINE
  5
F102E3
330
F102E4
100
AcDbEntity
8
Geo
100
AcDbLine
10
-39.3233294255570
20
4.00100891810031
30
0.000000000000000
11
-39.2233294255570
21
3.99196828170923
31
0.000000000000000
  0
LINE
  5
F102E5
330
F102E6
100
AcDbEntity
8
Geo
100
AcDbLine
10
-39.2233294255570
20
3.99196828170923
30
0.000000000000000
11
-39.1233294255570
21
4.61831051338889
31
0.000000000000000
  0
LINE
  5
F102E7
330
F102E8
100
AcDbEntity
8
Geo
100
AcDbLine
10
-39.1233294255570
20
4.61831051338889
30
0.000000000000000
11
-39.0233294255570
21
4.88693302694849
31
0.000000000000000
  0
LINE
  5
F102E9
330
F102EA
100
AcDbEntity
8
Geo
100
AcDbLine
10
-45.2233294255570
20
3.47009417678978
30
0.000000000000000
11
-45.1233294255570
21
3.46410995982349
31
0.000000000000000
  0
LINE
  5
F102EB
330
F102EC
100
AcDbEntity
8
Geo
100
AcDbLine
10
-45.1233294255570
20
3.46410995982349
30
0.000000000000000
11
-45.0233294255570
21
3.45817069621221
31
0.000000000000000
  0
LINE
  5
F102ED
330
F102EE
100
AcDbEntity
8
Geo
100
AcDbLine
10
-45.0233294255570
20
3.45817069621221
30
0.000000000000000
11
-44.9233294255570
21
3.45227642101954
31
0.000000000000000
  0
LINE
  5
F102EF
330
F102F0
100
AcDbEntity
8
Geo
100
AcDbLine
10
-44.9233294255570
20
3.45227642101954
30
0.000000000000000
11
-44.8233294255570
21
3.44642716904355
31
0.000000000000000
  0
LINE
  5
F102F1
330
F102F2
100
AcDbEntity
8
Geo
100
AcDbLine
10
-44.8233294255570
20
3.44642716904355
30
0.000000000000000
11
-44.7233294255570
21
3.44062297481646
31
0.000000000000000
  0
LINE
  5
F102F3
330
F102F4
100
AcDbEntity
8
Geo
100
AcDbLine
10
-44.7233294255570
20
3.44062297481646
30
0.000000000000000
11
-44.6233294255570
21
3.43486387260449
31
0.000000000000000
  0
LINE
  5
F102F5
330
F102F6
100
AcDbEntity
8
Geo
100
AcDbLine
10
-44.6233294255570
20
3.43486387260449
30
0.000000000000000
11
-44.5233294255570
21
3.42914989640767
31
0.000000000000000
  0
LINE
  5
F102F7
330
F102F8
100
AcDbEntity
8
Geo
100
AcDbLine
10
-44.5233294255570
20
3.42914989640767
30
0.000000000000000
11
-44.4233294255570
21
3.42348107995960
31
0.000000000000000
  0
LINE
  5
F102F9
330
F102FA
100
AcDbEntity
8
Geo
100
AcDbLine
10
-44.4233294255570
20
3.42348107995960
30
0.000000000000000
11
-44.3233294255570
21
3.41785745672729
31
0.000000000000000
  0
LINE
  5
F102FB
330
F102FC
100
AcDbEntity
8
Geo
100
AcDbLine
10
-44.3233294255570
20
3.41785745672729
30
0.000000000000000
11
-44.2233294255570
21
3.41227905991090
31
0.000000000000000
  0
LINE
  5
F102FD
330
F102FE
100
AcDbEntity
8
Geo
100
AcDbLine
10
-44.2233294255570
20
3.41227905991090
30
0.000000000000000
11
-44.1233294255570
21
3.40674592244365
31
0.000000000000000
  0
LINE
  5
F102FF
330
F10300
100
AcDbEntity
8
Geo
100
AcDbLine
10
-44.1233294255570
20
3.40674592244365
30
0.000000000000000
11
-44.0233294255570
21
3.40125807699150
31
0.000000000000000
  0
LINE
  5
F10301
330
F10302
100
AcDbEntity
8
Geo
100
AcDbLine
10
-44.0233294255570
20
3.40125807699150
30
0.000000000000000
11
-43.9233294255570
21
3.39581555595307
31
0.000000000000000
  0
LINE
  5
F10303
330
F10304
100
AcDbEntity
8
Geo
100
AcDbLine
10
-43.9233294255570
20
3.39581555595307
30
0.000000000000000
11
-43.8233294255570
21
3.39041839145937
31
0.000000000000000
  0
LINE
  5
F10305
330
F10306
100
AcDbEntity
8
Geo
100
AcDbLine
10
-43.8233294255570
20
3.39041839145937
30
0.000000000000000
11
-43.7233294255570
21
3.38506661537364
31
0.000000000000000
  0
LINE
  5
F10307
330
F10308
100
AcDbEntity
8
Geo
100
AcDbLine
10
-43.7233294255570
20
3.38506661537364
30
0.000000000000000
11
-43.6233294255570
21
3.37976025929117
31
0.000000000000000
  0
LINE
  5
F10309
330
F1030A
100
AcDbEntity
8
Geo
100
AcDbLine
10
-43.6233294255570
20
3.37976025929117
30
0.000000000000000
11
-43.5233294255570
21
3.37449935453910
31
0.000000000000000
  0
LINE
  5
F1030B
330
F1030C
100
AcDbEntity
8
Geo
100
AcDbLine
10
-43.5233294255570
20
3.37449935453910
30
0.000000000000000
11
-43.4233294255570
21
3.36928393217624
31
0.000000000000000
  0
LINE
  5
F1030D
330
F1030E
100
AcDbEntity
8
Geo
100
AcDbLine
10
-43.4233294255570
20
3.36928393217624
30
0.000000000000000
11
-43.3233294255570
21
3.36411402299288
31
0.000000000000000
  0
LINE
  5
F1030F
330
F10310
100
AcDbEntity
8
Geo
100
AcDbLine
10
-43.3233294255570
20
3.36411402299288
30
0.000000000000000
11
-43.2233294255570
21
3.35898965751061
31
0.000000000000000
  0
LINE
  5
F10311
330
F10312
100
AcDbEntity
8
Geo
100
AcDbLine
10
-43.2233294255570
20
3.35898965751061
30
0.000000000000000
11
-43.1233294255570
21
3.35391086598217
31
0.000000000000000
  0
LINE
  5
F10313
330
F10314
100
AcDbEntity
8
Geo
100
AcDbLine
10
-43.1233294255570
20
3.35391086598217
30
0.000000000000000
11
-43.0233294255570
21
3.34887767839121
31
0.000000000000000
  0
LINE
  5
F10315
330
F10316
100
AcDbEntity
8
Geo
100
AcDbLine
10
-43.0233294255570
20
3.34887767839121
30
0.000000000000000
11
-42.9233294255570
21
3.34389012445217
31
0.000000000000000
  0
LINE
  5
F10317
330
F10318
100
AcDbEntity
8
Geo
100
AcDbLine
10
-42.9233294255570
20
3.34389012445217
30
0.000000000000000
11
-42.8233294255570
21
3.33894823361008
31
0.000000000000000
  0
LINE
  5
F10319
330
F1031A
100
AcDbEntity
8
Geo
100
AcDbLine
10
-42.8233294255570
20
3.33894823361008
30
0.000000000000000
11
-42.7233294255570
21
3.33405203504038
31
0.000000000000000
  0
LINE
  5
F1031B
330
F1031C
100
AcDbEntity
8
Geo
100
AcDbLine
10
-42.7233294255570
20
3.33405203504038
30
0.000000000000000
11
-42.6233294255570
21
3.32920155764876
31
0.000000000000000
  0
LINE
  5
F1031D
330
F1031E
100
AcDbEntity
8
Geo
100
AcDbLine
10
-42.6233294255570
20
3.32920155764876
30
0.000000000000000
11
-42.5233294255570
21
3.32439683007100
31
0.000000000000000
  0
LINE
  5
F1031F
330
F10320
100
AcDbEntity
8
Geo
100
AcDbLine
10
-42.5233294255570
20
3.32439683007100
30
0.000000000000000
11
-42.4233294255570
21
3.31963788067277
31
0.000000000000000
  0
LINE
  5
F10321
330
F10322
100
AcDbEntity
8
Geo
100
AcDbLine
10
-42.4233294255570
20
3.31963788067277
30
0.000000000000000
11
-42.3233294255570
21
3.31492473754948
31
0.000000000000000
  0
LINE
  5
F10323
330
F10324
100
AcDbEntity
8
Geo
100
AcDbLine
10
-42.3233294255570
20
3.31492473754948
30
0.000000000000000
11
-42.2233294255570
21
3.31025742852611
31
0.000000000000000
  0
LINE
  5
F10325
330
F10326
100
AcDbEntity
8
Geo
100
AcDbLine
10
-42.2233294255570
20
3.31025742852611
30
0.000000000000000
11
-42.1233294255570
21
3.30563598115708
31
0.000000000000000
  0
LINE
  5
F10327
330
F10328
100
AcDbEntity
8
Geo
100
AcDbLine
10
-42.1233294255570
20
3.30563598115708
30
0.000000000000000
11
-42.0233294255570
21
3.30106042272601
31
0.000000000000000
  0
LINE
  5
F10329
330
F1032A
100
AcDbEntity
8
Geo
100
AcDbLine
10
-42.0233294255570
20
3.30106042272601
30
0.000000000000000
11
-41.9233294255570
21
3.29653078024563
31
0.000000000000000
  0
LINE
  5
F1032B
330
F1032C
100
AcDbEntity
8
Geo
100
AcDbLine
10
-41.9233294255570
20
3.29653078024563
30
0.000000000000000
11
-41.8233294255570
21
3.29204708045761
31
0.000000000000000
  0
LINE
  5
F1032D
330
F1032E
100
AcDbEntity
8
Geo
100
AcDbLine
10
-41.8233294255570
20
3.29204708045761
30
0.000000000000000
11
-41.7233294255570
21
3.28760934983237
31
0.000000000000000
  0
LINE
  5
F1032F
330
F10330
100
AcDbEntity
8
Geo
100
AcDbLine
10
-41.7233294255570
20
3.28760934983237
30
0.000000000000000
11
-41.6233294255570
21
3.28321761456893
31
0.000000000000000
  0
LINE
  5
F10331
330
F10332
100
AcDbEntity
8
Geo
100
AcDbLine
10
-41.6233294255570
20
3.28321761456893
30
0.000000000000000
11
-41.5233294255570
21
3.27887190059480
31
0.000000000000000
  0
LINE
  5
F10333
330
F10334
100
AcDbEntity
8
Geo
100
AcDbLine
10
-41.5233294255570
20
3.27887190059480
30
0.000000000000000
11
-41.4233294255570
21
3.27457223356576
31
0.000000000000000
  0
LINE
  5
F10335
330
F10336
100
AcDbEntity
8
Geo
100
AcDbLine
10
-41.4233294255570
20
3.27457223356576
30
0.000000000000000
11
-41.3233294255570
21
3.27031863886576
31
0.000000000000000
  0
LINE
  5
F10337
330
F10338
100
AcDbEntity
8
Geo
100
AcDbLine
10
-41.3233294255570
20
3.27031863886576
30
0.000000000000000
11
-41.2233294255570
21
3.26611114160676
31
0.000000000000000
  0
LINE
  5
F10339
330
F1033A
100
AcDbEntity
8
Geo
100
AcDbLine
10
-41.2233294255570
20
3.26611114160676
30
0.000000000000000
11
-41.1233294255570
21
3.26194976662857
31
0.000000000000000
  0
LINE
  5
F1033B
330
F1033C
100
AcDbEntity
8
Geo
100
AcDbLine
10
-41.1233294255570
20
3.26194976662857
30
0.000000000000000
11
-41.0233294255570
21
3.25783453849868
31
0.000000000000000
  0
LINE
  5
F1033D
330
F1033E
100
AcDbEntity
8
Geo
100
AcDbLine
10
-41.0233294255570
20
3.25783453849868
30
0.000000000000000
11
-40.9233294255570
21
3.25376548151219
31
0.000000000000000
  0
LINE
  5
F1033F
330
F10340
100
AcDbEntity
8
Geo
100
AcDbLine
10
-40.9233294255570
20
3.25376548151219
30
0.000000000000000
11
-40.8233294255570
21
3.24974261969158
31
0.000000000000000
  0
LINE
  5
F10341
330
F10342
100
AcDbEntity
8
Geo
100
AcDbLine
10
-40.8233294255570
20
3.24974261969158
30
0.000000000000000
11
-40.7233294255570
21
3.24576597678663
31
0.000000000000000
  0
LINE
  5
F10343
330
F10344
100
AcDbEntity
8
Geo
100
AcDbLine
10
-40.7233294255570
20
3.24576597678663
30
0.000000000000000
11
-40.6233294255570
21
3.24183557627425
31
0.000000000000000
  0
LINE
  5
F10345
330
F10346
100
AcDbEntity
8
Geo
100
AcDbLine
10
-40.6233294255570
20
3.24183557627425
30
0.000000000000000
11
-40.5233294255570
21
3.23795144135835
31
0.000000000000000
  0
LINE
  5
F10347
330
F10348
100
AcDbEntity
8
Geo
100
AcDbLine
10
-40.5233294255570
20
3.23795144135835
30
0.000000000000000
11
-40.4233294255570
21
3.23411359496970
31
0.000000000000000
  0
LINE
  5
F10349
330
F1034A
100
AcDbEntity
8
Geo
100
AcDbLine
10
-40.4233294255570
20
3.23411359496970
30
0.000000000000000
11
-40.3233294255570
21
3.23032205976580
31
0.000000000000000
  0
LINE
  5
F1034B
330
F1034C
100
AcDbEntity
8
Geo
100
AcDbLine
10
-40.3233294255570
20
3.23032205976580
30
0.000000000000000
11
-40.2233294255570
21
3.22657685813073
31
0.000000000000000
  0
LINE
  5
F1034D
330
F1034E
100
AcDbEntity
8
Geo
100
AcDbLine
10
-40.2233294255570
20
3.22657685813073
30
0.000000000000000
11
-40.1233294255570
21
3.22287801217505
31
0.000000000000000
  0
LINE
  5
F1034F
330
F10350
100
AcDbEntity
8
Geo
100
AcDbLine
10
-40.1233294255570
20
3.22287801217505
30
0.000000000000000
11
-40.0233294255570
21
3.21922554373564
31
0.000000000000000
  0
LINE
  5
F10351
330
F10352
100
AcDbEntity
8
Geo
100
AcDbLine
10
-40.0233294255570
20
3.21922554373564
30
0.000000000000000
11
-39.9233294255570
21
3.21561947437558
31
0.000000000000000
  0
LINE
  5
F10353
330
F10354
100
AcDbEntity
8
Geo
100
AcDbLine
10
-39.9233294255570
20
3.21561947437558
30
0.000000000000000
11
-39.8233294255570
21
3.21205982538402
31
0.000000000000000
  0
LINE
  5
F10355
330
F10356
100
AcDbEntity
8
Geo
100
AcDbLine
10
-39.8233294255570
20
3.21205982538402
30
0.000000000000000
11
-39.7233294255570
21
3.20854661777607
31
0.000000000000000
  0
LINE
  5
F10357
330
F10358
100
AcDbEntity
8
Geo
100
AcDbLine
10
-39.7233294255570
20
3.20854661777607
30
0.000000000000000
11
-39.6233294255570
21
3.20507987229266
31
0.000000000000000
  0
LINE
  5
F10359
330
F1035A
100
AcDbEntity
8
Geo
100
AcDbLine
10
-39.6233294255570
20
3.20507987229266
30
0.000000000000000
11
-39.5233294255570
21
3.20165960940040
31
0.000000000000000
  0
LINE
  5
F1035B
330
F1035C
100
AcDbEntity
8
Geo
100
AcDbLine
10
-39.5233294255570
20
3.20165960940040
30
0.000000000000000
11
-39.4233294255570
21
3.19828584929152
31
0.000000000000000
  0
LINE
  5
F1035D
330
F1035E
100
AcDbEntity
8
Geo
100
AcDbLine
10
-39.4233294255570
20
3.19828584929152
30
0.000000000000000
11
-39.3233294255570
21
3.19495861188368
31
0.000000000000000
  0
LINE
  5
F1035F
330
F10360
100
AcDbEntity
8
Geo
100
AcDbLine
10
-39.3233294255570
20
3.19495861188368
30
0.000000000000000
11
-39.2233294255570
21
3.19167791681990
31
0.000000000000000
  0
LINE
  5
F10361
330
F10362
100
AcDbEntity
8
Geo
100
AcDbLine
10
-39.2233294255570
20
3.19167791681990
30
0.000000000000000
11
-39.1233294255570
21
3.69194630715100
31
0.000000000000000
  0
LINE
  5
F10363
330
F10364
100
AcDbEntity
8
Geo
100
AcDbLine
10
-45.2233294255570
20
18.9396277650175
30
0.000000000000000
11
-45.1233294255570
21
18.9376902898093
31
0.000000000000000
  0
LINE
  5
F10365
330
F10366
100
AcDbEntity
8
Geo
100
AcDbLine
10
-45.2233294255570
20
12.7584678071573
30
0.000000000000000
11
-45.1233294255570
21
12.7397056756680
31
0.000000000000000
  0
LINE
  5
F10367
330
F10368
100
AcDbEntity
8
Geo
100
AcDbLine
10
-45.2233294255570
20
4.25571343472018
30
0.000000000000000
11
-45.1233294255570
21
4.24605527496655
31
0.000000000000000
  0
LINE
  5
F10369
330
F1036A
100
AcDbEntity
8
Geo
100
AcDbLine
10
-45.1233294255570
20
18.9376902898093
30
0.000000000000000
11
-45.0233294255570
21
18.9357064165655
31
0.000000000000000
  0
LINE
  5
F1036B
330
F1036C
100
AcDbEntity
8
Geo
100
AcDbLine
10
-45.1233294255570
20
12.7397056756680
30
0.000000000000000
11
-45.0233294255570
21
12.7209337371906
31
0.000000000000000
  0
LINE
  5
F1036D
330
F1036E
100
AcDbEntity
8
Geo
100
AcDbLine
10
-45.1233294255570
20
4.24605527496655
30
0.000000000000000
11
-45.0233294255570
21
4.23643745219662
31
0.000000000000000
  0
LINE
  5
F1036F
330
F10370
100
AcDbEntity
8
Geo
100
AcDbLine
10
-45.0233294255570
20
18.9357064165655
30
0.000000000000000
11
-44.9233294255570
21
18.9336761569981
31
0.000000000000000
  0
LINE
  5
F10371
330
F10372
100
AcDbEntity
8
Geo
100
AcDbLine
10
-45.0233294255570
20
12.7209337371906
30
0.000000000000000
11
-44.9233294255570
21
12.7021521025490
31
0.000000000000000
  0
LINE
  5
F10373
330
F10374
100
AcDbEntity
8
Geo
100
AcDbLine
10
-45.0233294255570
20
4.23643745219662
30
0.000000000000000
11
-44.9233294255570
21
4.22686002319115
31
0.000000000000000
  0
LINE
  5
F10375
330
F10376
100
AcDbEntity
8
Geo
100
AcDbLine
10
-44.9233294255570
20
18.9336761569981
30
0.000000000000000
11
-44.8233294255570
21
18.9315995230934
31
0.000000000000000
  0
LINE
  5
F10377
330
F10378
100
AcDbEntity
8
Geo
100
AcDbLine
10
-44.9233294255570
20
12.7021521025490
30
0.000000000000000
11
-44.8233294255570
21
12.6833608826243
31
0.000000000000000
  0
LINE
  5
F10379
330
F1037A
100
AcDbEntity
8
Geo
100
AcDbLine
10
-44.9233294255570
20
4.22686002319115
30
0.000000000000000
11
-44.8233294255570
21
4.21732304449241
31
0.000000000000000
  0
LINE
  5
F1037B
330
F1037C
100
AcDbEntity
8
Geo
100
AcDbLine
10
-44.8233294255570
20
18.9315995230934
30
0.000000000000000
11
-44.7233294255570
21
18.9294765271110
31
0.000000000000000
  0
LINE
  5
F1037D
330
F1037E
100
AcDbEntity
8
Geo
100
AcDbLine
10
-44.8233294255570
20
12.6833608826243
30
0.000000000000000
11
-44.7233294255570
21
12.6645601883543
31
0.000000000000000
  0
LINE
  5
F1037F
330
F10380
100
AcDbEntity
8
Geo
100
AcDbLine
10
-44.8233294255570
20
4.21732304449241
30
0.000000000000000
11
-44.7233294255570
21
4.20782657240386
31
0.000000000000000
  0
LINE
  5
F10381
330
F10382
100
AcDbEntity
8
Geo
100
AcDbLine
10
-44.7233294255570
20
18.9294765271110
30
0.000000000000000
11
-44.6233294255570
21
18.9273071815845
31
0.000000000000000
  0
LINE
  5
F10383
330
F10384
100
AcDbEntity
8
Geo
100
AcDbLine
10
-44.7233294255570
20
12.6645601883543
30
0.000000000000000
11
-44.6233294255570
21
12.6457501307327
31
0.000000000000000
  0
LINE
  5
F10385
330
F10386
100
AcDbEntity
8
Geo
100
AcDbLine
10
-44.7233294255570
20
4.20782657240386
30
0.000000000000000
11
-44.6233294255570
21
4.19837066298985
31
0.000000000000000
  0
LINE
  5
F10387
330
F10388
100
AcDbEntity
8
Geo
100
AcDbLine
10
-44.6233294255570
20
18.9273071815845
30
0.000000000000000
11
-44.5233294255570
21
18.9250914993210
31
0.000000000000000
  0
LINE
  5
F10389
330
F1038A
100
AcDbEntity
8
Geo
100
AcDbLine
10
-44.6233294255570
20
12.6457501307327
30
0.000000000000000
11
-44.5233294255570
21
12.6269308208084
31
0.000000000000000
  0
LINE
  5
F1038B
330
F1038C
100
AcDbEntity
8
Geo
100
AcDbLine
10
-44.6233294255570
20
4.19837066298985
30
0.000000000000000
11
-44.5233294255570
21
4.18895537207523
31
0.000000000000000
  0
LINE
  5
F1038D
330
F1038E
100
AcDbEntity
8
Geo
100
AcDbLine
10
-44.5233294255570
20
18.9250914993210
30
0.000000000000000
11
-44.4233294255570
21
18.9228294934014
31
0.000000000000000
  0
LINE
  5
F1038F
330
F10390
100
AcDbEntity
8
Geo
100
AcDbLine
10
-44.5233294255570
20
12.6269308208084
30
0.000000000000000
11
-44.4233294255570
21
12.6081023696850
31
0.000000000000000
  0
LINE
  5
F10391
330
F10392
100
AcDbEntity
8
Geo
100
AcDbLine
10
-44.5233294255570
20
4.18895537207523
30
0.000000000000000
11
-44.4233294255570
21
4.17958075524506
31
0.000000000000000
  0
LINE
  5
F10393
330
F10394
100
AcDbEntity
8
Geo
100
AcDbLine
10
-44.4233294255570
20
18.9228294934014
30
0.000000000000000
11
-44.3233294255570
21
18.9205211771798
31
0.000000000000000
  0
LINE
  5
F10395
330
F10396
100
AcDbEntity
8
Geo
100
AcDbLine
10
-44.4233294255570
20
12.6081023696850
30
0.000000000000000
11
-44.3233294255570
21
12.5892648885200
31
0.000000000000000
  0
LINE
  5
F10397
330
F10398
100
AcDbEntity
8
Geo
100
AcDbLine
10
-44.4233294255570
20
4.17958075524506
30
0.000000000000000
11
-44.3233294255570
21
4.17024686784428
31
0.000000000000000
  0
LINE
  5
F10399
330
F1039A
100
AcDbEntity
8
Geo
100
AcDbLine
10
-44.3233294255570
20
18.9205211771798
30
0.000000000000000
11
-44.2233294255570
21
18.9181665642838
31
0.000000000000000
  0
LINE
  5
F1039B
330
F1039C
100
AcDbEntity
8
Geo
100
AcDbLine
10
-44.3233294255570
20
12.5892648885200
30
0.000000000000000
11
-44.2233294255570
21
12.5704184885244
31
0.000000000000000
  0
LINE
  5
F1039D
330
F1039E
100
AcDbEntity
8
Geo
100
AcDbLine
10
-44.3233294255570
20
4.17024686784428
30
0.000000000000000
11
-44.2233294255570
21
4.16095376497737
31
0.000000000000000
  0
LINE
  5
F1039F
330
F103A0
100
AcDbEntity
8
Geo
100
AcDbLine
10
-44.2233294255570
20
18.9181665642838
30
0.000000000000000
11
-44.1233294255570
21
18.9157656686144
31
0.000000000000000
  0
LINE
  5
F103A1
330
F103A2
100
AcDbEntity
8
Geo
100
AcDbLine
10
-44.2233294255570
20
12.5704184885244
30
0.000000000000000
11
-44.1233294255570
21
12.5515632809615
31
0.000000000000000
  0
LINE
  5
F103A3
330
F103A4
100
AcDbEntity
8
Geo
100
AcDbLine
10
-44.2233294255570
20
4.16095376497737
30
0.000000000000000
11
-44.1233294255570
21
4.15170150150803
31
0.000000000000000
  0
LINE
  5
F103A5
330
F103A6
100
AcDbEntity
8
Geo
100
AcDbLine
10
-44.1233294255570
20
18.9157656686144
30
0.000000000000000
11
-44.0233294255570
21
18.9133185043457
31
0.000000000000000
  0
LINE
  5
F103A7
330
F103A8
100
AcDbEntity
8
Geo
100
AcDbLine
10
-44.1233294255570
20
12.5515632809615
30
0.000000000000000
11
-44.0233294255570
21
12.5326993771469
31
0.000000000000000
  0
LINE
  5
F103A9
330
F103AA
100
AcDbEntity
8
Geo
100
AcDbLine
10
-44.1233294255570
20
4.15170150150803
30
0.000000000000000
11
-44.0233294255570
21
4.14249013205885
31
0.000000000000000
  0
LINE
  5
F103AB
330
F103AC
100
AcDbEntity
8
Geo
100
AcDbLine
10
-44.0233294255570
20
18.9133185043457
30
0.000000000000000
11
-43.9233294255570
21
18.9108250859250
31
0.000000000000000
  0
LINE
  5
F103AD
330
F103AE
100
AcDbEntity
8
Geo
100
AcDbLine
10
-44.0233294255570
20
12.5326993771469
30
0.000000000000000
11
-43.9233294255570
21
12.5138268884476
31
0.000000000000000
  0
LINE
  5
F103AF
330
F103B0
100
AcDbEntity
8
Geo
100
AcDbLine
10
-44.0233294255570
20
4.14249013205885
30
0.000000000000000
11
-43.9233294255570
21
4.13331971101100
31
0.000000000000000
  0
LINE
  5
F103B1
330
F103B2
100
AcDbEntity
8
Geo
100
AcDbLine
10
-43.9233294255570
20
18.9108250859250
30
0.000000000000000
11
-43.8233294255570
21
18.9082854280728
31
0.000000000000000
  0
LINE
  5
F103B3
330
F103B4
100
AcDbEntity
8
Geo
100
AcDbLine
10
-43.9233294255570
20
12.5138268884476
30
0.000000000000000
11
-43.8233294255570
21
12.4949459262809
31
0.000000000000000
  0
LINE
  5
F103B5
330
F103B6
100
AcDbEntity
8
Geo
100
AcDbLine
10
-43.9233294255570
20
4.13331971101100
30
0.000000000000000
11
-43.8233294255570
21
4.12419029250391
31
0.000000000000000
  0
LINE
  5
F103B7
330
F103B8
100
AcDbEntity
8
Geo
100
AcDbLine
10
-43.8233294255570
20
18.9082854280728
30
0.000000000000000
11
-43.7233294255570
21
18.9056995457824
31
0.000000000000000
  0
LINE
  5
F103B9
330
F103BA
100
AcDbEntity
8
Geo
100
AcDbLine
10
-43.8233294255570
20
12.4949459262809
30
0.000000000000000
11
-43.7233294255570
21
12.4760566021144
31
0.000000000000000
  0
LINE
  5
F103BB
330
F103BC
100
AcDbEntity
8
Geo
100
AcDbLine
10
-43.8233294255570
20
4.12419029250391
30
0.000000000000000
11
-43.7233294255570
21
4.11510193043494
31
0.000000000000000
  0
LINE
  5
F103BD
330
F103BE
100
AcDbEntity
8
Geo
100
AcDbLine
10
-43.7233294255570
20
18.9056995457824
30
0.000000000000000
11
-43.6233294255570
21
18.9030674543200
31
0.000000000000000
  0
LINE
  5
F103BF
330
F103C0
100
AcDbEntity
8
Geo
100
AcDbLine
10
-43.7233294255570
20
12.4760566021144
30
0.000000000000000
11
-43.6233294255570
21
12.4571590274651
31
0.000000000000000
  0
LINE
  5
F103C1
330
F103C2
100
AcDbEntity
8
Geo
100
AcDbLine
10
-43.7233294255570
20
4.11510193043494
30
0.000000000000000
11
-43.6233294255570
21
4.10605467845905
31
0.000000000000000
  0
LINE
  5
F103C3
330
F103C4
100
AcDbEntity
8
Geo
100
AcDbLine
10
-43.6233294255570
20
18.9030674543200
30
0.000000000000000
11
-43.5233294255570
21
18.9003891692249
31
0.000000000000000
  0
LINE
  5
F103C5
330
F103C6
100
AcDbEntity
8
Geo
100
AcDbLine
10
-43.6233294255570
20
12.4571590274651
30
0.000000000000000
11
-43.5233294255570
21
12.4382533138986
31
0.000000000000000
  0
LINE
  5
F103C7
330
F103C8
100
AcDbEntity
8
Geo
100
AcDbLine
10
-43.6233294255570
20
4.10605467845905
30
0.000000000000000
11
-43.5233294255570
21
4.09704858998852
31
0.000000000000000
  0
LINE
  5
F103C9
330
F103CA
100
AcDbEntity
8
Geo
100
AcDbLine
10
-43.5233294255570
20
18.9003891692249
30
0.000000000000000
11
-43.4233294255570
21
18.8976647063087
31
0.000000000000000
  0
LINE
  5
F103CB
330
F103CC
100
AcDbEntity
8
Geo
100
AcDbLine
10
-43.5233294255570
20
12.4382533138986
30
0.000000000000000
11
-43.4233294255570
21
12.4193395730286
31
0.000000000000000
  0
LINE
  5
F103CD
330
F103CE
100
AcDbEntity
8
Geo
100
AcDbLine
10
-43.5233294255570
20
4.09704858998852
30
0.000000000000000
11
-43.4233294255570
21
4.08808371819260
31
0.000000000000000
  0
LINE
  5
F103CF
330
F103D0
100
AcDbEntity
8
Geo
100
AcDbLine
10
-43.4233294255570
20
18.8976647063087
30
0.000000000000000
11
-43.3233294255570
21
18.8948940816560
31
0.000000000000000
  0
LINE
  5
F103D1
330
F103D2
100
AcDbEntity
8
Geo
100
AcDbLine
10
-43.4233294255570
20
12.4193395730286
30
0.000000000000000
11
-43.3233294255570
21
12.4004179165161
31
0.000000000000000
  0
LINE
  5
F103D3
330
F103D4
100
AcDbEntity
8
Geo
100
AcDbLine
10
-43.4233294255570
20
4.08808371819260
30
0.000000000000000
11
-43.3233294255570
21
4.07916011599720
31
0.000000000000000
  0
LINE
  5
F103D5
330
F103D6
100
AcDbEntity
8
Geo
100
AcDbLine
10
-43.3233294255570
20
18.8948940816560
30
0.000000000000000
11
-43.2233294255570
21
18.8920773116235
31
0.000000000000000
  0
LINE
  5
F103D7
330
F103D8
100
AcDbEntity
8
Geo
100
AcDbLine
10
-43.3233294255570
20
12.4004179165161
30
0.000000000000000
11
-43.2233294255570
21
12.3814884560689
31
0.000000000000000
  0
LINE
  5
F103D9
330
F103DA
100
AcDbEntity
8
Geo
100
AcDbLine
10
-43.3233294255570
20
4.07916011599720
30
0.000000000000000
11
-43.2233294255570
21
4.07027783608462
31
0.000000000000000
  0
LINE
  5
F103DB
330
F103DC
100
AcDbEntity
8
Geo
100
AcDbLine
10
-43.2233294255570
20
18.8920773116235
30
0.000000000000000
11
-43.1233294255570
21
18.8892144128408
31
0.000000000000000
  0
LINE
  5
F103DD
330
F103DE
100
AcDbEntity
8
Geo
100
AcDbLine
10
-43.2233294255570
20
12.3814884560689
30
0.000000000000000
11
-43.1233294255570
21
12.3625513034410
31
0.000000000000000
  0
LINE
  5
F103DF
330
F103E0
100
AcDbEntity
8
Geo
100
AcDbLine
10
-43.2233294255570
20
4.07027783608462
30
0.000000000000000
11
-43.1233294255570
21
4.06143693089318
31
0.000000000000000
  0
LINE
  5
F103E1
330
F103E2
100
AcDbEntity
8
Geo
100
AcDbLine
10
-43.1233294255570
20
18.8892144128408
30
0.000000000000000
11
-43.0233294255570
21
18.8863054022094
31
0.000000000000000
  0
LINE
  5
F103E3
330
F103E4
100
AcDbEntity
8
Geo
100
AcDbLine
10
-43.1233294255570
20
12.3625513034410
30
0.000000000000000
11
-43.0233294255570
21
12.3436065704316
31
0.000000000000000
  0
LINE
  5
F103E5
330
F103E6
100
AcDbEntity
8
Geo
100
AcDbLine
10
-43.1233294255570
20
4.06143693089318
30
0.000000000000000
11
-43.0233294255570
21
4.05263745261692
31
0.000000000000000
  0
LINE
  5
F103E7
330
F103E8
100
AcDbEntity
8
Geo
100
AcDbLine
10
-43.0233294255570
20
18.8863054022094
30
0.000000000000000
11
-42.9233294255570
21
18.8833502969033
31
0.000000000000000
  0
LINE
  5
F103E9
330
F103EA
100
AcDbEntity
8
Geo
100
AcDbLine
10
-43.0233294255570
20
12.3436065704316
30
0.000000000000000
11
-42.9233294255570
21
12.3246543688847
31
0.000000000000000
  0
LINE
  5
F103EB
330
F103EC
100
AcDbEntity
8
Geo
100
AcDbLine
10
-43.0233294255570
20
4.05263745261692
30
0.000000000000000
11
-42.9233294255570
21
4.04387945320535
31
0.000000000000000
  0
LINE
  5
F103ED
330
F103EE
100
AcDbEntity
8
Geo
100
AcDbLine
10
-42.9233294255570
20
18.8833502969033
30
0.000000000000000
11
-42.8233294255570
21
18.8803491143687
31
0.000000000000000
  0
LINE
  5
F103EF
330
F103F0
100
AcDbEntity
8
Geo
100
AcDbLine
10
-42.9233294255570
20
12.3246543688847
30
0.000000000000000
11
-42.8233294255570
21
12.3056948106884
31
0.000000000000000
  0
LINE
  5
F103F1
330
F103F2
100
AcDbEntity
8
Geo
100
AcDbLine
10
-42.9233294255570
20
4.04387945320535
30
0.000000000000000
11
-42.8233294255570
21
4.03516298436307
31
0.000000000000000
  0
LINE
  5
F103F3
330
F103F4
100
AcDbEntity
8
Geo
100
AcDbLine
10
-42.8233294255570
20
18.8803491143687
30
0.000000000000000
11
-42.7233294255570
21
18.8773018723235
31
0.000000000000000
  0
LINE
  5
F103F5
330
F103F6
100
AcDbEntity
8
Geo
100
AcDbLine
10
-42.8233294255570
20
12.3056948106884
30
0.000000000000000
11
-42.7233294255570
21
12.2867280077745
31
0.000000000000000
  0
LINE
  5
F103F7
330
F103F8
100
AcDbEntity
8
Geo
100
AcDbLine
10
-42.8233294255570
20
4.03516298436307
30
0.000000000000000
11
-42.7233294255570
21
4.02648809754951
31
0.000000000000000
  0
LINE
  5
F103F9
330
F103FA
100
AcDbEntity
8
Geo
100
AcDbLine
10
-42.7233294255570
20
18.8773018723235
30
0.000000000000000
11
-42.6233294255570
21
18.8742085887577
31
0.000000000000000
  0
LINE
  5
F103FB
330
F103FC
100
AcDbEntity
8
Geo
100
AcDbLine
10
-42.7233294255570
20
12.2867280077745
30
0.000000000000000
11
-42.6233294255570
21
12.2677540721170
31
0.000000000000000
  0
LINE
  5
F103FD
330
F103FE
100
AcDbEntity
8
Geo
100
AcDbLine
10
-42.7233294255570
20
4.02648809754951
30
0.000000000000000
11
-42.6233294255570
21
4.01785484397860
31
0.000000000000000
  0
LINE
  5
F103FF
330
F10400
100
AcDbEntity
8
Geo
100
AcDbLine
10
-42.6233294255570
20
18.8742085887577
30
0.000000000000000
11
-42.5233294255570
21
18.8710692819333
31
0.000000000000000
  0
LINE
  5
F10401
330
F10402
100
AcDbEntity
8
Geo
100
AcDbLine
10
-42.6233294255570
20
12.2677540721170
30
0.000000000000000
11
-42.5233294255570
21
12.2487731157326
31
0.000000000000000
  0
LINE
  5
F10403
330
F10404
100
AcDbEntity
8
Geo
100
AcDbLine
10
-42.6233294255570
20
4.01785484397860
30
0.000000000000000
11
-42.5233294255570
21
4.00926327461850
31
0.000000000000000
  0
LINE
  5
F10405
330
F10406
100
AcDbEntity
8
Geo
100
AcDbLine
10
-42.5233294255570
20
18.8710692819333
30
0.000000000000000
11
-42.4233294255570
21
18.8678839703837
31
0.000000000000000
  0
LINE
  5
F10407
330
F10408
100
AcDbEntity
8
Geo
100
AcDbLine
10
-42.5233294255570
20
12.2487731157326
30
0.000000000000000
11
-42.4233294255570
21
12.2297852506791
31
0.000000000000000
  0
LINE
  5
F10409
330
F1040A
100
AcDbEntity
8
Geo
100
AcDbLine
10
-42.5233294255570
20
4.00926327461850
30
0.000000000000000
11
-42.4233294255570
21
4.00071344019125
31
0.000000000000000
  0
LINE
  5
F1040B
330
F1040C
100
AcDbEntity
8
Geo
100
AcDbLine
10
-42.4233294255570
20
18.8678839703837
30
0.000000000000000
11
-42.3233294255570
21
18.8646526729140
31
0.000000000000000
  0
LINE
  5
F1040D
330
F1040E
100
AcDbEntity
8
Geo
100
AcDbLine
10
-42.4233294255570
20
12.2297852506791
30
0.000000000000000
11
-42.3233294255570
21
12.2107905890551
31
0.000000000000000
  0
LINE
  5
F1040F
330
F10410
100
AcDbEntity
8
Geo
100
AcDbLine
10
-42.4233294255570
20
4.00071344019125
30
0.000000000000000
11
-42.3233294255570
21
3.99220539117252
31
0.000000000000000
  0
LINE
  5
F10411
330
F10412
100
AcDbEntity
8
Geo
100
AcDbLine
10
-42.3233294255570
20
18.8646526729140
30
0.000000000000000
11
-42.2233294255570
21
18.8613754086008
31
0.000000000000000
  0
LINE
  5
F10413
330
F10414
100
AcDbEntity
8
Geo
100
AcDbLine
10
-42.3233294255570
20
12.2107905890551
30
0.000000000000000
11
-42.2233294255570
21
12.1917892429995
31
0.000000000000000
  0
LINE
  5
F10415
330
F10416
100
AcDbEntity
8
Geo
100
AcDbLine
10
-42.3233294255570
20
3.99220539117252
30
0.000000000000000
11
-42.2233294255570
21
3.98373917779129
31
0.000000000000000
  0
LINE
  5
F10417
330
F10418
100
AcDbEntity
8
Geo
100
AcDbLine
10
-42.2233294255570
20
18.8613754086008
30
0.000000000000000
11
-42.1233294255570
21
18.8580521967923
31
0.000000000000000
  0
LINE
  5
F10419
330
F1041A
100
AcDbEntity
8
Geo
100
AcDbLine
10
-42.2233294255570
20
12.1917892429995
30
0.000000000000000
11
-42.1233294255570
21
12.1727813246906
31
0.000000000000000
  0
LINE
  5
F1041B
330
F1041C
100
AcDbEntity
8
Geo
100
AcDbLine
10
-42.2233294255570
20
3.98373917779129
30
0.000000000000000
11
-42.1233294255570
21
3.97531485002956
31
0.000000000000000
  0
LINE
  5
F1041D
330
F1041E
100
AcDbEntity
8
Geo
100
AcDbLine
10
-42.1233294255570
20
18.8580521967923
30
0.000000000000000
11
-42.0233294255570
21
18.8546830571075
31
0.000000000000000
  0
LINE
  5
F1041F
330
F10420
100
AcDbEntity
8
Geo
100
AcDbLine
10
-42.1233294255570
20
12.1727813246906
30
0.000000000000000
11
-42.0233294255570
21
12.1537669463453
31
0.000000000000000
  0
LINE
  5
F10421
330
F10422
100
AcDbEntity
8
Geo
100
AcDbLine
10
-42.1233294255570
20
3.97531485002956
30
0.000000000000000
11
-42.0233294255570
21
3.96693245762203
31
0.000000000000000
  0
LINE
  5
F10423
330
F10424
100
AcDbEntity
8
Geo
100
AcDbLine
10
-42.0233294255570
20
18.8546830571075
30
0.000000000000000
11
-41.9233294255570
21
18.8512680094369
31
0.000000000000000
  0
LINE
  5
F10425
330
F10426
100
AcDbEntity
8
Geo
100
AcDbLine
10
-42.0233294255570
20
12.1537669463453
30
0.000000000000000
11
-41.9233294255570
21
12.1347462202190
31
0.000000000000000
  0
LINE
  5
F10427
330
F10428
100
AcDbEntity
8
Geo
100
AcDbLine
10
-42.0233294255570
20
3.96693245762203
30
0.000000000000000
11
-41.9233294255570
21
3.95859205005584
31
0.000000000000000
  0
LINE
  5
F10429
330
F1042A
100
AcDbEntity
8
Geo
100
AcDbLine
10
-41.9233294255570
20
18.8512680094369
30
0.000000000000000
11
-41.8233294255570
21
18.8478070739419
31
0.000000000000000
  0
LINE
  5
F1042B
330
F1042C
100
AcDbEntity
8
Geo
100
AcDbLine
10
-41.9233294255570
20
12.1347462202190
30
0.000000000000000
11
-41.8233294255570
21
12.1157192586042
31
0.000000000000000
  0
LINE
  5
F1042D
330
F1042E
100
AcDbEntity
8
Geo
100
AcDbLine
10
-41.9233294255570
20
3.95859205005584
30
0.000000000000000
11
-41.8233294255570
21
3.95029367657027
31
0.000000000000000
  0
LINE
  5
F1042F
330
F10430
100
AcDbEntity
8
Geo
100
AcDbLine
10
-41.8233294255570
20
18.8478070739419
30
0.000000000000000
11
-41.7233294255570
21
18.8443002710549
31
0.000000000000000
  0
LINE
  5
F10431
330
F10432
100
AcDbEntity
8
Geo
100
AcDbLine
10
-41.8233294255570
20
12.1157192586042
30
0.000000000000000
11
-41.7233294255570
21
12.0966861738306
31
0.000000000000000
  0
LINE
  5
F10433
330
F10434
100
AcDbEntity
8
Geo
100
AcDbLine
10
-41.8233294255570
20
3.95029367657027
30
0.000000000000000
11
-41.7233294255570
21
3.94203738615642
31
0.000000000000000
  0
LINE
  5
F10435
330
F10436
100
AcDbEntity
8
Geo
100
AcDbLine
10
-41.7233294255570
20
18.8443002710549
30
0.000000000000000
11
-41.6233294255570
21
18.8407476214789
31
0.000000000000000
  0
LINE
  5
F10437
330
F10438
100
AcDbEntity
8
Geo
100
AcDbLine
10
-41.7233294255570
20
12.0966861738306
30
0.000000000000000
11
-41.6233294255570
21
12.0776470782636
31
0.000000000000000
  0
LINE
  5
F10439
330
F1043A
100
AcDbEntity
8
Geo
100
AcDbLine
10
-41.7233294255570
20
3.94203738615642
30
0.000000000000000
11
-41.6233294255570
21
3.93382322755697
31
0.000000000000000
  0
LINE
  5
F1043B
330
F1043C
100
AcDbEntity
8
Geo
100
AcDbLine
10
-41.6233294255570
20
18.8407476214789
30
0.000000000000000
11
-41.5233294255570
21
18.8371491461877
31
0.000000000000000
  0
LINE
  5
F1043D
330
F1043E
100
AcDbEntity
8
Geo
100
AcDbLine
10
-41.6233294255570
20
12.0776470782636
30
0.000000000000000
11
-41.5233294255570
21
12.0586020843045
31
0.000000000000000
  0
LINE
  5
F1043F
330
F10440
100
AcDbEntity
8
Geo
100
AcDbLine
10
-41.6233294255570
20
3.93382322755697
30
0.000000000000000
11
-41.5233294255570
21
3.92565124926586
31
0.000000000000000
  0
LINE
  5
F10441
330
F10442
100
AcDbEntity
8
Geo
100
AcDbLine
10
-41.5233294255570
20
18.8371491461877
30
0.000000000000000
11
-41.4233294255570
21
18.8335048664257
31
0.000000000000000
  0
LINE
  5
F10443
330
F10444
100
AcDbEntity
8
Geo
100
AcDbLine
10
-41.5233294255570
20
12.0586020843045
30
0.000000000000000
11
-41.4233294255570
21
12.0395513043891
31
0.000000000000000
  0
LINE
  5
F10445
330
F10446
100
AcDbEntity
8
Geo
100
AcDbLine
10
-41.5233294255570
20
3.92565124926586
30
0.000000000000000
11
-41.4233294255570
21
3.91752149952799
31
0.000000000000000
  0
LINE
  5
F10447
330
F10448
100
AcDbEntity
8
Geo
100
AcDbLine
10
-41.4233294255570
20
18.8335048664257
30
0.000000000000000
11
-41.3233294255570
21
18.8298148037076
31
0.000000000000000
  0
LINE
  5
F10449
330
F1044A
100
AcDbEntity
8
Geo
100
AcDbLine
10
-41.4233294255570
20
12.0395513043891
30
0.000000000000000
11
-41.3233294255570
21
12.0204948509877
31
0.000000000000000
  0
LINE
  5
F1044B
330
F1044C
100
AcDbEntity
8
Geo
100
AcDbLine
10
-41.4233294255570
20
3.91752149952799
30
0.000000000000000
11
-41.3233294255570
21
3.90943402633899
31
0.000000000000000
  0
LINE
  5
F1044D
330
F1044E
100
AcDbEntity
8
Geo
100
AcDbLine
10
-41.3233294255570
20
18.8298148037076
30
0.000000000000000
11
-41.2233294255570
21
18.8260789798184
31
0.000000000000000
  0
LINE
  5
F1044F
330
F10450
100
AcDbEntity
8
Geo
100
AcDbLine
10
-41.3233294255570
20
12.0204948509877
30
0.000000000000000
11
-41.2233294255570
21
12.0014328366038
31
0.000000000000000
  0
LINE
  5
F10451
330
F10452
100
AcDbEntity
8
Geo
100
AcDbLine
10
-41.3233294255570
20
3.90943402633899
30
0.000000000000000
11
-41.2233294255570
21
3.90138887744487
31
0.000000000000000
  0
LINE
  5
F10453
330
F10454
100
AcDbEntity
8
Geo
100
AcDbLine
10
-41.2233294255570
20
18.8260789798184
30
0.000000000000000
11
-41.1233294255570
21
18.8222974168133
31
0.000000000000000
  0
LINE
  5
F10455
330
F10456
100
AcDbEntity
8
Geo
100
AcDbLine
10
-41.2233294255570
20
12.0014328366038
30
0.000000000000000
11
-41.1233294255570
21
11.9823653737738
31
0.000000000000000
  0
LINE
  5
F10457
330
F10458
100
AcDbEntity
8
Geo
100
AcDbLine
10
-41.2233294255570
20
3.90138887744487
30
0.000000000000000
11
-41.1233294255570
21
3.89338610034179
31
0.000000000000000
  0
LINE
  5
F10459
330
F1045A
100
AcDbEntity
8
Geo
100
AcDbLine
10
-41.1233294255570
20
18.8222974168133
30
0.000000000000000
11
-41.0233294255570
21
18.8184701370175
31
0.000000000000000
  0
LINE
  5
F1045B
330
F1045C
100
AcDbEntity
8
Geo
100
AcDbLine
10
-41.1233294255570
20
11.9823653737738
30
0.000000000000000
11
-41.0233294255570
21
11.9632925750663
31
0.000000000000000
  0
LINE
  5
F1045D
330
F1045E
100
AcDbEntity
8
Geo
100
AcDbLine
10
-41.1233294255570
20
3.89338610034179
30
0.000000000000000
11
-41.0233294255570
21
3.88542574227575
31
0.000000000000000
  0
LINE
  5
F1045F
330
F10460
100
AcDbEntity
8
Geo
100
AcDbLine
10
-41.0233294255570
20
18.8184701370175
30
0.000000000000000
11
-40.9233294255570
21
18.8145971630262
31
0.000000000000000
  0
LINE
  5
F10461
330
F10462
100
AcDbEntity
8
Geo
100
AcDbLine
10
-41.0233294255570
20
11.9632925750663
30
0.000000000000000
11
-40.9233294255570
21
11.9442145530815
31
0.000000000000000
  0
LINE
  5
F10463
330
F10464
100
AcDbEntity
8
Geo
100
AcDbLine
10
-41.0233294255570
20
3.88542574227575
30
0.000000000000000
11
-40.9233294255570
21
3.87750785024232
31
0.000000000000000
  0
LINE
  5
F10465
330
F10466
100
AcDbEntity
8
Geo
100
AcDbLine
10
-40.9233294255570
20
18.8145971630262
30
0.000000000000000
11
-40.8233294255570
21
18.8106785177042
31
0.000000000000000
  0
LINE
  5
F10467
330
F10468
100
AcDbEntity
8
Geo
100
AcDbLine
10
-40.9233294255570
20
11.9442145530815
30
0.000000000000000
11
-40.8233294255570
21
11.9251314204502
31
0.000000000000000
  0
LINE
  5
F10469
330
F1046A
100
AcDbEntity
8
Geo
100
AcDbLine
10
-40.9233294255570
20
3.87750785024232
30
0.000000000000000
11
-40.8233294255570
21
3.86963247098637
31
0.000000000000000
  0
LINE
  5
F1046B
330
F1046C
100
AcDbEntity
8
Geo
100
AcDbLine
10
-40.8233294255570
20
18.8106785177042
30
0.000000000000000
11
-40.7233294255570
21
18.8067142241861
31
0.000000000000000
  0
LINE
  5
F1046D
330
F1046E
100
AcDbEntity
8
Geo
100
AcDbLine
10
-40.8233294255570
20
11.9251314204502
30
0.000000000000000
11
-40.7233294255570
21
11.9060432898336
31
0.000000000000000
  0
LINE
  5
F1046F
330
F10470
100
AcDbEntity
8
Geo
100
AcDbLine
10
-40.8233294255570
20
3.86963247098637
30
0.000000000000000
11
-40.7233294255570
21
3.86179965100179
31
0.000000000000000
  0
LINE
  5
F10471
330
F10472
100
AcDbEntity
8
Geo
100
AcDbLine
10
-40.7233294255570
20
18.8067142241861
30
0.000000000000000
11
-40.6233294255570
21
18.8027043058757
31
0.000000000000000
  0
LINE
  5
F10473
330
F10474
100
AcDbEntity
8
Geo
100
AcDbLine
10
-40.7233294255570
20
11.9060432898336
30
0.000000000000000
11
-40.6233294255570
21
11.8869502739223
31
0.000000000000000
  0
LINE
  5
F10475
330
F10476
100
AcDbEntity
8
Geo
100
AcDbLine
10
-40.7233294255570
20
3.86179965100179
30
0.000000000000000
11
-40.6233294255570
21
3.85400943653119
31
0.000000000000000
  0
LINE
  5
F10477
330
F10478
100
AcDbEntity
8
Geo
100
AcDbLine
10
-40.6233294255570
20
18.8027043058757
30
0.000000000000000
11
-40.5233294255570
21
18.7986487864466
31
0.000000000000000
  0
LINE
  5
F10479
330
F1047A
100
AcDbEntity
8
Geo
100
AcDbLine
10
-40.6233294255570
20
11.8869502739223
30
0.000000000000000
11
-40.5233294255570
21
11.8678524854357
31
0.000000000000000
  0
LINE
  5
F1047B
330
F1047C
100
AcDbEntity
8
Geo
100
AcDbLine
10
-40.6233294255570
20
3.85400943653119
30
0.000000000000000
11
-40.5233294255570
21
3.84626187356568
31
0.000000000000000
  0
LINE
  5
F1047D
330
F1047E
100
AcDbEntity
8
Geo
100
AcDbLine
10
-40.5233294255570
20
18.7986487864466
30
0.000000000000000
11
-40.4233294255570
21
18.7945476898412
31
0.000000000000000
  0
LINE
  5
F1047F
330
F10480
100
AcDbEntity
8
Geo
100
AcDbLine
10
-40.5233294255570
20
11.8678524854357
30
0.000000000000000
11
-40.4233294255570
21
11.8487500371215
31
0.000000000000000
  0
LINE
  5
F10481
330
F10482
100
AcDbEntity
8
Geo
100
AcDbLine
10
-40.5233294255570
20
3.84626187356568
30
0.000000000000000
11
-40.4233294255570
21
3.83855700784455
31
0.000000000000000
  0
LINE
  5
F10483
330
F10484
100
AcDbEntity
8
Geo
100
AcDbLine
10
-40.4233294255570
20
18.7945476898412
30
0.000000000000000
11
-40.3233294255570
21
18.7904010402712
31
0.000000000000000
  0
LINE
  5
F10485
330
F10486
100
AcDbEntity
8
Geo
100
AcDbLine
10
-40.4233294255570
20
11.8487500371215
30
0.000000000000000
11
-40.3233294255570
21
11.8296430417548
31
0.000000000000000
  0
LINE
  5
F10487
330
F10488
100
AcDbEntity
8
Geo
100
AcDbLine
10
-40.4233294255570
20
3.83855700784455
30
0.000000000000000
11
-40.3233294255570
21
3.83089488485503
31
0.000000000000000
  0
LINE
  5
F10489
330
F1048A
100
AcDbEntity
8
Geo
100
AcDbLine
10
-40.3233294255570
20
18.7904010402712
30
0.000000000000000
11
-40.2233294255570
21
18.7862088622172
31
0.000000000000000
  0
LINE
  5
F1048B
330
F1048C
100
AcDbEntity
8
Geo
100
AcDbLine
10
-40.3233294255570
20
11.8296430417548
30
0.000000000000000
11
-40.2233294255570
21
11.8105316121377
31
0.000000000000000
  0
LINE
  5
F1048D
330
F1048E
100
AcDbEntity
8
Geo
100
AcDbLine
10
-40.3233294255570
20
3.83089488485503
30
0.000000000000000
11
-40.2233294255570
21
3.82327554983200
31
0.000000000000000
  0
LINE
  5
F1048F
330
F10490
100
AcDbEntity
8
Geo
100
AcDbLine
10
-40.2233294255570
20
18.7862088622172
30
0.000000000000000
11
-40.1233294255570
21
18.7819711804286
31
0.000000000000000
  0
LINE
  5
F10491
330
F10492
100
AcDbEntity
8
Geo
100
AcDbLine
10
-40.2233294255570
20
11.8105316121377
30
0.000000000000000
11
-40.1233294255570
21
11.7914158610982
31
0.000000000000000
  0
LINE
  5
F10493
330
F10494
100
AcDbEntity
8
Geo
100
AcDbLine
10
-40.2233294255570
20
3.82327554983200
30
0.000000000000000
11
-40.1233294255570
21
3.81569904775773
31
0.000000000000000
  0
LINE
  5
F10495
330
F10496
100
AcDbEntity
8
Geo
100
AcDbLine
10
-40.1233294255570
20
18.7819711804286
30
0.000000000000000
11
-40.0233294255570
21
18.7776880199234
31
0.000000000000000
  0
LINE
  5
F10497
330
F10498
100
AcDbEntity
8
Geo
100
AcDbLine
10
-40.1233294255570
20
11.7914158610982
30
0.000000000000000
11
-40.0233294255570
21
11.7722959014900
31
0.000000000000000
  0
LINE
  5
F10499
330
F1049A
100
AcDbEntity
8
Geo
100
AcDbLine
10
-40.1233294255570
20
3.81569904775773
30
0.000000000000000
11
-40.0233294255570
21
3.80816542336162
31
0.000000000000000
  0
LINE
  5
F1049B
330
F1049C
100
AcDbEntity
8
Geo
100
AcDbLine
10
-40.0233294255570
20
18.7776880199234
30
0.000000000000000
11
-39.9233294255570
21
18.7733594059880
31
0.000000000000000
  0
LINE
  5
F1049D
330
F1049E
100
AcDbEntity
8
Geo
100
AcDbLine
10
-40.0233294255570
20
11.7722959014900
30
0.000000000000000
11
-39.9233294255570
21
11.7531718461917
31
0.000000000000000
  0
LINE
  5
F1049F
330
F104A0
100
AcDbEntity
8
Geo
100
AcDbLine
10
-40.0233294255570
20
3.80816542336162
30
0.000000000000000
11
-39.9233294255570
21
3.80067472111994
31
0.000000000000000
  0
LINE
  5
F104A1
330
F104A2
100
AcDbEntity
8
Geo
100
AcDbLine
10
-39.9233294255570
20
18.7733594059880
30
0.000000000000000
11
-39.8233294255570
21
18.7689853641773
31
0.000000000000000
  0
LINE
  5
F104A3
330
F104A4
100
AcDbEntity
8
Geo
100
AcDbLine
10
-39.9233294255570
20
11.7531718461917
30
0.000000000000000
11
-39.8233294255570
21
11.7340438081060
31
0.000000000000000
  0
LINE
  5
F104A5
330
F104A6
100
AcDbEntity
8
Geo
100
AcDbLine
10
-39.9233294255570
20
3.80067472111994
30
0.000000000000000
11
-39.8233294255570
21
3.79322698525556
31
0.000000000000000
  0
LINE
  5
F104A7
330
F104A8
100
AcDbEntity
8
Geo
100
AcDbLine
10
-39.8233294255570
20
18.7689853641773
30
0.000000000000000
11
-39.7233294255570
21
18.7645659203143
31
0.000000000000000
  0
LINE
  5
F104A9
330
F104AA
100
AcDbEntity
8
Geo
100
AcDbLine
10
-39.8233294255570
20
11.7340438081060
30
0.000000000000000
11
-39.7233294255570
21
11.7149119001591
31
0.000000000000000
  0
LINE
  5
F104AB
330
F104AC
100
AcDbEntity
8
Geo
100
AcDbLine
10
-39.8233294255570
20
3.79322698525556
30
0.000000000000000
11
-39.7233294255570
21
3.78582225973768
31
0.000000000000000
  0
LINE
  5
F104AD
330
F104AE
100
AcDbEntity
8
Geo
100
AcDbLine
10
-39.7233294255570
20
18.7645659203143
30
0.000000000000000
11
-39.6233294255570
21
18.7601011004902
31
0.000000000000000
  0
LINE
  5
F104AF
330
F104B0
100
AcDbEntity
8
Geo
100
AcDbLine
10
-39.7233294255570
20
11.7149119001591
30
0.000000000000000
11
-39.6233294255570
21
11.6957762353000
31
0.000000000000000
  0
LINE
  5
F104B1
330
F104B2
100
AcDbEntity
8
Geo
100
AcDbLine
10
-39.7233294255570
20
3.78582225973768
30
0.000000000000000
11
-39.6233294255570
21
3.77846058828159
31
0.000000000000000
  0
LINE
  5
F104B3
330
F104B4
100
AcDbEntity
8
Geo
100
AcDbLine
10
-39.6233294255570
20
18.7601011004902
30
0.000000000000000
11
-39.5233294255570
21
18.7555909310638
31
0.000000000000000
  0
LINE
  5
F104B5
330
F104B6
100
AcDbEntity
8
Geo
100
AcDbLine
10
-39.6233294255570
20
11.6957762353000
30
0.000000000000000
11
-39.5233294255570
21
11.6766369265001
31
0.000000000000000
  0
LINE
  5
F104B7
330
F104B8
100
AcDbEntity
8
Geo
100
AcDbLine
10
-39.6233294255570
20
3.77846058828159
30
0.000000000000000
11
-39.5233294255570
21
3.77114201434839
31
0.000000000000000
  0
LINE
  5
F104B9
330
F104BA
100
AcDbEntity
8
Geo
100
AcDbLine
10
-39.5233294255570
20
18.7555909310638
30
0.000000000000000
11
-39.4233294255570
21
18.7510354386619
31
0.000000000000000
  0
LINE
  5
F104BB
330
F104BC
100
AcDbEntity
8
Geo
100
AcDbLine
10
-39.5233294255570
20
11.6766369265001
30
0.000000000000000
11
-39.4233294255570
21
11.6574940867519
31
0.000000000000000
  0
LINE
  5
F104BD
330
F104BE
100
AcDbEntity
8
Geo
100
AcDbLine
10
-39.5233294255570
20
3.77114201434839
30
0.000000000000000
11
-39.4233294255570
21
3.76386658114476
31
0.000000000000000
  0
LINE
  5
F104BF
330
F104C0
100
AcDbEntity
8
Geo
100
AcDbLine
10
-39.4233294255570
20
18.7510354386619
30
0.000000000000000
11
-39.3233294255570
21
18.7464346501788
31
0.000000000000000
  0
LINE
  5
F104C1
330
F104C2
100
AcDbEntity
8
Geo
100
AcDbLine
10
-39.4233294255570
20
11.6574940867519
30
0.000000000000000
11
-39.3233294255570
21
11.6383478290693
31
0.000000000000000
  0
LINE
  5
F104C3
330
F104C4
100
AcDbEntity
8
Geo
100
AcDbLine
10
-39.4233294255570
20
3.76386658114476
30
0.000000000000000
11
-39.3233294255570
21
3.75663433162267
31
0.000000000000000
  0
LINE
  5
F104C5
330
F104C6
100
AcDbEntity
8
Geo
100
AcDbLine
10
-39.3233294255570
20
18.7464346501788
30
0.000000000000000
11
-39.2233294255570
21
18.7417885927760
31
0.000000000000000
  0
LINE
  5
F104C7
330
F104C8
100
AcDbEntity
8
Geo
100
AcDbLine
10
-39.3233294255570
20
11.6383478290693
30
0.000000000000000
11
-39.2233294255570
21
11.6191982664858
31
0.000000000000000
  0
LINE
  5
F104C9
330
F104CA
100
AcDbEntity
8
Geo
100
AcDbLine
10
-39.3233294255570
20
3.75663433162267
30
0.000000000000000
11
-39.2233294255570
21
3.74944530847916
31
0.000000000000000
  0
LINE
  5
F104CB
330
F104CC
100
AcDbEntity
8
Geo
100
AcDbLine
10
-45.2233294255570
20
11.0785463071510
30
0.000000000000000
11
-45.2233294255570
21
11.0785463071510
31
0.000000000000000
  0
LINE
  5
F104CD
330
F104CE
100
AcDbEntity
8
Geo
100
AcDbLine
10
-45.2233294255570
20
11.0785463071510
30
0.000000000000000
11
-45.2233294255570
21
11.0785463071510
31
0.000000000000000
  0
LINE
  5
F104CF
330
F104D0
100
AcDbEntity
8
Geo
100
AcDbLine
10
-46.2233294255570
20
11.0785463071510
30
0.000000000000000
11
-45.9233294255570
21
11.0785463071510
31
0.000000000000000
  0
LINE
  5
F104D1
330
F104D2
100
AcDbEntity
8
Geo
100
AcDbLine
10
-45.7958294255570
20
11.0785463071510
30
0.000000000000000
11
-45.7108294255570
21
11.0785463071510
31
0.000000000000000
  0
LINE
  5
F104D3
330
F104D4
100
AcDbEntity
8
Geo
100
AcDbLine
10
-45.4983294255570
20
11.0785463071510
30
0.000000000000000
11
-45.0733294255570
21
11.0785463071510
31
0.000000000000000
  0
LINE
  5
F104D5
330
F104D6
100
AcDbEntity
8
Geo
100
AcDbLine
10
-44.9458294255570
20
11.0785463071510
30
0.000000000000000
11
-44.8608294255570
21
11.0785463071510
31
0.000000000000000
  0
LINE
  5
F104D7
330
F104D8
100
AcDbEntity
8
Geo
100
AcDbLine
10
-44.6483294255570
20
11.0785463071510
30
0.000000000000000
11
-44.2233294255570
21
11.0785463071510
31
0.000000000000000
  0
LINE
  5
F104D9
330
F104DA
100
AcDbEntity
8
Geo
100
AcDbLine
10
54.7766705744430
20
18.9785463071510
30
0.000000000000000
11
54.7766705744430
21
11.0785463071510
31
0.000000000000000
  0
LINE
  5
F104DB
330
F104DC
100
AcDbEntity
8
Geo
100
AcDbLine
10
-45.2233294255570
20
11.0785463071510
30
0.000000000000000
11
-45.2233294255570
21
3.07854630715100
31
0.000000000000000
  0
LINE
  5
F104DD
330
F104DE
100
AcDbEntity
8
Geo
100
AcDbLine
10
-45.2233294255570
20
3.07854630715100
30
0.000000000000000
11
-39.2233294255570
21
3.07854630715100
31
0.000000000000000
  0
LINE
  5
F104DF
330
F104E0
100
AcDbEntity
8
Geo
100
AcDbLine
10
-39.2233294255570
20
3.07854630715100
30
0.000000000000000
11
-39.2233294255570
21
3.69194630715100
31
0.000000000000000
  0
LINE
  5
F104E1
330
F104E2
100
AcDbEntity
8
Geo
100
AcDbLine
10
-39.2233294255570
20
3.69194630715100
30
0.000000000000000
11
4.77667057444300
21
3.69194630715100
31
0.000000000000000
  0
LINE
  5
F104E3
330
F104E4
100
AcDbEntity
8
Geo
100
AcDbLine
10
4.77667057444300
20
3.69194630715100
30
0.000000000000000
11
5.39007057444300
21
3.07854630715100
31
0.000000000000000
  0
LINE
  5
F104E5
330
F104E6
100
AcDbEntity
8
Geo
100
AcDbLine
10
5.39007057444300
20
3.07854630715100
30
0.000000000000000
11
54.6766705744430
21
3.07854630715100
31
0.000000000000000
  0
LINE
  5
F104E7
330
F104E8
100
AcDbEntity
8
Geo
100
AcDbLine
10
54.6766705744430
20
3.07854630715100
30
0.000000000000000
11
54.7766705744430
21
3.17854630715100
31
0.000000000000000
  0
LINE
  5
F104E9
330
F104EA
100
AcDbEntity
8
Geo
100
AcDbLine
10
-45.2233294255570
20
19.0785463071510
30
0.000000000000000
11
-45.2233294255570
21
3.07854630715100
31
0.000000000000000
  0
LINE
  5
F104EB
330
F104EC
100
AcDbEntity
8
Geo
100
AcDbLine
10
-39.2233294255570
20
18.4651463071510
30
0.000000000000000
11
-39.2233294255570
21
3.69194630715100
31
0.000000000000000
  0
LINE
  5
F104ED
330
F104EE
100
AcDbEntity
8
Geo
100
AcDbLine
10
4.77667057444300
20
18.4651463071510
30
0.000000000000000
11
4.77667057444300
21
3.69194630715100
31
0.000000000000000
  0
LINE
  5
F104EF
330
F104F0
100
AcDbEntity
8
Geo
100
AcDbLine
10
5.39007057444300
20
19.0785463071510
30
0.000000000000000
11
5.39007057444300
21
3.07854630715100
31
0.000000000000000
  0
LINE
  5
F104F1
330
F104F2
100
AcDbEntity
8
Geo
100
AcDbLine
10
5.39007057444300
20
19.0785463071510
30
0.000000000000000
11
5.39007057444300
21
3.07854630715100
31
0.000000000000000
  0
LINE
  5
F104F3
330
F104F4
100
AcDbEntity
8
Geo
100
AcDbLine
10
54.6766705744430
20
19.0785463071510
30
0.000000000000000
11
54.6766705744430
21
3.07854630715100
31
0.000000000000000
  0
LINE
  5
F104F5
330
F104F6
100
AcDbEntity
8
Geo
100
AcDbLine
10
54.7766705744430
20
18.9785463071510
30
0.000000000000000
11
54.7766705744430
21
3.17854630715100
31
0.000000000000000
  0
LWPOLYLINE
  5
F104F7
330
F104F8
100
AcDbEntity
8
Rahmen
100
AcDbPolyline
90
   4
70
   1
43
   0.0
 10
-230.758620689655
 20
105.000000000000
 10
-230.758620689655
 20
105.000000000000
 10
-230.758620689655
 20
105.000000000000
 10
-230.758620689655
 20
105.000000000000
  0
TEXT
  5
F104F9
330
F104FA
 100
AcDbEntity
8
Text
100
AcDbText
10
-230.758620689655
20
105.500000000000
30
0.000000000000000
40
1.00000000000000
1
 -       
100
AcDbText
  0
LWPOLYLINE
  5
F104FB
330
F104FC
100
AcDbEntity
8
Rahmen
100
AcDbPolyline
90
   4
70
   1
43
   0.0
 10
-134.448275862069
 20
-64.2068965517241
 10
-126.482758620690
 20
-64.2068965517241
 10
-126.482758620690
 20
-68.3103448275862
 10
-134.448275862069
 20
-68.3103448275862
  0
TEXT
  5
F104FD
330
F104FE
 100
AcDbEntity
8
Text
100
AcDbText
10
-132.517241379310
20
-66.8735632183908
30
0.000000000000000
40
2.00000000000000
1

100
AcDbText
  0
LWPOLYLINE
  5
F104FF
330
F10500
100
AcDbEntity
8
Rahmen
100
AcDbPolyline
90
   4
70
   1
43
   0.0
 10
-126.482758620690
 20
-64.2068965517241
 10
-111.517241379310
 20
-64.2068965517241
 10
-111.517241379310
 20
-68.3103448275862
 10
-126.482758620690
 20
-68.3103448275862
  0
TEXT
  5
F10501
330
F10502
 100
AcDbEntity
8
Text
100
AcDbText
10
-124.551724137931
20
-66.8735632183908
30
0.000000000000000
40
2.00000000000000
1

100
AcDbText
  0
LWPOLYLINE
  5
F10503
330
F10504
100
AcDbEntity
8
Rahmen
100
AcDbPolyline
90
   4
70
   1
43
   0.0
 10
-111.517241379310
 20
-64.2068965517241
 10
-31.6206896551724
 20
-64.2068965517241
 10
-31.6206896551724
 20
-68.3103448275862
 10
-111.517241379310
 20
-68.3103448275862
  0
TEXT
  5
F10505
330
F10506
 100
AcDbEntity
8
Text
100
AcDbText
10
-109.586206896552
20
-66.8735632183908
30
0.000000000000000
40
2.00000000000000
1

100
AcDbText
  0
LWPOLYLINE
  5
F10507
330
F10508
100
AcDbEntity
8
Rahmen
100
AcDbPolyline
90
   4
70
   1
43
   0.0
 10
-31.6206896551724
 20
-64.2068965517241
 10
-11.5862068965517
 20
-64.2068965517241
 10
-11.5862068965517
 20
-68.3103448275862
 10
-31.6206896551724
 20
-68.3103448275862
  0
TEXT
  5
F10509
330
F1050A
 100
AcDbEntity
8
Text
100
AcDbText
10
-29.6896551724138
20
-66.8735632183908
30
0.000000000000000
40
2.00000000000000
1

100
AcDbText
  0
LWPOLYLINE
  5
F1050B
330
F1050C
100
AcDbEntity
8
Rahmen
100
AcDbPolyline
90
   4
70
   1
43
   0.0
 10
-11.5862068965517
 20
-64.2068965517241
 10
8.44827586206898
 20
-64.2068965517241
 10
8.44827586206898
 20
-68.3103448275862
 10
-11.5862068965517
 20
-68.3103448275862
  0
TEXT
  5
F1050D
330
F1050E
 100
AcDbEntity
8
Text
100
AcDbText
10
-9.65517241379311
20
-66.8735632183908
30
0.000000000000000
40
2.00000000000000
1

100
AcDbText
  0
LWPOLYLINE
  5
F1050F
330
F10510
100
AcDbEntity
8
Rahmen
100
AcDbPolyline
90
   4
70
   1
43
   0.0
 10
-134.448275862069
 20
-68.3103448275862
 10
-126.482758620690
 20
-68.3103448275862
 10
-126.482758620690
 20
-72.1724137931035
 10
-134.448275862069
 20
-72.1724137931035
  0
TEXT
  5
F10511
330
F10512
 100
AcDbEntity
8
Text
100
AcDbText
10
-132.517241379310
20
-70.7356321839081
30
0.000000000000000
40
2.00000000000000
1

100
AcDbText
  0
LWPOLYLINE
  5
F10513
330
F10514
100
AcDbEntity
8
Rahmen
100
AcDbPolyline
90
   4
70
   1
43
   0.0
 10
-126.482758620690
 20
-68.3103448275862
 10
-111.517241379310
 20
-68.3103448275862
 10
-111.517241379310
 20
-72.1724137931035
 10
-126.482758620690
 20
-72.1724137931035
  0
TEXT
  5
F10515
330
F10516
 100
AcDbEntity
8
Text
100
AcDbText
10
-124.551724137931
20
-70.7356321839081
30
0.000000000000000
40
2.00000000000000
1

100
AcDbText
  0
LWPOLYLINE
  5
F10517
330
F10518
100
AcDbEntity
8
Rahmen
100
AcDbPolyline
90
   4
70
   1
43
   0.0
 10
-111.517241379310
 20
-68.3103448275862
 10
-31.6206896551724
 20
-68.3103448275862
 10
-31.6206896551724
 20
-72.1724137931035
 10
-111.517241379310
 20
-72.1724137931035
  0
TEXT
  5
F10519
330
F1051A
 100
AcDbEntity
8
Text
100
AcDbText
10
-109.586206896552
20
-70.7356321839081
30
0.000000000000000
40
2.00000000000000
1

100
AcDbText
  0
LWPOLYLINE
  5
F1051B
330
F1051C
100
AcDbEntity
8
Rahmen
100
AcDbPolyline
90
   4
70
   1
43
   0.0
 10
-31.6206896551724
 20
-68.3103448275862
 10
-11.5862068965517
 20
-68.3103448275862
 10
-11.5862068965517
 20
-72.1724137931035
 10
-31.6206896551724
 20
-72.1724137931035
  0
TEXT
  5
F1051D
330
F1051E
 100
AcDbEntity
8
Text
100
AcDbText
10
-29.6896551724138
20
-70.7356321839081
30
0.000000000000000
40
2.00000000000000
1

100
AcDbText
  0
LWPOLYLINE
  5
F1051F
330
F10520
100
AcDbEntity
8
Rahmen
100
AcDbPolyline
90
   4
70
   1
43
   0.0
 10
-11.5862068965517
 20
-68.3103448275862
 10
8.44827586206898
 20
-68.3103448275862
 10
8.44827586206898
 20
-72.1724137931035
 10
-11.5862068965517
 20
-72.1724137931035
  0
TEXT
  5
F10521
330
F10522
 100
AcDbEntity
8
Text
100
AcDbText
10
-9.65517241379311
20
-70.7356321839081
30
0.000000000000000
40
2.00000000000000
1

100
AcDbText
  0
LWPOLYLINE
  5
F10523
330
F10524
100
AcDbEntity
8
Rahmen
100
AcDbPolyline
90
   4
70
   1
43
   0.0
 10
-134.448275862069
 20
-72.1724137931035
 10
-126.482758620690
 20
-72.1724137931035
 10
-126.482758620690
 20
-76.2758620689655
 10
-134.448275862069
 20
-76.2758620689655
  0
TEXT
  5
F10525
330
F10526
 100
AcDbEntity
8
Text
100
AcDbText
10
-132.517241379310
20
-74.8390804597701
30
0.000000000000000
40
2.00000000000000
1

100
AcDbText
  0
LWPOLYLINE
  5
F10527
330
F10528
100
AcDbEntity
8
Rahmen
100
AcDbPolyline
90
   4
70
   1
43
   0.0
 10
-126.482758620690
 20
-72.1724137931035
 10
-111.517241379310
 20
-72.1724137931035
 10
-111.517241379310
 20
-76.2758620689655
 10
-126.482758620690
 20
-76.2758620689655
  0
TEXT
  5
F10529
330
F1052A
 100
AcDbEntity
8
Text
100
AcDbText
10
-124.551724137931
20
-74.8390804597701
30
0.000000000000000
40
2.00000000000000
1

100
AcDbText
  0
LWPOLYLINE
  5
F1052B
330
F1052C
100
AcDbEntity
8
Rahmen
100
AcDbPolyline
90
   4
70
   1
43
   0.0
 10
-111.517241379310
 20
-72.1724137931035
 10
-31.6206896551724
 20
-72.1724137931035
 10
-31.6206896551724
 20
-76.2758620689655
 10
-111.517241379310
 20
-76.2758620689655
  0
TEXT
  5
F1052D
330
F1052E
 100
AcDbEntity
8
Text
100
AcDbText
10
-109.586206896552
20
-74.8390804597701
30
0.000000000000000
40
2.00000000000000
1

100
AcDbText
  0
LWPOLYLINE
  5
F1052F
330
F10530
100
AcDbEntity
8
Rahmen
100
AcDbPolyline
90
   4
70
   1
43
   0.0
 10
-31.6206896551724
 20
-72.1724137931035
 10
-11.5862068965517
 20
-72.1724137931035
 10
-11.5862068965517
 20
-76.2758620689655
 10
-31.6206896551724
 20
-76.2758620689655
  0
TEXT
  5
F10531
330
F10532
 100
AcDbEntity
8
Text
100
AcDbText
10
-29.6896551724138
20
-74.8390804597701
30
0.000000000000000
40
2.00000000000000
1

100
AcDbText
  0
LWPOLYLINE
  5
F10533
330
F10534
100
AcDbEntity
8
Rahmen
100
AcDbPolyline
90
   4
70
   1
43
   0.0
 10
-11.5862068965517
 20
-72.1724137931035
 10
8.44827586206898
 20
-72.1724137931035
 10
8.44827586206898
 20
-76.2758620689655
 10
-11.5862068965517
 20
-76.2758620689655
  0
TEXT
  5
F10535
330
F10536
 100
AcDbEntity
8
Text
100
AcDbText
10
-9.65517241379311
20
-74.8390804597701
30
0.000000000000000
40
2.00000000000000
1

100
AcDbText
  0
LWPOLYLINE
  5
F10537
330
F10538
100
AcDbEntity
8
Rahmen
100
AcDbPolyline
90
   4
70
   1
43
   0.0
 10
-134.448275862069
 20
-76.2758620689655
 10
-126.482758620690
 20
-76.2758620689655
 10
-126.482758620690
 20
-80.1379310344828
 10
-134.448275862069
 20
-80.1379310344828
  0
TEXT
  5
F10539
330
F1053A
 100
AcDbEntity
8
Text
100
AcDbText
10
-132.517241379310
20
-78.7011494252874
30
0.000000000000000
40
2.00000000000000
1
No.
100
AcDbText
  0
LWPOLYLINE
  5
F1053B
330
F1053C
100
AcDbEntity
8
Rahmen
100
AcDbPolyline
90
   4
70
   1
43
   0.0
 10
-126.482758620690
 20
-76.2758620689655
 10
-111.517241379310
 20
-76.2758620689655
 10
-111.517241379310
 20
-80.1379310344828
 10
-126.482758620690
 20
-80.1379310344828
  0
TEXT
  5
F1053D
330
F1053E
 100
AcDbEntity
8
Text
100
AcDbText
10
-124.551724137931
20
-78.7011494252874
30
0.000000000000000
40
2.00000000000000
1
Datum
100
AcDbText
  0
LWPOLYLINE
  5
F1053F
330
F10540
100
AcDbEntity
8
Rahmen
100
AcDbPolyline
90
   4
70
   1
43
   0.0
 10
-111.517241379310
 20
-76.2758620689655
 10
-31.6206896551724
 20
-76.2758620689655
 10
-31.6206896551724
 20
-80.1379310344828
 10
-111.517241379310
 20
-80.1379310344828
  0
TEXT
  5
F10541
330
F10542
 100
AcDbEntity
8
Text
100
AcDbText
10
-109.586206896552
20
-78.7011494252874
30
0.000000000000000
40
2.00000000000000
1
Revision
100
AcDbText
  0
LWPOLYLINE
  5
F10543
330
F10544
100
AcDbEntity
8
Rahmen
100
AcDbPolyline
90
   4
70
   1
43
   0.0
 10
-31.6206896551724
 20
-76.2758620689655
 10
-11.5862068965517
 20
-76.2758620689655
 10
-11.5862068965517
 20
-80.1379310344828
 10
-31.6206896551724
 20
-80.1379310344828
  0
TEXT
  5
F10545
330
F10546
 100
AcDbEntity
8
Text
100
AcDbText
10
-29.6896551724138
20
-78.7011494252874
30
0.000000000000000
40
2.00000000000000
1
REV
100
AcDbText
  0
LWPOLYLINE
  5
F10547
330
F10548
100
AcDbEntity
8
Rahmen
100
AcDbPolyline
90
   4
70
   1
43
   0.0
 10
-11.5862068965517
 20
-76.2758620689655
 10
8.44827586206898
 20
-76.2758620689655
 10
8.44827586206898
 20
-80.1379310344828
 10
-11.5862068965517
 20
-80.1379310344828
  0
TEXT
  5
F10549
330
F1054A
 100
AcDbEntity
8
Text
100
AcDbText
10
-9.65517241379311
20
-78.7011494252874
30
0.000000000000000
40
2.00000000000000
1
CK
100
AcDbText
  0
LWPOLYLINE
  5
F1054B
330
F1054C
100
AcDbEntity
8
Rahmen
100
AcDbPolyline
90
   4
70
   1
43
   0.0
 10
-134.931034482759
 20
-80.3793103448276
 10
-103.793103448276
 20
-80.3793103448276
 10
-103.793103448276
 20
-84.4827586206897
 10
-134.931034482759
 20
-84.4827586206897
  0
TEXT
  5
F1054D
330
F1054E
 100
AcDbEntity
8
Text
100
AcDbText
10
-133.000000000000
20
-83.0459770114943
30
0.000000000000000
40
2.00000000000000
1
VHM
100
AcDbText
  0
LWPOLYLINE
  5
F1054F
330
F10550
100
AcDbEntity
8
Rahmen
100
AcDbPolyline
90
   4
70
   1
43
   0.0
 10
-103.793103448276
 20
-80.3793103448276
 10
-79.8965517241379
 20
-80.3793103448276
 10
-79.8965517241379
 20
-84.4827586206897
 10
-103.793103448276
 20
-84.4827586206897
  0
TEXT
  5
F10551
330
F10552
 100
AcDbEntity
8
Text
100
AcDbText
10
-101.862068965517
20
-83.0459770114943
30
0.000000000000000
40
2.00000000000000
1

100
AcDbText
  0
LWPOLYLINE
  5
F10553
330
F10554
100
AcDbEntity
8
Rahmen
100
AcDbPolyline
90
   4
70
   1
43
   0.0
 10
-79.8965517241379
 20
-80.3793103448276
 10
-46.3448275862069
 20
-80.3793103448276
 10
-46.3448275862069
 20
-84.4827586206897
 10
-79.8965517241379
 20
-84.4827586206897
  0
TEXT
  5
F10555
330
F10556
 100
AcDbEntity
8
Text
100
AcDbText
10
-77.9655172413793
20
-83.0459770114943
30
0.000000000000000
40
2.00000000000000
1

100
AcDbText
  0
LWPOLYLINE
  5
F10557
330
F10558
100
AcDbEntity
8
Rahmen
100
AcDbPolyline
90
   4
70
   1
43
   0.0
 10
-134.931034482759
 20
-84.4827586206897
 10
-103.793103448276
 20
-84.4827586206897
 10
-103.793103448276
 20
-88.5862068965517
 10
-134.931034482759
 20
-88.5862068965517
  0
TEXT
  5
F10559
330
F1055A
 100
AcDbEntity
8
Text
100
AcDbText
10
-133.000000000000
20
-87.1494252873563
30
0.000000000000000
40
2.00000000000000
1
Material
100
AcDbText
  0
LWPOLYLINE
  5
F1055B
330
F1055C
100
AcDbEntity
8
Rahmen
100
AcDbPolyline
90
   4
70
   1
43
   0.0
 10
-103.793103448276
 20
-84.4827586206897
 10
-79.8965517241379
 20
-84.4827586206897
 10
-79.8965517241379
 20
-88.5862068965517
 10
-103.793103448276
 20
-88.5862068965517
  0
TEXT
  5
F1055D
330
F1055E
 100
AcDbEntity
8
Text
100
AcDbText
10
-101.862068965517
20
-87.1494252873563
30
0.000000000000000
40
2.00000000000000
1

100
AcDbText
  0
LWPOLYLINE
  5
F1055F
330
F10560
100
AcDbEntity
8
Rahmen
100
AcDbPolyline
90
   4
70
   1
43
   0.0
 10
-79.8965517241379
 20
-84.4827586206897
 10
-46.3448275862069
 20
-84.4827586206897
 10
-46.3448275862069
 20
-88.5862068965517
 10
-79.8965517241379
 20
-88.5862068965517
  0
TEXT
  5
F10561
330
F10562
 100
AcDbEntity
8
Text
100
AcDbText
10
-77.9655172413793
20
-87.1494252873563
30
0.000000000000000
40
2.00000000000000
1

100
AcDbText
  0
LWPOLYLINE
  5
F10563
330
F10564
100
AcDbEntity
8
Rahmen
100
AcDbPolyline
90
   4
70
   1
43
   0.0
 10
-134.931034482759
 20
-88.5862068965517
 10
-103.793103448276
 20
-88.5862068965517
 10
-103.793103448276
 20
-92.4482758620690
 10
-134.931034482759
 20
-92.4482758620690
  0
TEXT
  5
F10565
330
F10566
 100
AcDbEntity
8
Text
100
AcDbText
10
-133.000000000000
20
-91.0114942528736
30
0.000000000000000
40
2.00000000000000
1
WXS
100
AcDbText
  0
LWPOLYLINE
  5
F10567
330
F10568
100
AcDbEntity
8
Rahmen
100
AcDbPolyline
90
   4
70
   1
43
   0.0
 10
-103.793103448276
 20
-88.5862068965517
 10
-79.8965517241379
 20
-88.5862068965517
 10
-79.8965517241379
 20
-92.4482758620690
 10
-103.793103448276
 20
-92.4482758620690
  0
TEXT
  5
F10569
330
F1056A
 100
AcDbEntity
8
Text
100
AcDbText
10
-101.862068965517
20
-91.0114942528736
30
0.000000000000000
40
2.00000000000000
1

100
AcDbText
  0
LWPOLYLINE
  5
F1056B
330
F1056C
100
AcDbEntity
8
Rahmen
100
AcDbPolyline
90
   4
70
   1
43
   0.0
 10
-79.8965517241379
 20
-88.5862068965517
 10
-46.3448275862069
 20
-88.5862068965517
 10
-46.3448275862069
 20
-92.4482758620690
 10
-79.8965517241379
 20
-92.4482758620690
  0
TEXT
  5
F1056D
330
F1056E
 100
AcDbEntity
8
Text
100
AcDbText
10
-77.9655172413793
20
-91.0114942528736
30
0.000000000000000
40
2.00000000000000
1

100
AcDbText
  0
LWPOLYLINE
  5
F1056F
330
F10570
100
AcDbEntity
8
Rahmen
100
AcDbPolyline
90
   4
70
   1
43
   0.0
 10
-134.931034482759
 20
-92.4482758620690
 10
-103.793103448276
 20
-92.4482758620690
 10
-103.793103448276
 20
-96.5517241379310
 10
-134.931034482759
 20
-96.5517241379310
  0
TEXT
  5
F10571
330
F10572
 100
AcDbEntity
8
Text
100
AcDbText
10
-133.000000000000
20
-95.1149425287356
30
0.000000000000000
40
2.00000000000000
1
Beschichtung
100
AcDbText
  0
LWPOLYLINE
  5
F10573
330
F10574
100
AcDbEntity
8
Rahmen
100
AcDbPolyline
90
   4
70
   1
43
   0.0
 10
-103.793103448276
 20
-92.4482758620690
 10
-79.8965517241379
 20
-92.4482758620690
 10
-79.8965517241379
 20
-96.5517241379310
 10
-103.793103448276
 20
-96.5517241379310
  0
TEXT
  5
F10575
330
F10576
 100
AcDbEntity
8
Text
100
AcDbText
10
-101.862068965517
20
-95.1149425287356
30
0.000000000000000
40
2.00000000000000
1
Beschriftung
100
AcDbText
  0
LWPOLYLINE
  5
F10577
330
F10578
100
AcDbEntity
8
Rahmen
100
AcDbPolyline
90
   4
70
   1
43
   0.0
 10
-79.8965517241379
 20
-92.4482758620690
 10
-46.3448275862069
 20
-92.4482758620690
 10
-46.3448275862069
 20
-96.5517241379310
 10
-79.8965517241379
 20
-96.5517241379310
  0
TEXT
  5
F10579
330
F1057A
 100
AcDbEntity
8
Text
100
AcDbText
10
-77.9655172413793
20
-95.1149425287356
30
0.000000000000000
40
2.00000000000000
1
Werkzeugnummer
100
AcDbText
  0
LWPOLYLINE
  5
F1057B
330
F1057C
100
AcDbEntity
8
Rahmen
100
AcDbPolyline
90
   4
70
   1
43
   0.0
 10
8.20689655172416
 20
-64.2068965517241
 10
63.2413793103448
 20
-64.2068965517241
 10
63.2413793103448
 20
-68.3103448275862
 10
8.20689655172416
 20
-68.3103448275862
  0
TEXT
  5
F1057D
330
F1057E
 100
AcDbEntity
8
Text
100
AcDbText
10
10.1379310344828
20
-66.8735632183908
30
0.000000000000000
40
2.00000000000000
1

100
AcDbText
  0
LWPOLYLINE
  5
F1057F
330
F10580
100
AcDbEntity
8
Rahmen
100
AcDbPolyline
90
   4
70
   1
43
   0.0
 10
8.20689655172416
 20
-68.3103448275862
 10
63.2413793103448
 20
-68.3103448275862
 10
63.2413793103448
 20
-72.1724137931035
 10
8.20689655172416
 20
-72.1724137931035
  0
TEXT
  5
F10581
330
F10582
 100
AcDbEntity
8
Text
100
AcDbText
10
10.1379310344828
20
-70.7356321839081
30
0.000000000000000
40
2.00000000000000
1

100
AcDbText
  0
LWPOLYLINE
  5
F10583
330
F10584
100
AcDbEntity
8
Rahmen
100
AcDbPolyline
90
   4
70
   1
43
   0.0
 10
8.20689655172416
 20
-72.1724137931035
 10
63.2413793103448
 20
-72.1724137931035
 10
63.2413793103448
 20
-76.2758620689655
 10
8.20689655172416
 20
-76.2758620689655
  0
TEXT
  5
F10585
330
F10586
 100
AcDbEntity
8
Text
100
AcDbText
10
10.1379310344828
20
-74.8390804597701
30
0.000000000000000
40
2.00000000000000
1

100
AcDbText
  0
LWPOLYLINE
  5
F10587
330
F10588
100
AcDbEntity
8
Rahmen
100
AcDbPolyline
90
   4
70
   1
43
   0.0
 10
8.20689655172416
 20
-76.2758620689655
 10
63.2413793103448
 20
-76.2758620689655
 10
63.2413793103448
 20
-80.3793103448276
 10
8.20689655172416
 20
-80.3793103448276
  0
TEXT
  5
F10589
330
F1058A
 100
AcDbEntity
8
Text
100
AcDbText
10
10.1379310344828
20
-78.9425287356322
30
0.000000000000000
40
2.00000000000000
1

100
AcDbText
  0
LWPOLYLINE
  5
F1058B
330
F1058C
100
AcDbEntity
8
Rahmen
100
AcDbPolyline
90
   4
70
   1
43
   0.0
 10
-134.689655172414
 20
99.9310344827586
 10
143.379310344828
 20
99.9310344827586
 10
143.379310344828
 20
-100.172413793103
 10
-134.689655172414
 20
-100.172413793103
  0
TEXT
  5
F1058D
330
F1058E
 100
AcDbEntity
8
Text
100
AcDbText
10
-133.724137931034
20
-99.6724137931034
30
0.000000000000000
40
1.00000000000000
1
ISBESketcher - ©ISBE GmbH      lizensiert für: OSG GmbH
100
AcDbText
  0
LWPOLYLINE
  5
F1058F
330
F10590
100
AcDbEntity
8
Rahmen
100
AcDbPolyline
90
   4
70
   1
43
   0.0
 10
103.310344827586
 20
-97.0344827586207
 10
143.379310344828
 20
-97.0344827586207
 10
143.379310344828
 20
-100.172413793103
 10
103.310344827586
 20
-100.172413793103
  0
TEXT
  5
F10591
330
F10592
 100
AcDbEntity
8
Text
100
AcDbText
10
104.275862068965
20
-98.0344827586207
30
0.000000000000000
40
0.750000000000000
1
Ers. durch:
100
AcDbText
  0
TEXT
  5
F10593
330
F10594
 100
AcDbEntity
8
Text
100
AcDbText
10
128.172413793103
20
-98.0344827586207
30
0.000000000000000
40
0.750000000000000
1
M.Sho
100
AcDbText
  0
LWPOLYLINE
  5
F10595
330
F10596
100
AcDbEntity
8
Rahmen
100
AcDbPolyline
90
   4
70
   1
43
   0.0
 10
63.4827586206896
 20
-97.0344827586207
 10
103.310344827586
 20
-97.0344827586207
 10
103.310344827586
 20
-100.172413793103
 10
63.4827586206896
 20
-100.172413793103
  0
TEXT
  5
F10597
330
F10598
 100
AcDbEntity
8
Text
100
AcDbText
10
64.4482758620689
20
-98.0344827586207
30
0.000000000000000
40
0.750000000000000
1
Ers. für:
100
AcDbText
  0
TEXT
  5
F10599
330
F1059A
 100
AcDbEntity
8
Text
100
AcDbText
10
91.2413793103448
20
-99.4827586206897
30
0.000000000000000
40
0.750000000000000
1

100
AcDbText
  0
LWPOLYLINE
  5
F1059B
330
F1059C
100
AcDbEntity
8
Rahmen
100
AcDbPolyline
90
   4
70
   1
43
   0.0
 10
130.103448275862
 20
-94.1379310344828
 10
143.379310344828
 20
-94.1379310344828
 10
143.379310344828
 20
-97.0344827586207
 10
130.103448275862
 20
-97.0344827586207
  0
TEXT
  5
F1059D
330
F1059E
 100
AcDbEntity
8
Text
100
AcDbText
10
131.068965517241
20
-95.1379310344828
30
0.000000000000000
40
0.750000000000000
1
Blätter
100
AcDbText
  0
TEXT
  5
F1059F
330
F105A0
 100
AcDbEntity
8
Text
100
AcDbText
10
141.206896551724
20
-96.5862068965517
30
0.000000000000000
40
0.750000000000000
1

100
AcDbText
  0
LWPOLYLINE
  5
F105A1
330
F105A2
100
AcDbEntity
8
Rahmen
100
AcDbPolyline
90
   4
70
   1
43
   0.0
 10
130.103448275862
 20
-91.0000000000000
 10
143.379310344828
 20
-91.0000000000000
 10
143.379310344828
 20
-94.1379310344828
 10
130.103448275862
 20
-94.1379310344828
  0
TEXT
  5
F105A3
330
F105A4
 100
AcDbEntity
8
Text
100
AcDbText
10
131.068965517241
20
-92.0000000000000
30
0.000000000000000
40
0.750000000000000
1
Blatt
100
AcDbText
  0
TEXT
  5
F105A5
330
F105A6
 100
AcDbEntity
8
Text
100
AcDbText
10
141.206896551724
20
-93.4482758620690
30
0.000000000000000
40
0.750000000000000
1

100
AcDbText
  0
LWPOLYLINE
  5
F105A7
330
F105A8
100
AcDbEntity
8
Rahmen
100
AcDbPolyline
90
   4
70
   1
43
   0.0
 10
63.4827586206896
 20
-91.0000000000000
 10
130.103448275862
 20
-91.0000000000000
 10
130.103448275862
 20
-97.0344827586207
 10
63.4827586206896
 20
-97.0344827586207
  0
TEXT
  5
F105A9
330
F105AA
 100
AcDbEntity
8
Text
100
AcDbText
10
64.4482758620689
20
-92.0000000000000
30
0.000000000000000
40
0.750000000000000
1
Datum:
100
AcDbText
  0
TEXT
  5
F105AB
330
F105AC
 100
AcDbEntity
8
Text
100
AcDbText
10
91.2413793103448
20
-95.1379310344828
30
0.000000000000000
40
0.750000000000000
1
23.11.2015
100
AcDbText
  0
LWPOLYLINE
  5
F105AD
330
F105AE
100
AcDbEntity
8
Rahmen
100
AcDbPolyline
90
   4
70
   1
43
   0.0
 10
63.4827586206896
 20
-85.2068965517241
 10
143.379310344828
 20
-85.2068965517241
 10
143.379310344828
 20
-91.0000000000000
 10
63.4827586206896
 20
-91.0000000000000
  0
TEXT
  5
F105AF
330
F105B0
 100
AcDbEntity
8
Text
100
AcDbText
10
-230.758620689655
20
103.000000000000
30
0.000000000000000
40
1.50000000000000
1

100
AcDbText
  0
TEXT
  5
F105B1
330
F105B2
 100
AcDbEntity
8
Text
100
AcDbText
10
93.6551724137931
20
-88.7816091954023
30
0.000000000000000
40
2.50000000000000
1
48216013
100
AcDbText
  0
LWPOLYLINE
  5
F105B3
330
F105B4
100
AcDbEntity
8
Rahmen
100
AcDbPolyline
90
   4
70
   1
43
   0.0
 10
103.310344827586
 20
-79.1724137931034
 10
143.379310344828
 20
-79.1724137931034
 10
143.379310344828
 20
-85.2068965517241
 10
103.310344827586
 20
-85.2068965517241
  0
TEXT
  5
F105B5
330
F105B6
 100
AcDbEntity
8
Text
100
AcDbText
10
104.275862068965
20
-80.1724137931034
30
0.000000000000000
40
0.750000000000000
1
Tool Size:
100
AcDbText
  0
TEXT
  5
F105B7
330
F105B8
 100
AcDbEntity
8
Text
100
AcDbText
10
119.965517241379
20
-83.0689655172414
30
0.000000000000000
40
0.750000000000000
1
M20x2
100
AcDbText
  0
LWPOLYLINE
  5
F105B9
330
F105BA
100
AcDbEntity
8
Rahmen
100
AcDbPolyline
90
   4
70
   1
43
   0.0
 10
63.4827586206896
 20
-79.1724137931034
 10
103.310344827586
 20
-79.1724137931034
 10
103.310344827586
 20
-85.2068965517241
 10
63.4827586206896
 20
-85.2068965517241
  0
TEXT
  5
F105BB
330
F105BC
 100
AcDbEntity
8
Text
100
AcDbText
10
64.4482758620689
20
-80.1724137931034
30
0.000000000000000
40
0.750000000000000
1
Tool Name:
100
AcDbText
  0
TEXT
  5
F105BD
330
F105BE
 100
AcDbEntity
8
Text
100
AcDbText
10
75.5517241379310
20
-83.0689655172414
30
0.000000000000000
40
0.750000000000000
1
WX-ST-PNC-3P
100
AcDbText
  0
LWPOLYLINE
  5
F105BF
330
F105C0
100
AcDbEntity
8
Rahmen
100
AcDbPolyline
90
   4
70
   1
43
   0.0
 10
103.310344827586
 20
-76.0344827586207
 10
143.379310344828
 20
-76.0344827586207
 10
143.379310344828
 20
-79.1724137931034
 10
103.310344827586
 20
-79.1724137931034
  0
TEXT
  5
F105C1
330
F105C2
 100
AcDbEntity
8
Text
100
AcDbText
10
-230.758620689655
20
103.000000000000
30
0.000000000000000
40
1.50000000000000
1

100
AcDbText
  0
TEXT
  5
F105C3
330
F105C4
 100
AcDbEntity
8
Text
100
AcDbText
10
123.103448275862
20
-78.4827586206897
30
0.000000000000000
40
0.750000000000000
1

100
AcDbText
  0
LWPOLYLINE
  5
F105C5
330
F105C6
100
AcDbEntity
8
Rahmen
100
AcDbPolyline
90
   4
70
   1
43
   0.0
 10
63.4827586206896
 20
-76.0344827586207
 10
103.310344827586
 20
-76.0344827586207
 10
103.310344827586
 20
-79.1724137931034
 10
63.4827586206896
 20
-79.1724137931034
  0
TEXT
  5
F105C7
330
F105C8
 100
AcDbEntity
8
Text
100
AcDbText
10
64.4482758620689
20
-77.0344827586207
30
0.000000000000000
40
0.750000000000000
1
Maßstab:
100
AcDbText
  0
TEXT
  5
F105C9
330
F105CA
 100
AcDbEntity
8
Text
100
AcDbText
10
89.0689655172414
20
-77.0344827586207
30
0.000000000000000
40
0.750000000000000
1
1 : 1
100
AcDbText
  0
IMAGE
  5
F105CD
330
261
100
AcDbEntity
8
0
100
AcDbRasterImage
90
0
10
95.3448275862069
20
-76.0344827586207
30
0.000000000000000
11
0.132326398784079
21
0
31
0
12
0
22
0.223162003903709
32
0
13
4.e+002
23
5.e+001
340
F105CE
70
1
70
1
280
0
281
50
282
50
283
0
360
F105CF
71
1
91
2
14
-0.5
24
-0.5
14
4.e+002
24
5.e+001
  0
LWPOLYLINE
  5
F105D0
330
F105D1
100
AcDbEntity
8
Rahmen
100
AcDbPolyline
90
   4
70
   1
43
   0.0
 10
95.3448275862069
 20
-64.2068965517241
 10
143.379310344828
 20
-64.2068965517241
 10
143.379310344828
 20
-76.0344827586207
 10
95.3448275862069
 20
-76.0344827586207
  0
TEXT
  5
F105D2
330
F105D3
 100
AcDbEntity
8
Text
100
AcDbText
10
-34.5172413793103
20
-9.44827586206897
30
0.000000000000000
40
0.750000000000000
1

100
AcDbText
  0
TEXT
  5
F105D4
330
F105D5
 100
AcDbEntity
8
Text
100
AcDbText
10
-230.758620689655
20
103.000000000000
30
0.000000000000000
40
1.50000000000000
1

100
AcDbText
  0
LWPOLYLINE
  5
F105D6
330
F105D7
100
AcDbEntity
8
Rahmen
100
AcDbPolyline
90
   4
70
   1
43
   0.0
 10
63.4827586206896
 20
-64.2068965517241
 10
95.3448275862069
 20
-64.2068965517241
 10
95.3448275862069
 20
-76.0344827586207
 10
63.4827586206896
 20
-76.0344827586207
  0
TEXT
  5
F105D8
330
F105D9
 100
AcDbEntity
8
Text
100
AcDbText
10
-230.758620689655
20
103.000000000000
30
0.000000000000000
40
1.50000000000000
1

100
AcDbText
  0
TEXT
  5
F105DA
330
F105DB
 100
AcDbEntity
8
Text
100
AcDbText
10
79.4137931034483
20
-71.0000000000000
30
0.000000000000000
40
0.750000000000000
1

100
AcDbText
0
VIEWPORT
5
294
102
{ACAD_XDICTIONARY
360
58A
102
}
330
25D
100
AcDbEntity
67
1
8
0
60
1
100
AcDbViewport
10
0.0
20
0.0
30
0.0
40
10.0
41
10.0
68
-1
69
1
12
0.0
22
0.0
13
0.0
23
0.0
14
1.0
24
1.0
15
0.0
25
0.0
16
0.0
26
0.0
36
1.0
17
0.0
27
0.0
37
0.0
42
0.0
43
0.0
44
0.0
45
10.0
50
0.0
51
0.0000000000007958
72
100
90
32800
1

281
0
71
0
74
0
110
0.0
120
0.0
130
0.0
111
1.0
121
0.0
131
0.0
112
0.0
122
1.0
132
0.0
79
0
146
0.0
1001
VD_INVISIBLE_NOT_FOR_READ
1000
VD_INVISIBLE_NOT_FOR_READ
0
VIEWPORT
5
295
102
{ACAD_XDICTIONARY
360
58C
102
}
330
25D
100
AcDbEntity
67
1
8
0
60
1
100
AcDbViewport
10
0.0
20
0.0
30
0.0
40
10.0
41
10.0
68
0
69
2
12
0.0
22
0.0
13
0.0
23
0.0
14
1.0
24
1.0
15
0.0
25
0.0
16
0.0
26
0.0
36
1.0
17
0.0
27
0.0
37
0.0
42
0.0
43
0.0
44
0.0
45
10.0
50
0.0
51
0.0000000000007958
72
100
90
163872
1

281
0
71
0
74
0
110
0.0
120
0.0
130
0.0
111
1.0
121
0.0
131
0.0
112
0.0
122
1.0
132
0.0
79
0
146
0.0
1001
VD_INVISIBLE_NOT_FOR_READ
1000
VD_INVISIBLE_NOT_FOR_READ
0
ENDSEC
0
SECTION
2
OBJECTS
0
DICTIONARY
5
13
330
0
100
AcDbDictionary
281
1
3
ACAD_COLOR
350
FA7
3
ACAD_GROUP
350
14
3
ACAD_LAYOUT
350
FCF
3
ACAD_MATERIAL
350
F7A
3
ACAD_MLEADERSTYLE
350
FCD
3
ACAD_MLINESTYLE
350
16
3
ACAD_PLOTSETTINGS
350
17
3
ACAD_PLOTSTYLENAME
350
18
3
ACAD_SCALELIST
350
FAB
3
ACAD_TABLESTYLE
350
FA8
3
ACAD_VISUALSTYLE
350
F93
3
ACDB_RECOMPOSE_DATA
350
107E
3
AcDbVariableDictionary
350
FF0
3
DWGPROPS
350
107F
0
DICTIONARY
5
F1000F
330
F1000E
100
AcDbDictionary
280
1
281
1
3
ACAD_MTEXT_2008_RT
360
F10010
0
DICTIONARY
5
F1001E
330
F1001D
100
AcDbDictionary
280
1
281
1
3
ACAD_MTEXT_2008_RT
360
F1001F
0
DICTIONARY
5
F10023
330
F10022
100
AcDbDictionary
280
1
281
1
3
ACAD_MTEXT_2008_RT
360
F10024
0
DICTIONARY
5
F10014
330
F10013
100
AcDbDictionary
280
1
281
1
3
ACAD_MTEXT_2008_RT
360
F10015
0
DICTIONARY
5
F10005
330
F10004
100
AcDbDictionary
280
1
281
1
3
ACAD_MTEXT_2008_RT
360
F10006
0
DICTIONARY
5
F1000A
330
F10009
100
AcDbDictionary
280
1
281
1
3
ACAD_MTEXT_2008_RT
360
F1000B
0
DICTIONARY
5
F10019
330
F10018
100
AcDbDictionary
280
1
281
1
3
ACAD_MTEXT_2008_RT
360
F1001A
0
DICTIONARY
5
FA7
102
{ACAD_REACTORS
330
13
102
}
330
13
100
AcDbDictionary
281
1
0
DICTIONARY
5
14
330
13
100
AcDbDictionary
281
1
0
DICTIONARY
5
FCF
102
{ACAD_REACTORS
330
13
102
}
330
13
100
AcDbDictionary
281
1
3
Layout1
350
FD1
3
Model
350
FD0
0
DICTIONARY
5
F7A
102
{ACAD_REACTORS
330
13
102
}
330
13
100
AcDbDictionary
281
1
3
ByBlock
350
F83
3
ByLayer
350
F7B
3
Global
350
F8B
0
DICTIONARY
5
FCD
102
{ACAD_REACTORS
330
13
102
}
330
13
100
AcDbDictionary
281
1
3
Standard
350
FCE
0
DICTIONARY
5
16
330
13
100
AcDbDictionary
281
1
3
Standard
350
FAA
0
DICTIONARY
5
17
102
{ACAD_REACTORS
330
13
102
}
330
13
100
AcDbDictionary
281
1
0
ACDBDICTIONARYWDFLT
5
18
102
{ACAD_REACTORS
330
13
102
}
330
13
100
AcDbDictionary
281
1
3
Normal
350
19
100
AcDbDictionaryWithDefault
340
19
0
DICTIONARY
5
FAB
102
{ACAD_REACTORS
330
13
102
}
330
13
100
AcDbDictionary
281
1
3
A0
350
FAC
3
A1
350
FAD
3
A2
350
FAE
3
A3
350
FAF
3
A4
350
FB0
3
A5
350
FB1
3
A6
350
FB2
3
A7
350
FB3
3
A8
350
FB4
3
A9
350
FB5
3
B0
350
FB6
3
B1
350
FB7
3
B2
350
FB8
3
B3
350
FB9
3
B4
350
FBA
3
B5
350
FBB
3
B6
350
FBC
3
B7
350
FBD
3
B8
350
FBE
3
B9
350
FBF
3
C0
350
FC0
3
C1
350
FC1
3
C2
350
FC2
3
C3
350
FC3
3
C4
350
FC4
3
C5
350
FC5
3
C6
350
FC6
3
C7
350
FC7
3
C8
350
FC8
3
C9
350
FC9
3
D0
350
FCA
3
D1
350
FCB
3
D2
350
FCC
0
DICTIONARY
5
FA8
102
{ACAD_REACTORS
330
13
102
}
330
13
100
AcDbDictionary
281
1
3
Standard
350
FA9
0
DICTIONARY
5
F93
102
{ACAD_REACTORS
330
13
102
}
330
13
100
AcDbDictionary
281
1
3
2dWireframe
350
F99
3
3D Hidden
350
F9B
3
3dWireframe
350
F9A
3
Basic
350
F98
3
Brighten
350
F9F
3
ColorChange
350
FA3
3
Conceptual
350
F9C
3
Dim
350
F9E
3
EdgeColorOff
350
FA6
3
Facepattern
350
FA2
3
Flat
350
F94
3
FlatWithEdges
350
F95
3
Gouraud
350
F96
3
GouraudWithEdges
350
F97
3
JitterOff
350
FA4
3
Linepattern
350
FA1
3
OverhangOff
350
FA5
3
Realistic
350
F9D
3
Thicken
350
FA0
0
XRECORD
5
107E
102
{ACAD_REACTORS
330
13
102
}
330
13
100
AcDbXrecord
280
1
90
1
330
FA9
330
F1000E
330
F1001D
330
F10022
330
F10013
330
F10004
330
F10009
330
F10018
0
DICTIONARY
5
FF0
102
{ACAD_REACTORS
330
13
102
}
330
13
100
AcDbDictionary
281
1
3
CANNOSCALE
350
FF3
3
CMLEADERSTYLE
350
FF2
3
CTABLESTYLE
350
FF1
3
DIMASSOC
350
FF6
3
INDEXCTL
350
FF5
3
SORTENTS
350
FF4
3
XCLIPFRAME
350
1078
0
XRECORD
5
107F
102
{ACAD_REACTORS
330
13
102
}
330
13
100
AcDbXrecord
280
1
1
DWGPROPS COOKIE
2

3

4

6

7

8

9

300
=
301
=
302
=
303
=
304
=
305
=
306
=
307
=
308
=
309
=
40
0.0
41
0.0
42
0.0
1

90
0
0
XRECORD
5
F10010
102
{ACAD_REACTORS
330
F1000F
102
}
330
F1000F
100
AcDbXrecord
280
1
40
48458.0
1
\A1;50
0
XRECORD
5
F1001F
102
{ACAD_REACTORS
330
F1001E
102
}
330
F1001E
100
AcDbXrecord
280
1
40
48458.0
1
\A1;6
0
XRECORD
5
F10024
102
{ACAD_REACTORS
330
F10023
102
}
330
F10023
100
AcDbXrecord
280
1
40
48458.0
1
\A1;100
0
XRECORD
5
F10015
102
{ACAD_REACTORS
330
F10014
102
}
330
F10014
100
AcDbXrecord
280
1
40
48458.0
1
\A1;45°
0
XRECORD
5
F10006
102
{ACAD_REACTORS
330
F10005
102
}
330
F10005
100
AcDbXrecord
280
1
40
48458.0
1
\A1;16
0
XRECORD
5
F1000B
102
{ACAD_REACTORS
330
F1000A
102
}
330
F1000A
100
AcDbXrecord
280
1
40
48458.0
1
\A1;14.773
  0
IMAGEDEF
  5
F105CE
102
{ACAD_REACTORS
330
F105DC
330
F105CF
102
}
330
F105DC
100
AcDbRasterImageDef
90
0
1
48216013(1).jpg
10
4.e+002
20
5.e+001
280
1
281
2
0
LAYOUT
5
FD1
102
{ACAD_XDICTIONARY
360
10A9
102
}
102
{ACAD_REACTORS
330
FCF
102
}
330
FCF
100
AcDbPlotSettings
1

2
Microsoft XPS Document Writer
4

6

40
0.0
41
0.0
42
0.0
43
0.0
44
0.0
45
0.0
46
0.0
47
0.0
48
0.0
49
0.0
140
0.0
141
0.0
142
1.0
143
1.0
70
688
72
0
73
0
74
5
7

75
16
147
1.0
148
0.0
149
0.0
100
AcDbLayout
1
Layout1
70
1
71
1
10
0.0
20
0.0
11
12.0
21
9.0
12
0.0
22
0.0
32
0.0
14
1.000000000000000E+20
24
1.000000000000000E+20
34
1.000000000000000E+20
15
-1.000000000000000E+20
25
-1.000000000000000E+20
35
-1.000000000000000E+20
146
0.0
13
0.0
23
0.0
33
0.0
16
1.0
26
0.0
36
0.0
17
0.0
27
1.0
37
0.0
76
0
330
25D
0
LAYOUT
5
FD0
102
{ACAD_XDICTIONARY
360
10A7
102
}
102
{ACAD_REACTORS
330
FCF
102
}
330
FCF
100
AcDbPlotSettings
1

2
Microsoft XPS Document Writer
4

6

40
0.0
41
0.0
42
0.0
43
0.0
44
0.0
45
0.0
46
0.0
47
0.0
48
0.0
49
0.0
140
0.0
141
0.0
142
1.0
143
1.0
70
1712
72
0
73
0
74
0
7

75
0
147
1.0
148
0.0
149
0.0
100
AcDbLayout
1
Model
70
1
71
0
10
0.0
20
0.0
11
12.0
21
9.0
12
0.0
22
0.0
32
0.0
14
0.0
24
0.0
34
0.0
15
0.0
25
0.0
35
0.0
146
0.0
13
0.0
23
0.0
33
0.0
16
1.0
26
0.0
36
0.0
17
0.0
27
1.0
37
0.0
76
0
330
261
331
26B
0
MATERIAL
5
F83
102
{ACAD_XDICTIONARY
360
F84
102
}
102
{ACAD_REACTORS
330
F7A
102
}
330
F7A
100
AcDbMaterial
1
ByBlock
72
0
43
0.0208333333333333
43
0.0
43
0.0
43
0.0
43
0.0
43
0.0208333333333333
43
0.0
43
0.0
43
0.0
43
0.0
43
1.0
43
0.0
43
0.0
43
0.0
43
0.0
43
1.0
77
0
47
0.0208333333333333
47
0.0
47
0.0
47
0.0
47
0.0
47
0.0208333333333333
47
0.0
47
0.0
47
0.0
47
0.0
47
1.0
47
0.0
47
0.0
47
0.0
47
0.0
47
1.0
171
0
49
0.0208333333333333
49
0.0
49
0.0
49
0.0
49
0.0
49
0.0208333333333333
49
0.0
49
0.0
49
0.0
49
0.0
49
1.0
49
0.0
49
0.0
49
0.0
49
0.0
49
1.0
175
0
142
0.0208333333333333
142
0.0
142
0.0
142
0.0
142
0.0
142
0.0208333333333333
142
0.0
142
0.0
142
0.0
142
0.0
142
1.0
142
0.0
142
0.0
142
0.0
142
0.0
142
1.0
179
0
144
0.0208333333333333
144
0.0
144
0.0
144
0.0
144
0.0
144
0.0208333333333333
144
0.0
144
0.0
144
0.0
144
0.0
144
1.0
144
0.0
144
0.0
144
0.0
144
0.0
144
1.0
147
0.0208333333333333
147
0.0
147
0.0
147
0.0
147
0.0
147
0.0208333333333333
147
0.0
147
0.0
147
0.0
147
0.0
147
1.0
147
0.0
147
0.0
147
0.0
147
0.0
147
1.0
0
MATERIAL
5
F7B
102
{ACAD_XDICTIONARY
360
F7C
102
}
102
{ACAD_REACTORS
330
F7A
102
}
330
F7A
100
AcDbMaterial
1
ByLayer
72
0
43
0.0208333333333333
43
0.0
43
0.0
43
0.0
43
0.0
43
0.0208333333333333
43
0.0
43
0.0
43
0.0
43
0.0
43
1.0
43
0.0
43
0.0
43
0.0
43
0.0
43
1.0
77
0
47
0.0208333333333333
47
0.0
47
0.0
47
0.0
47
0.0
47
0.0208333333333333
47
0.0
47
0.0
47
0.0
47
0.0
47
1.0
47
0.0
47
0.0
47
0.0
47
0.0
47
1.0
171
0
49
0.0208333333333333
49
0.0
49
0.0
49
0.0
49
0.0
49
0.0208333333333333
49
0.0
49
0.0
49
0.0
49
0.0
49
1.0
49
0.0
49
0.0
49
0.0
49
0.0
49
1.0
175
0
142
0.0208333333333333
142
0.0
142
0.0
142
0.0
142
0.0
142
0.0208333333333333
142
0.0
142
0.0
142
0.0
142
0.0
142
1.0
142
0.0
142
0.0
142
0.0
142
0.0
142
1.0
179
0
144
0.0208333333333333
144
0.0
144
0.0
144
0.0
144
0.0
144
0.0208333333333333
144
0.0
144
0.0
144
0.0
144
0.0
144
1.0
144
0.0
144
0.0
144
0.0
144
0.0
144
1.0
147
0.0208333333333333
147
0.0
147
0.0
147
0.0
147
0.0
147
0.0208333333333333
147
0.0
147
0.0
147
0.0
147
0.0
147
1.0
147
0.0
147
0.0
147
0.0
147
0.0
147
1.0
0
MATERIAL
5
F8B
102
{ACAD_XDICTIONARY
360
F8C
102
}
102
{ACAD_REACTORS
330
F7A
102
}
330
F7A
100
AcDbMaterial
1
Global
72
0
43
0.0208333333333333
43
0.0
43
0.0
43
0.0
43
0.0
43
0.0208333333333333
43
0.0
43
0.0
43
0.0
43
0.0
43
1.0
43
0.0
43
0.0
43
0.0
43
0.0
43
1.0
77
0
47
0.0208333333333333
47
0.0
47
0.0
47
0.0
47
0.0
47
0.0208333333333333
47
0.0
47
0.0
47
0.0
47
0.0
47
1.0
47
0.0
47
0.0
47
0.0
47
0.0
47
1.0
171
0
49
0.0208333333333333
49
0.0
49
0.0
49
0.0
49
0.0
49
0.0208333333333333
49
0.0
49
0.0
49
0.0
49
0.0
49
1.0
49
0.0
49
0.0
49
0.0
49
0.0
49
1.0
175
0
142
0.0208333333333333
142
0.0
142
0.0
142
0.0
142
0.0
142
0.0208333333333333
142
0.0
142
0.0
142
0.0
142
0.0
142
1.0
142
0.0
142
0.0
142
0.0
142
0.0
142
1.0
179
0
144
0.0208333333333333
144
0.0
144
0.0
144
0.0
144
0.0
144
0.0208333333333333
144
0.0
144
0.0
144
0.0
144
0.0
144
1.0
144
0.0
144
0.0
144
0.0
144
0.0
144
1.0
147
0.0208333333333333
147
0.0
147
0.0
147
0.0
147
0.0
147
0.0208333333333333
147
0.0
147
0.0
147
0.0
147
0.0
147
1.0
147
0.0
147
0.0
147
0.0
147
0.0
147
1.0
0
MLEADERSTYLE
5
FCE
102
{ACAD_REACTORS
330
FCD
102
}
330
FCD
100
AcDbMLeaderStyle
170
2
171
1
172
0
90
2
40
0.0
41
0.0
173
1
91
-1056964608
340
256
92
-2
290
1
42
0.09
291
1
43
0.36
3
Standard
44
0.18
300

342
253
174
1
178
6
175
1
176
0
93
-1056964608
45
0.18
292
0
297
0
46
0.18
94
-1056964608
47
1.0
49
1.0
140
1.0
293
1
141
0.0
294
1
177
0
142
1.0
295
0
296
0
143
0.125
1001
ACAD_MLEADERVER
1070
2
0
MLINESTYLE
5
FAA
102
{ACAD_REACTORS
330
16
102
}
330
16
100
AcDbMlineStyle
2
STANDARD
70
0
3

62
256
51
90.0
52
90.0
71
2
49
0.5
62
256
6
BYLAYER
49
-0.5
62
256
6
BYLAYER
0
ACDBPLACEHOLDER
5
19
102
{ACAD_REACTORS
330
18
102
}
330
18
0
SCALE
5
FAC
102
{ACAD_REACTORS
330
FAB
102
}
330
FAB
100
AcDbScale
70
0
300
1:1
140
1.0
141
1.0
290
1
0
SCALE
5
FAD
102
{ACAD_REACTORS
330
FAB
102
}
330
FAB
100
AcDbScale
70
0
300
1:2
140
1.0
141
2.0
290
0
0
SCALE
5
FAE
102
{ACAD_REACTORS
330
FAB
102
}
330
FAB
100
AcDbScale
70
0
300
1:4
140
1.0
141
4.0
290
0
0
SCALE
5
FAF
102
{ACAD_REACTORS
330
FAB
102
}
330
FAB
100
AcDbScale
70
0
300
1:5
140
1.0
141
5.0
290
0
0
SCALE
5
FB0
102
{ACAD_REACTORS
330
FAB
102
}
330
FAB
100
AcDbScale
70
0
300
1:8
140
1.0
141
8.0
290
0
0
SCALE
5
FB1
102
{ACAD_REACTORS
330
FAB
102
}
330
FAB
100
AcDbScale
70
0
300
1:10
140
1.0
141
10.0
290
0
0
SCALE
5
FB2
102
{ACAD_REACTORS
330
FAB
102
}
330
FAB
100
AcDbScale
70
0
300
1:16
140
1.0
141
16.0
290
0
0
SCALE
5
FB3
102
{ACAD_REACTORS
330
FAB
102
}
330
FAB
100
AcDbScale
70
0
300
1:20
140
1.0
141
20.0
290
0
0
SCALE
5
FB4
102
{ACAD_REACTORS
330
FAB
102
}
330
FAB
100
AcDbScale
70
0
300
1:30
140
1.0
141
30.0
290
0
0
SCALE
5
FB5
102
{ACAD_REACTORS
330
FAB
102
}
330
FAB
100
AcDbScale
70
0
300
1:40
140
1.0
141
40.0
290
0
0
SCALE
5
FB6
102
{ACAD_REACTORS
330
FAB
102
}
330
FAB
100
AcDbScale
70
0
300
1:50
140
1.0
141
50.0
290
0
0
SCALE
5
FB7
102
{ACAD_REACTORS
330
FAB
102
}
330
FAB
100
AcDbScale
70
0
300
1:100
140
1.0
141
100.0
290
0
0
SCALE
5
FB8
102
{ACAD_REACTORS
330
FAB
102
}
330
FAB
100
AcDbScale
70
0
300
2:1
140
2.0
141
1.0
290
0
0
SCALE
5
FB9
102
{ACAD_REACTORS
330
FAB
102
}
330
FAB
100
AcDbScale
70
0
300
4:1
140
4.0
141
1.0
290
0
0
SCALE
5
FBA
102
{ACAD_REACTORS
330
FAB
102
}
330
FAB
100
AcDbScale
70
0
300
8:1
140
8.0
141
1.0
290
0
0
SCALE
5
FBB
102
{ACAD_REACTORS
330
FAB
102
}
330
FAB
100
AcDbScale
70
0
300
10:1
140
10.0
141
1.0
290
0
0
SCALE
5
FBC
102
{ACAD_REACTORS
330
FAB
102
}
330
FAB
100
AcDbScale
70
0
300
100:1
140
100.0
141
1.0
290
0
0
SCALE
5
FBD
102
{ACAD_REACTORS
330
FAB
102
}
330
FAB
100
AcDbScale
70
0
300
1/128" = 1'-0"
140
0.0078125
141
12.0
290
0
0
SCALE
5
FBE
102
{ACAD_REACTORS
330
FAB
102
}
330
FAB
100
AcDbScale
70
0
300
1/64" = 1'-0"
140
0.015625
141
12.0
290
0
0
SCALE
5
FBF
102
{ACAD_REACTORS
330
FAB
102
}
330
FAB
100
AcDbScale
70
0
300
1/32" = 1'-0"
140
0.03125
141
12.0
290
0
0
SCALE
5
FC0
102
{ACAD_REACTORS
330
FAB
102
}
330
FAB
100
AcDbScale
70
0
300
1/16" = 1'-0"
140
0.0625
141
12.0
290
0
0
SCALE
5
FC1
102
{ACAD_REACTORS
330
FAB
102
}
330
FAB
100
AcDbScale
70
0
300
3/32" = 1'-0"
140
0.09375
141
12.0
290
0
0
SCALE
5
FC2
102
{ACAD_REACTORS
330
FAB
102
}
330
FAB
100
AcDbScale
70
0
300
1/8" = 1'-0"
140
0.125
141
12.0
290
0
0
SCALE
5
FC3
102
{ACAD_REACTORS
330
FAB
102
}
330
FAB
100
AcDbScale
70
0
300
3/16" = 1'-0"
140
0.1875
141
12.0
290
0
0
SCALE
5
FC4
102
{ACAD_REACTORS
330
FAB
102
}
330
FAB
100
AcDbScale
70
0
300
1/4" = 1'-0"
140
0.25
141
12.0
290
0
0
SCALE
5
FC5
102
{ACAD_REACTORS
330
FAB
102
}
330
FAB
100
AcDbScale
70
0
300
3/8" = 1'-0"
140
0.375
141
12.0
290
0
0
SCALE
5
FC6
102
{ACAD_REACTORS
330
FAB
102
}
330
FAB
100
AcDbScale
70
0
300
1/2" = 1'-0"
140
0.5
141
12.0
290
0
0
SCALE
5
FC7
102
{ACAD_REACTORS
330
FAB
102
}
330
FAB
100
AcDbScale
70
0
300
3/4" = 1'-0"
140
0.75
141
12.0
290
0
0
SCALE
5
FC8
102
{ACAD_REACTORS
330
FAB
102
}
330
FAB
100
AcDbScale
70
0
300
1" = 1'-0"
140
1.0
141
12.0
290
0
0
SCALE
5
FC9
102
{ACAD_REACTORS
330
FAB
102
}
330
FAB
100
AcDbScale
70
0
300
1-1/2" = 1'-0"
140
1.5
141
12.0
290
0
0
SCALE
5
FCA
102
{ACAD_REACTORS
330
FAB
102
}
330
FAB
100
AcDbScale
70
0
300
3" = 1'-0"
140
3.0
141
12.0
290
0
0
SCALE
5
FCB
102
{ACAD_REACTORS
330
FAB
102
}
330
FAB
100
AcDbScale
70
0
300
6" = 1'-0"
140
6.0
141
12.0
290
0
0
SCALE
5
FCC
102
{ACAD_REACTORS
330
FAB
102
}
330
FAB
100
AcDbScale
70
0
300
1'-0" = 1'-0"
140
12.0
141
12.0
290
0
0
TABLESTYLE
5
FA9
102
{ACAD_XDICTIONARY
360
FF8
102
}
102
{ACAD_REACTORS
330
FA8
102
}
330
FA8
100
AcDbTableStyle
3
Standard
70
0
71
0
40
0.06
41
0.06
280
0
281
0
7
Standard
140
0.18
170
2
62
0
63
7
283
0
274
-2
284
1
64
0
275
-2
285
1
65
0
276
-2
286
1
66
0
277
-2
287
1
67
0
278
-2
288
1
68
0
279
-2
289
1
69
0
7
Standard
140
0.25
170
5
62
0
63
7
283
0
274
-2
284
1
64
0
275
-2
285
1
65
0
276
-2
286
1
66
0
277
-2
287
1
67
0
278
-2
288
1
68
0
279
-2
289
1
69
0
7
Standard
140
0.18
170
5
62
0
63
7
283
0
274
-2
284
1
64
0
275
-2
285
1
65
0
276
-2
286
1
66
0
277
-2
287
1
67
0
278
-2
288
1
68
0
279
-2
289
1
69
0
0
VISUALSTYLE
5
F99
102
{ACAD_XDICTIONARY
360
108A
102
}
102
{ACAD_REACTORS
330
F93
102
}
330
F93
100
AcDbVisualStyle
2

70
4
71
0
72
2
73
0
90
0
40
-0.6
41
-30.0
62
5
63
7
74
1
91
4
64
7
65
257
75
1
175
1
42
1.0
92
0
66
257
43
1.0
76
1
77
6
78
2
67
7
79
5
170
0
171
0
290
0
174
0
93
1
44
0.0
173
0
291
0
45
0.0
1001
ACAD
1000
AcDbSavedByObjectVersion
1070
0
0
VISUALSTYLE
5
F9B
102
{ACAD_XDICTIONARY
360
108E
102
}
102
{ACAD_REACTORS
330
F93
102
}
330
F93
100
AcDbVisualStyle
2

70
6
71
1
72
2
73
2
90
0
40
-0.6
41
-30.0
62
5
63
7
74
2
91
2
64
7
65
257
75
2
175
1
42
179.0
92
0
66
257
43
1.0
76
1
77
6
78
2
67
7
79
3
170
0
171
0
290
0
174
0
93
1
44
0.0
173
0
291
0
45
0.0
1001
ACAD
1000
AcDbSavedByObjectVersion
1070
0
0
VISUALSTYLE
5
F9A
102
{ACAD_XDICTIONARY
360
108C
102
}
102
{ACAD_REACTORS
330
F93
102
}
330
F93
100
AcDbVisualStyle
2

70
5
71
0
72
2
73
0
90
0
40
-0.6
41
-30.0
62
5
63
7
74
1
91
4
64
7
65
257
75
1
175
1
42
1.0
92
0
66
257
43
1.0
76
1
77
6
78
2
67
7
79
5
170
0
171
0
290
0
174
0
93
1
44
0.0
173
0
291
0
45
0.0
1001
ACAD
1000
AcDbSavedByObjectVersion
1070
0
0
VISUALSTYLE
5
F98
102
{ACAD_XDICTIONARY
360
1088
102
}
102
{ACAD_REACTORS
330
F93
102
}
330
F93
100
AcDbVisualStyle
2

70
7
71
1
72
0
73
1
90
0
40
-0.6
41
-30.0
62
5
63
7
74
0
91
4
64
7
65
257
75
1
175
1
42
1.0
92
8
66
7
43
1.0
76
1
77
6
78
2
67
7
79
5
170
0
171
0
290
0
174
0
93
1
44
0.0
173
0
291
1
45
0.0
1001
ACAD
1000
AcDbSavedByObjectVersion
1070
0
0
VISUALSTYLE
5
F9F
102
{ACAD_XDICTIONARY
360
1096
102
}
102
{ACAD_REACTORS
330
F93
102
}
330
F93
100
AcDbVisualStyle
2

70
12
71
2
72
2
73
0
90
0
40
-0.6
41
-30.0
62
5
63
7
74
1
91
4
64
7
65
257
75
1
175
1
42
1.0
92
8
66
7
43
1.0
76
1
77
6
78
2
67
7
79
5
170
0
171
0
290
0
174
0
93
1
44
50.0
173
0
291
1
45
0.0
1001
ACAD
1000
AcDbSavedByObjectVersion
1070
0
0
VISUALSTYLE
5
FA3
102
{ACAD_XDICTIONARY
360
109E
102
}
102
{ACAD_REACTORS
330
F93
102
}
330
F93
100
AcDbVisualStyle
2

70
16
71
2
72
2
73
3
90
0
40
-0.6
41
-30.0
62
5
63
8
74
1
91
4
64
7
65
257
75
1
175
1
42
1.0
92
8
66
8
43
1.0
76
1
77
6
78
2
67
7
79
5
170
0
171
0
290
0
174
0
93
1
44
0.0
173
0
291
1
45
0.0
1001
ACAD
1000
AcDbSavedByObjectVersion
1070
0
0
VISUALSTYLE
5
F9C
102
{ACAD_XDICTIONARY
360
1090
102
}
102
{ACAD_REACTORS
330
F93
102
}
330
F93
100
AcDbVisualStyle
2

70
9
71
3
72
2
73
0
90
0
40
-0.6
41
-30.0
62
5
63
7
74
2
91
2
64
7
65
257
75
1
175
1
42
179.0
92
8
66
7
43
1.0
76
1
77
6
78
2
67
7
79
3
170
0
171
0
290
0
174
0
93
1
44
0.0
173
0
291
0
45
0.0
1001
ACAD
1000
AcDbSavedByObjectVersion
1070
0
0
VISUALSTYLE
5
F9E
102
{ACAD_XDICTIONARY
360
1094
102
}
102
{ACAD_REACTORS
330
F93
102
}
330
F93
100
AcDbVisualStyle
2

70
11
71
2
72
2
73
0
90
0
40
-0.6
41
-30.0
62
5
63
7
74
1
91
4
64
7
65
257
75
1
175
1
42
1.0
92
8
66
7
43
1.0
76
1
77
6
78
2
67
7
79
5
170
0
171
0
290
0
174
0
93
1
44
-50.0
173
0
291
1
45
0.0
1001
ACAD
1000
AcDbSavedByObjectVersion
1070
0
0
VISUALSTYLE
5
FA6
102
{ACAD_XDICTIONARY
360
10A4
102
}
102
{ACAD_REACTORS
330
F93
102
}
330
F93
100
AcDbVisualStyle
2

70
22
71
2
72
2
73
0
90
0
40
-0.6
41
-30.0
62
5
63
7
74
1
91
4
64
7
65
257
75
1
175
1
42
1.0
92
8
66
7
43
1.0
76
1
77
6
78
2
67
7
79
5
170
0
171
0
290
0
174
0
93
1
44
0.0
173
0
291
1
45
0.0
1001
ACAD
1000
AcDbSavedByObjectVersion
1070
0
0
VISUALSTYLE
5
FA2
102
{ACAD_XDICTIONARY
360
109C
102
}
102
{ACAD_REACTORS
330
F93
102
}
330
F93
100
AcDbVisualStyle
2

70
15
71
2
72
2
73
0
90
0
40
-0.6
41
-30.0
62
5
63
7
74
1
91
4
64
7
65
257
75
1
175
1
42
1.0
92
8
66
7
43
1.0
76
1
77
6
78
2
67
7
79
5
170
0
171
0
290
0
174
0
93
1
44
0.0
173
0
291
1
45
0.0
1001
ACAD
1000
AcDbSavedByObjectVersion
1070
0
0
VISUALSTYLE
5
F94
102
{ACAD_XDICTIONARY
360
1080
102
}
102
{ACAD_REACTORS
330
F93
102
}
330
F93
100
AcDbVisualStyle
2

70
0
71
2
72
1
73
1
90
2
40
-0.6
41
30.0
62
5
63
7
74
0
91
4
64
7
65
257
75
1
175
1
42
1.0
92
8
66
7
43
1.0
76
1
77
6
78
2
67
7
79
5
170
0
171
0
290
0
174
0
93
13
44
0.0
173
0
291
1
45
0.0
1001
ACAD
1000
AcDbSavedByObjectVersion
1070
0
0
VISUALSTYLE
5
F95
102
{ACAD_XDICTIONARY
360
1082
102
}
102
{ACAD_REACTORS
330
F93
102
}
330
F93
100
AcDbVisualStyle
2

70
1
71
2
72
1
73
1
90
2
40
-0.6
41
30.0
62
5
63
7
74
1
91
4
64
7
65
257
75
1
175
1
42
1.0
92
0
66
257
43
1.0
76
1
77
6
78
2
67
7
79
5
170
0
171
0
290
0
174
0
93
13
44
0.0
173
0
291
1
45
0.0
1001
ACAD
1000
AcDbSavedByObjectVersion
1070
0
0
VISUALSTYLE
5
F96
102
{ACAD_XDICTIONARY
360
1084
102
}
102
{ACAD_REACTORS
330
F93
102
}
330
F93
100
AcDbVisualStyle
2

70
2
71
2
72
2
73
1
90
2
40
-0.6
41
30.0
62
5
63
7
74
0
91
4
64
7
65
257
75
1
175
1
42
1.0
92
0
66
7
43
1.0
76
1
77
6
78
2
67
7
79
5
170
0
171
0
290
0
174
0
93
13
44
0.0
173
0
291
1
45
0.0
1001
ACAD
1000
AcDbSavedByObjectVersion
1070
0
0
VISUALSTYLE
5
F97
102
{ACAD_XDICTIONARY
360
1086
102
}
102
{ACAD_REACTORS
330
F93
102
}
330
F93
100
AcDbVisualStyle
2

70
3
71
2
72
2
73
1
90
2
40
-0.6
41
30.0
62
5
63
7
74
1
91
4
64
7
65
257
75
1
175
1
42
1.0
92
0
66
257
43
1.0
76
1
77
6
78
2
67
7
79
5
170
0
171
0
290
0
174
0
93
13
44
0.0
173
0
291
1
45
0.0
1001
ACAD
1000
AcDbSavedByObjectVersion
1070
0
0
VISUALSTYLE
5
FA4
102
{ACAD_XDICTIONARY
360
10A0
102
}
102
{ACAD_REACTORS
330
F93
102
}
330
F93
100
AcDbVisualStyle
2

70
20
71
2
72
2
73
0
90
0
40
-0.6
41
-30.0
62
5
63
7
74
1
91
4
64
7
65
257
75
1
175
1
42
1.0
92
10
66
7
43
1.0
76
1
77
6
78
2
67
7
79
5
170
0
171
0
290
0
174
0
93
1
44
0.0
173
0
291
1
45
0.0
1001
ACAD
1000
AcDbSavedByObjectVersion
1070
0
0
VISUALSTYLE
5
FA1
102
{ACAD_XDICTIONARY
360
109A
102
}
102
{ACAD_REACTORS
330
F93
102
}
330
F93
100
AcDbVisualStyle
2

70
14
71
2
72
2
73
0
90
0
40
-0.6
41
-30.0
62
5
63
7
74
1
91
4
64
7
65
257
75
7
175
7
42
1.0
92
8
66
7
43
1.0
76
1
77
6
78
2
67
7
79
5
170
0
171
0
290
0
174
0
93
1
44
0.0
173
0
291
1
45
0.0
1001
ACAD
1000
AcDbSavedByObjectVersion
1070
0
0
VISUALSTYLE
5
FA5
102
{ACAD_XDICTIONARY
360
10A2
102
}
102
{ACAD_REACTORS
330
F93
102
}
330
F93
100
AcDbVisualStyle
2

70
21
71
2
72
2
73
0
90
0
40
-0.6
41
-30.0
62
5
63
7
74
1
91
4
64
7
65
257
75
1
175
1
42
1.0
92
9
66
7
43
1.0
76
1
77
6
78
2
67
7
79
5
170
0
171
0
290
0
174
0
93
1
44
0.0
173
0
291
1
45
0.0
1001
ACAD
1000
AcDbSavedByObjectVersion
1070
0
0
VISUALSTYLE
5
F9D
102
{ACAD_XDICTIONARY
360
1092
102
}
102
{ACAD_REACTORS
330
F93
102
}
330
F93
100
AcDbVisualStyle
2

70
8
71
2
72
2
73
0
90
0
40
-0.6
41
-30.0
62
5
63
7
74
1
91
0
64
7
65
257
75
1
175
1
42
1.0
92
8
66
8
43
1.0
76
1
77
6
78
2
67
7
79
5
170
0
171
0
290
0
174
0
93
13
44
0.0
173
0
291
0
45
0.0
1001
ACAD
1000
AcDbSavedByObjectVersion
1070
0
0
VISUALSTYLE
5
FA0
102
{ACAD_XDICTIONARY
360
1098
102
}
102
{ACAD_REACTORS
330
F93
102
}
330
F93
100
AcDbVisualStyle
2

70
13
71
2
72
2
73
0
90
0
40
-0.6
41
-30.0
62
5
63
7
74
1
91
4
64
7
65
257
75
1
175
1
42
1.0
92
12
66
7
43
1.0
76
1
77
6
78
2
67
7
79
5
170
0
171
0
290
0
174
0
93
1
44
0.0
173
0
291
1
45
0.0
1001
ACAD
1000
AcDbSavedByObjectVersion
1070
0
0
DICTIONARYVAR
5
FF3
102
{ACAD_REACTORS
330
FF0
102
}
330
FF0
100
DictionaryVariables
280
0
1
1:1
0
DICTIONARYVAR
5
FF2
102
{ACAD_REACTORS
330
FF0
102
}
330
FF0
100
DictionaryVariables
280
0
1
STANDARD
0
DICTIONARYVAR
5
FF1
102
{ACAD_REACTORS
330
FF0
102
}
330
FF0
100
DictionaryVariables
280
0
1
STANDARD
0
DICTIONARYVAR
5
FF6
102
{ACAD_REACTORS
330
FF0
102
}
330
FF0
100
DictionaryVariables
280
0
1
1
0
DICTIONARYVAR
5
FF5
102
{ACAD_REACTORS
330
FF0
102
}
330
FF0
100
DictionaryVariables
280
0
1
0
0
DICTIONARYVAR
5
FF4
102
{ACAD_REACTORS
330
FF0
102
}
330
FF0
100
DictionaryVariables
280
0
1
127
0
DICTIONARYVAR
5
1078
102
{ACAD_REACTORS
330
FF0
102
}
330
FF0
100
DictionaryVariables
280
0
1
2
0
DICTIONARY
5
10A9
330
FD1
100
AcDbDictionary
280
1
281
1
3
ACAD_XREC_ROUNDTRIP
360
10AA
0
DICTIONARY
5
10A7
330
FD0
100
AcDbDictionary
280
1
281
1
3
ACAD_XREC_ROUNDTRIP
360
10A8
0
DICTIONARY
5
F84
330
F83
100
AcDbDictionary
280
1
281
1
3
ACAD_XREC_ROUNDTRIP
360
FFF
3
BUMPTILE
360
F86
3
DIFFUSETILE
360
F85
3
OPACITYTILE
360
F89
3
REFLECTIONTILE
360
F88
3
REFRACTIONTILE
360
F8A
3
SPECULARTILE
360
F87
0
DICTIONARY
5
F7C
330
F7B
100
AcDbDictionary
280
1
281
1
3
ACAD_XREC_ROUNDTRIP
360
FFE
3
BUMPTILE
360
F7E
3
DIFFUSETILE
360
F7D
3
OPACITYTILE
360
F81
3
REFLECTIONTILE
360
F80
3
REFRACTIONTILE
360
F82
3
SPECULARTILE
360
F7F
0
DICTIONARY
5
F8C
330
F8B
100
AcDbDictionary
280
1
281
1
3
ACAD_XREC_ROUNDTRIP
360
1000
3
BUMPTILE
360
F8E
3
DIFFUSETILE
360
F8D
3
OPACITYTILE
360
F91
3
REFLECTIONTILE
360
F90
3
REFRACTIONTILE
360
F92
3
SPECULARTILE
360
F8F
0
DICTIONARY
5
FF8
330
FA9
100
AcDbDictionary
280
1
281
1
3
ACAD_ROUNDTRIP_2008_TABLESTYLE_CELLSTYLEMAP
360
1079
3
ACAD_XREC_ROUNDTRIP
360
10A6
0
DICTIONARY
5
108A
330
F99
100
AcDbDictionary
280
1
281
1
3
ACAD_XREC_ROUNDTRIP
360
108B
0
DICTIONARY
5
108E
330
F9B
100
AcDbDictionary
280
1
281
1
3
ACAD_XREC_ROUNDTRIP
360
108F
0
DICTIONARY
5
108C
330
F9A
100
AcDbDictionary
280
1
281
1
3
ACAD_XREC_ROUNDTRIP
360
108D
0
DICTIONARY
5
1088
330
F98
100
AcDbDictionary
280
1
281
1
3
ACAD_XREC_ROUNDTRIP
360
1089
0
DICTIONARY
5
1096
330
F9F
100
AcDbDictionary
280
1
281
1
3
ACAD_XREC_ROUNDTRIP
360
1097
0
DICTIONARY
5
109E
330
FA3
100
AcDbDictionary
280
1
281
1
3
ACAD_XREC_ROUNDTRIP
360
109F
0
DICTIONARY
5
1090
330
F9C
100
AcDbDictionary
280
1
281
1
3
ACAD_XREC_ROUNDTRIP
360
1091
0
DICTIONARY
5
1094
330
F9E
100
AcDbDictionary
280
1
281
1
3
ACAD_XREC_ROUNDTRIP
360
1095
0
DICTIONARY
5
10A4
330
FA6
100
AcDbDictionary
280
1
281
1
3
ACAD_XREC_ROUNDTRIP
360
10A5
0
DICTIONARY
5
109C
330
FA2
100
AcDbDictionary
280
1
281
1
3
ACAD_XREC_ROUNDTRIP
360
109D
0
DICTIONARY
5
1080
330
F94
100
AcDbDictionary
280
1
281
1
3
ACAD_XREC_ROUNDTRIP
360
1081
0
DICTIONARY
5
1082
330
F95
100
AcDbDictionary
280
1
281
1
3
ACAD_XREC_ROUNDTRIP
360
1083
0
DICTIONARY
5
1084
330
F96
100
AcDbDictionary
280
1
281
1
3
ACAD_XREC_ROUNDTRIP
360
1085
0
DICTIONARY
5
1086
330
F97
100
AcDbDictionary
280
1
281
1
3
ACAD_XREC_ROUNDTRIP
360
1087
0
DICTIONARY
5
10A0
330
FA4
100
AcDbDictionary
280
1
281
1
3
ACAD_XREC_ROUNDTRIP
360
10A1
0
DICTIONARY
5
109A
330
FA1
100
AcDbDictionary
280
1
281
1
3
ACAD_XREC_ROUNDTRIP
360
109B
0
DICTIONARY
5
10A2
330
FA5
100
AcDbDictionary
280
1
281
1
3
ACAD_XREC_ROUNDTRIP
360
10A3
0
DICTIONARY
5
1092
330
F9D
100
AcDbDictionary
280
1
281
1
3
ACAD_XREC_ROUNDTRIP
360
1093
0
DICTIONARY
5
1098
330
FA0
100
AcDbDictionary
280
1
281
1
3
ACAD_XREC_ROUNDTRIP
360
1099
0
XRECORD
5
10AA
102
{ACAD_REACTORS
330
10A9
102
}
330
10A9
100
AcDbXrecord
280
1
102
SHADEPLOT
70
0
102
SHADEPLOTRESLEVEL
70
2
102
SHADEPLOTCUSTOMDPI
70
300
0
XRECORD
5
10A8
102
{ACAD_REACTORS
330
10A7
102
}
330
10A7
100
AcDbXrecord
280
1
102
SHADEPLOT
70
0
102
SHADEPLOTRESLEVEL
70
2
102
SHADEPLOTCUSTOMDPI
70
300
0
XRECORD
5
FFF
102
{ACAD_REACTORS
330
F84
102
}
330
F84
100
AcDbXrecord
280
1
102
MATERIAL
148
0.0
149
0.0
149
0.0
93
0
94
127
282
0
72
0
77
0
171
0
175
0
179
0
273
0
0
XRECORD
5
F86
102
{ACAD_REACTORS
330
F84
102
}
330
F84
100
AcDbXrecord
280
1
270
1
271
1
0
XRECORD
5
F85
102
{ACAD_REACTORS
330
F84
102
}
330
F84
100
AcDbXrecord
280
1
270
1
271
1
0
XRECORD
5
F89
102
{ACAD_REACTORS
330
F84
102
}
330
F84
100
AcDbXrecord
280
1
270
1
271
1
0
XRECORD
5
F88
102
{ACAD_REACTORS
330
F84
102
}
330
F84
100
AcDbXrecord
280
1
270
1
271
1
0
XRECORD
5
F8A
102
{ACAD_REACTORS
330
F84
102
}
330
F84
100
AcDbXrecord
280
1
270
1
271
1
0
XRECORD
5
F87
102
{ACAD_REACTORS
330
F84
102
}
330
F84
100
AcDbXrecord
280
1
270
1
271
1
0
XRECORD
5
FFE
102
{ACAD_REACTORS
330
F7C
102
}
330
F7C
100
AcDbXrecord
280
1
102
MATERIAL
148
0.0
149
0.0
149
0.0
93
0
94
127
282
0
72
0
77
0
171
0
175
0
179
0
273
0
0
XRECORD
5
F7E
102
{ACAD_REACTORS
330
F7C
102
}
330
F7C
100
AcDbXrecord
280
1
270
1
271
1
0
XRECORD
5
F7D
102
{ACAD_REACTORS
330
F7C
102
}
330
F7C
100
AcDbXrecord
280
1
270
1
271
1
0
XRECORD
5
F81
102
{ACAD_REACTORS
330
F7C
102
}
330
F7C
100
AcDbXrecord
280
1
270
1
271
1
0
XRECORD
5
F80
102
{ACAD_REACTORS
330
F7C
102
}
330
F7C
100
AcDbXrecord
280
1
270
1
271
1
0
XRECORD
5
F82
102
{ACAD_REACTORS
330
F7C
102
}
330
F7C
100
AcDbXrecord
280
1
270
1
271
1
0
XRECORD
5
F7F
102
{ACAD_REACTORS
330
F7C
102
}
330
F7C
100
AcDbXrecord
280
1
270
1
271
1
0
XRECORD
5
1000
102
{ACAD_REACTORS
330
F8C
102
}
330
F8C
100
AcDbXrecord
280
1
102
MATERIAL
148
0.0
149
0.0
149
0.0
93
0
94
127
282
0
72
0
77
0
171
0
175
0
179
0
273
0
0
XRECORD
5
F8E
102
{ACAD_REACTORS
330
F8C
102
}
330
F8C
100
AcDbXrecord
280
1
270
1
271
1
0
XRECORD
5
F8D
102
{ACAD_REACTORS
330
F8C
102
}
330
F8C
100
AcDbXrecord
280
1
270
1
271
1
0
XRECORD
5
F91
102
{ACAD_REACTORS
330
F8C
102
}
330
F8C
100
AcDbXrecord
280
1
270
1
271
1
0
XRECORD
5
F90
102
{ACAD_REACTORS
330
F8C
102
}
330
F8C
100
AcDbXrecord
280
1
270
1
271
1
0
XRECORD
5
F92
102
{ACAD_REACTORS
330
F8C
102
}
330
F8C
100
AcDbXrecord
280
1
270
1
271
1
0
XRECORD
5
F8F
102
{ACAD_REACTORS
330
F8C
102
}
330
F8C
100
AcDbXrecord
280
1
270
1
271
1
0
CELLSTYLEMAP
5
1079
102
{ACAD_REACTORS
330
FF8
102
}
330
FF8
100
AcDbCellStyleMap
90
3
300
CELLSTYLE
1
TABLEFORMAT_BEGIN
90
5
170
1
91
0
92
32768
62
257
93
1
300
CONTENTFORMAT
1
CONTENTFORMAT_BEGIN
90
0
91
0
92
512
93
0
300

40
0.0
140
1.0
94
5
62
0
340
253
144
0.25
309
CONTENTFORMAT_END
171
1
301
MARGIN
1
CELLMARGIN_BEGIN
40
0.06
40
0.06
40
0.06
40
0.06
40
0.18
40
0.18
309
CELLMARGIN_END
94
6
95
1
302
GRIDFORMAT
1
GRIDFORMAT_BEGIN
90
0
91
1
62
0
92
-2
340
0
93
0
40
0.045
309
GRIDFORMAT_END
95
2
302
GRIDFORMAT
1
GRIDFORMAT_BEGIN
90
0
91
1
62
0
92
-2
340
0
93
0
40
0.045
309
GRIDFORMAT_END
95
4
302
GRIDFORMAT
1
GRIDFORMAT_BEGIN
90
0
91
1
62
0
92
-2
340
0
93
0
40
0.045
309
GRIDFORMAT_END
95
8
302
GRIDFORMAT
1
GRIDFORMAT_BEGIN
90
0
91
1
62
0
92
-2
340
0
93
0
40
0.045
309
GRIDFORMAT_END
95
16
302
GRIDFORMAT
1
GRIDFORMAT_BEGIN
90
0
91
1
62
0
92
-2
340
0
93
0
40
0.045
309
GRIDFORMAT_END
95
32
302
GRIDFORMAT
1
GRIDFORMAT_BEGIN
90
0
91
1
62
0
92
-2
340
0
93
0
40
0.045
309
GRIDFORMAT_END
309
TABLEFORMAT_END
1
CELLSTYLE_BEGIN
90
1
91
1
300
_TITLE
309
CELLSTYLE_END
300
CELLSTYLE
1
TABLEFORMAT_BEGIN
90
5
170
1
91
0
92
0
62
257
93
1
300
CONTENTFORMAT
1
CONTENTFORMAT_BEGIN
90
0
91
0
92
512
93
0
300

40
0.0
140
1.0
94
5
62
0
340
253
144
0.18
309
CONTENTFORMAT_END
171
1
301
MARGIN
1
CELLMARGIN_BEGIN
40
0.06
40
0.06
40
0.06
40
0.06
40
0.18
40
0.18
309
CELLMARGIN_END
94
6
95
1
302
GRIDFORMAT
1
GRIDFORMAT_BEGIN
90
0
91
1
62
0
92
-2
340
0
93
0
40
0.045
309
GRIDFORMAT_END
95
2
302
GRIDFORMAT
1
GRIDFORMAT_BEGIN
90
0
91
1
62
0
92
-2
340
0
93
0
40
0.045
309
GRIDFORMAT_END
95
4
302
GRIDFORMAT
1
GRIDFORMAT_BEGIN
90
0
91
1
62
0
92
-2
340
0
93
0
40
0.045
309
GRIDFORMAT_END
95
8
302
GRIDFORMAT
1
GRIDFORMAT_BEGIN
90
0
91
1
62
0
92
-2
340
0
93
0
40
0.045
309
GRIDFORMAT_END
95
16
302
GRIDFORMAT
1
GRIDFORMAT_BEGIN
90
0
91
1
62
0
92
-2
340
0
93
0
40
0.045
309
GRIDFORMAT_END
95
32
302
GRIDFORMAT
1
GRIDFORMAT_BEGIN
90
0
91
1
62
0
92
-2
340
0
93
0
40
0.045
309
GRIDFORMAT_END
309
TABLEFORMAT_END
1
CELLSTYLE_BEGIN
90
2
91
1
300
_HEADER
309
CELLSTYLE_END
300
CELLSTYLE
1
TABLEFORMAT_BEGIN
90
5
170
1
91
0
92
0
62
257
93
1
300
CONTENTFORMAT
1
CONTENTFORMAT_BEGIN
90
0
91
0
92
512
93
0
300

40
0.0
140
1.0
94
2
62
0
340
253
144
0.18
309
CONTENTFORMAT_END
171
1
301
MARGIN
1
CELLMARGIN_BEGIN
40
0.06
40
0.06
40
0.06
40
0.06
40
0.18
40
0.18
309
CELLMARGIN_END
94
6
95
1
302
GRIDFORMAT
1
GRIDFORMAT_BEGIN
90
0
91
1
62
0
92
-2
340
0
93
0
40
0.045
309
GRIDFORMAT_END
95
2
302
GRIDFORMAT
1
GRIDFORMAT_BEGIN
90
0
91
1
62
0
92
-2
340
0
93
0
40
0.045
309
GRIDFORMAT_END
95
4
302
GRIDFORMAT
1
GRIDFORMAT_BEGIN
90
0
91
1
62
0
92
-2
340
0
93
0
40
0.045
309
GRIDFORMAT_END
95
8
302
GRIDFORMAT
1
GRIDFORMAT_BEGIN
90
0
91
1
62
0
92
-2
340
0
93
0
40
0.045
309
GRIDFORMAT_END
95
16
302
GRIDFORMAT
1
GRIDFORMAT_BEGIN
90
0
91
1
62
0
92
-2
340
0
93
0
40
0.045
309
GRIDFORMAT_END
95
32
302
GRIDFORMAT
1
GRIDFORMAT_BEGIN
90
0
91
1
62
0
92
-2
340
0
93
0
40
0.045
309
GRIDFORMAT_END
309
TABLEFORMAT_END
1
CELLSTYLE_BEGIN
90
3
91
2
300
_DATA
309
CELLSTYLE_END
0
XRECORD
5
10A6
102
{ACAD_REACTORS
330
FF8
102
}
330
FF8
100
AcDbXrecord
280
1
102
ACAD_ROUNDTRIP_PRE2007_TABLESTYLE
90
512
91
0
1

92
512
93
0
2

94
512
95
0
3

0
XRECORD
5
108B
102
{ACAD_REACTORS
330
108A
102
}
330
108A
100
AcDbXrecord
280
1
102
RTVSPropertyOp0
70
1
102
RTVSPropertyOp1
70
1
102
RTVSPropertyOp2
70
1
102
RTVSPropertyOp3
70
1
102
RTVSPropertyOp4
70
1
102
RTVSPropertyOp5
70
1
102
RTVSPropertyOp6
70
1
102
RTVSPropertyOp7
70
1
102
RTVSPropertyOp8
70
1
102
RTVSPropertyOp9
70
1
102
RTVSPropertyOp10
70
1
102
RTVSPropertyOp11
70
1
102
RTVSPropertyOp12
70
1
102
RTVSPropertyOp13
70
1
102
RTVSPropertyOp14
70
1
102
RTVSPropertyOp15
70
1
102
RTVSPropertyOp16
70
1
102
RTVSPropertyOp17
70
1
102
RTVSPropertyOp18
70
1
102
RTVSPropertyOp19
70
1
102
RTVSPropertyOp20
70
1
102
RTVSPropertyOp21
70
1
102
RTVSPropertyOp22
70
1
102
RTVSPropertyOp23
70
1
102
RTVSPropertyOp24
70
1
102
RTVSPropertyOp25
70
1
102
RTVSPropertyOp26
70
1
102
RTVSPropertyOp27
70
1
0
XRECORD
5
108F
102
{ACAD_REACTORS
330
108E
102
}
330
108E
100
AcDbXrecord
280
1
102
RTVSPropertyOp0
70
1
102
RTVSPropertyOp1
70
1
102
RTVSPropertyOp2
70
1
102
RTVSPropertyOp3
70
1
102
RTVSPropertyOp4
70
1
102
RTVSPropertyOp5
70
1
102
RTVSPropertyOp6
70
1
102
RTVSPropertyOp7
70
1
102
RTVSPropertyOp8
70
1
102
RTVSPropertyOp9
70
1
102
RTVSPropertyOp10
70
1
102
RTVSPropertyOp11
70
1
102
RTVSPropertyOp12
70
1
102
RTVSPropertyOp13
70
1
102
RTVSPropertyOp14
70
1
102
RTVSPropertyOp15
70
1
102
RTVSPropertyOp16
70
1
102
RTVSPropertyOp17
70
1
102
RTVSPropertyOp18
70
1
102
RTVSPropertyOp19
70
1
102
RTVSPropertyOp20
70
1
102
RTVSPropertyOp21
70
1
102
RTVSPropertyOp22
70
1
102
RTVSPropertyOp23
70
1
102
RTVSPropertyOp24
70
1
102
RTVSPropertyOp25
70
1
102
RTVSPropertyOp26
70
1
102
RTVSPropertyOp27
70
1
0
XRECORD
5
108D
102
{ACAD_REACTORS
330
108C
102
}
330
108C
100
AcDbXrecord
280
1
102
RTVSPropertyOp0
70
1
102
RTVSPropertyOp1
70
1
102
RTVSPropertyOp2
70
1
102
RTVSPropertyOp3
70
1
102
RTVSPropertyOp4
70
1
102
RTVSPropertyOp5
70
1
102
RTVSPropertyOp6
70
1
102
RTVSPropertyOp7
70
1
102
RTVSPropertyOp8
70
1
102
RTVSPropertyOp9
70
1
102
RTVSPropertyOp10
70
1
102
RTVSPropertyOp11
70
1
102
RTVSPropertyOp12
70
1
102
RTVSPropertyOp13
70
1
102
RTVSPropertyOp14
70
1
102
RTVSPropertyOp15
70
1
102
RTVSPropertyOp16
70
1
102
RTVSPropertyOp17
70
1
102
RTVSPropertyOp18
70
1
102
RTVSPropertyOp19
70
1
102
RTVSPropertyOp20
70
1
102
RTVSPropertyOp21
70
1
102
RTVSPropertyOp22
70
1
102
RTVSPropertyOp23
70
1
102
RTVSPropertyOp24
70
1
102
RTVSPropertyOp25
70
1
102
RTVSPropertyOp26
70
1
102
RTVSPropertyOp27
70
1
0
XRECORD
5
1089
102
{ACAD_REACTORS
330
1088
102
}
330
1088
100
AcDbXrecord
280
1
102
RTVSPropertyOp0
70
1
102
RTVSPropertyOp1
70
1
102
RTVSPropertyOp2
70
1
102
RTVSPropertyOp3
70
1
102
RTVSPropertyOp4
70
1
102
RTVSPropertyOp5
70
1
102
RTVSPropertyOp6
70
1
102
RTVSPropertyOp7
70
1
102
RTVSPropertyOp8
70
1
102
RTVSPropertyOp9
70
1
102
RTVSPropertyOp10
70
1
102
RTVSPropertyOp11
70
1
102
RTVSPropertyOp12
70
1
102
RTVSPropertyOp13
70
1
102
RTVSPropertyOp14
70
1
102
RTVSPropertyOp15
70
1
102
RTVSPropertyOp16
70
1
102
RTVSPropertyOp17
70
1
102
RTVSPropertyOp18
70
1
102
RTVSPropertyOp19
70
1
102
RTVSPropertyOp20
70
1
102
RTVSPropertyOp21
70
1
102
RTVSPropertyOp22
70
1
102
RTVSPropertyOp23
70
1
102
RTVSPropertyOp24
70
1
102
RTVSPropertyOp25
70
1
102
RTVSPropertyOp26
70
1
102
RTVSPropertyOp27
70
1
0
XRECORD
5
1097
102
{ACAD_REACTORS
330
1096
102
}
330
1096
100
AcDbXrecord
280
1
102
RTVSPropertyOp0
70
1
102
RTVSPropertyOp1
70
1
102
RTVSPropertyOp2
70
1
102
RTVSPropertyOp3
70
1
102
RTVSPropertyOp4
70
1
102
RTVSPropertyOp5
70
1
102
RTVSPropertyOp6
70
1
102
RTVSPropertyOp7
70
1
102
RTVSPropertyOp8
70
1
102
RTVSPropertyOp9
70
1
102
RTVSPropertyOp10
70
1
102
RTVSPropertyOp11
70
1
102
RTVSPropertyOp12
70
1
102
RTVSPropertyOp13
70
1
102
RTVSPropertyOp14
70
1
102
RTVSPropertyOp15
70
1
102
RTVSPropertyOp16
70
1
102
RTVSPropertyOp17
70
1
102
RTVSPropertyOp18
70
1
102
RTVSPropertyOp19
70
1
102
RTVSPropertyOp20
70
1
102
RTVSPropertyOp21
70
1
102
RTVSPropertyOp22
70
1
102
RTVSPropertyOp23
70
1
102
RTVSPropertyOp24
70
1
102
RTVSPropertyOp25
70
1
102
RTVSPropertyOp26
70
1
102
RTVSPropertyOp27
70
1
0
XRECORD
5
109F
102
{ACAD_REACTORS
330
109E
102
}
330
109E
100
AcDbXrecord
280
1
102
RTVSPropertyOp0
70
1
102
RTVSPropertyOp1
70
1
102
RTVSPropertyOp2
70
1
102
RTVSPropertyOp3
70
1
102
RTVSPropertyOp4
70
1
102
RTVSPropertyOp5
70
1
102
RTVSPropertyOp6
70
1
102
RTVSPropertyOp7
70
1
102
RTVSPropertyOp8
70
1
102
RTVSPropertyOp9
70
1
102
RTVSPropertyOp10
70
1
102
RTVSPropertyOp11
70
1
102
RTVSPropertyOp12
70
1
102
RTVSPropertyOp13
70
1
102
RTVSPropertyOp14
70
1
102
RTVSPropertyOp15
70
1
102
RTVSPropertyOp16
70
1
102
RTVSPropertyOp17
70
1
102
RTVSPropertyOp18
70
1
102
RTVSPropertyOp19
70
1
102
RTVSPropertyOp20
70
1
102
RTVSPropertyOp21
70
1
102
RTVSPropertyOp22
70
1
102
RTVSPropertyOp23
70
1
102
RTVSPropertyOp24
70
1
102
RTVSPropertyOp25
70
1
102
RTVSPropertyOp26
70
1
102
RTVSPropertyOp27
70
1
0
XRECORD
5
1091
102
{ACAD_REACTORS
330
1090
102
}
330
1090
100
AcDbXrecord
280
1
102
RTVSPropertyOp0
70
1
102
RTVSPropertyOp1
70
1
102
RTVSPropertyOp2
70
1
102
RTVSPropertyOp3
70
1
102
RTVSPropertyOp4
70
1
102
RTVSPropertyOp5
70
1
102
RTVSPropertyOp6
70
1
102
RTVSPropertyOp7
70
1
102
RTVSPropertyOp8
70
1
102
RTVSPropertyOp9
70
1
102
RTVSPropertyOp10
70
1
102
RTVSPropertyOp11
70
1
102
RTVSPropertyOp12
70
1
102
RTVSPropertyOp13
70
1
102
RTVSPropertyOp14
70
1
102
RTVSPropertyOp15
70
1
102
RTVSPropertyOp16
70
1
102
RTVSPropertyOp17
70
1
102
RTVSPropertyOp18
70
1
102
RTVSPropertyOp19
70
1
102
RTVSPropertyOp20
70
1
102
RTVSPropertyOp21
70
1
102
RTVSPropertyOp22
70
1
102
RTVSPropertyOp23
70
1
102
RTVSPropertyOp24
70
1
102
RTVSPropertyOp25
70
1
102
RTVSPropertyOp26
70
1
102
RTVSPropertyOp27
70
1
0
XRECORD
5
1095
102
{ACAD_REACTORS
330
1094
102
}
330
1094
100
AcDbXrecord
280
1
102
RTVSPropertyOp0
70
1
102
RTVSPropertyOp1
70
1
102
RTVSPropertyOp2
70
1
102
RTVSPropertyOp3
70
1
102
RTVSPropertyOp4
70
1
102
RTVSPropertyOp5
70
1
102
RTVSPropertyOp6
70
1
102
RTVSPropertyOp7
70
1
102
RTVSPropertyOp8
70
1
102
RTVSPropertyOp9
70
1
102
RTVSPropertyOp10
70
1
102
RTVSPropertyOp11
70
1
102
RTVSPropertyOp12
70
1
102
RTVSPropertyOp13
70
1
102
RTVSPropertyOp14
70
1
102
RTVSPropertyOp15
70
1
102
RTVSPropertyOp16
70
1
102
RTVSPropertyOp17
70
1
102
RTVSPropertyOp18
70
1
102
RTVSPropertyOp19
70
1
102
RTVSPropertyOp20
70
1
102
RTVSPropertyOp21
70
1
102
RTVSPropertyOp22
70
1
102
RTVSPropertyOp23
70
1
102
RTVSPropertyOp24
70
1
102
RTVSPropertyOp25
70
1
102
RTVSPropertyOp26
70
1
102
RTVSPropertyOp27
70
1
0
XRECORD
5
10A5
102
{ACAD_REACTORS
330
10A4
102
}
330
10A4
100
AcDbXrecord
280
1
102
RTVSPropertyOp0
70
0
102
RTVSPropertyOp1
70
0
102
RTVSPropertyOp2
70
0
102
RTVSPropertyOp3
70
0
102
RTVSPropertyOp4
70
0
102
RTVSPropertyOp5
70
0
102
RTVSPropertyOp6
70
0
102
RTVSPropertyOp7
70
0
102
RTVSPropertyOp8
70
0
102
RTVSPropertyOp9
70
0
102
RTVSPropertyOp10
70
0
102
RTVSPropertyOp11
70
0
102
RTVSPropertyOp12
70
0
102
RTVSPropertyOp13
70
0
102
RTVSPropertyOp14
70
2
102
RTVSPropertyOp15
70
0
102
RTVSPropertyOp16
70
0
102
RTVSPropertyOp17
70
0
102
RTVSPropertyOp18
70
0
102
RTVSPropertyOp19
70
0
102
RTVSPropertyOp20
70
0
102
RTVSPropertyOp21
70
0
102
RTVSPropertyOp22
70
0
102
RTVSPropertyOp23
70
0
102
RTVSPropertyOp24
70
0
102
RTVSPropertyOp25
70
0
102
RTVSPropertyOp26
70
0
102
RTVSPropertyOp27
70
0
0
XRECORD
5
109D
102
{ACAD_REACTORS
330
109C
102
}
330
109C
100
AcDbXrecord
280
1
102
RTVSPropertyOp0
70
1
102
RTVSPropertyOp1
70
1
102
RTVSPropertyOp2
70
1
102
RTVSPropertyOp3
70
1
102
RTVSPropertyOp4
70
1
102
RTVSPropertyOp5
70
1
102
RTVSPropertyOp6
70
1
102
RTVSPropertyOp7
70
1
102
RTVSPropertyOp8
70
1
102
RTVSPropertyOp9
70
1
102
RTVSPropertyOp10
70
1
102
RTVSPropertyOp11
70
1
102
RTVSPropertyOp12
70
1
102
RTVSPropertyOp13
70
1
102
RTVSPropertyOp14
70
1
102
RTVSPropertyOp15
70
1
102
RTVSPropertyOp16
70
1
102
RTVSPropertyOp17
70
1
102
RTVSPropertyOp18
70
1
102
RTVSPropertyOp19
70
1
102
RTVSPropertyOp20
70
1
102
RTVSPropertyOp21
70
1
102
RTVSPropertyOp22
70
1
102
RTVSPropertyOp23
70
1
102
RTVSPropertyOp24
70
1
102
RTVSPropertyOp25
70
1
102
RTVSPropertyOp26
70
1
102
RTVSPropertyOp27
70
1
0
XRECORD
5
1081
102
{ACAD_REACTORS
330
1080
102
}
330
1080
100
AcDbXrecord
280
1
102
RTVSPropertyOp0
70
1
102
RTVSPropertyOp1
70
1
102
RTVSPropertyOp2
70
1
102
RTVSPropertyOp3
70
1
102
RTVSPropertyOp4
70
1
102
RTVSPropertyOp5
70
1
102
RTVSPropertyOp6
70
1
102
RTVSPropertyOp7
70
1
102
RTVSPropertyOp8
70
1
102
RTVSPropertyOp9
70
1
102
RTVSPropertyOp10
70
1
102
RTVSPropertyOp11
70
1
102
RTVSPropertyOp12
70
1
102
RTVSPropertyOp13
70
1
102
RTVSPropertyOp14
70
1
102
RTVSPropertyOp15
70
1
102
RTVSPropertyOp16
70
1
102
RTVSPropertyOp17
70
1
102
RTVSPropertyOp18
70
1
102
RTVSPropertyOp19
70
1
102
RTVSPropertyOp20
70
1
102
RTVSPropertyOp21
70
1
102
RTVSPropertyOp22
70
1
102
RTVSPropertyOp23
70
1
102
RTVSPropertyOp24
70
1
102
RTVSPropertyOp25
70
1
102
RTVSPropertyOp26
70
1
102
RTVSPropertyOp27
70
1
0
XRECORD
5
1083
102
{ACAD_REACTORS
330
1082
102
}
330
1082
100
AcDbXrecord
280
1
102
RTVSPropertyOp0
70
1
102
RTVSPropertyOp1
70
1
102
RTVSPropertyOp2
70
1
102
RTVSPropertyOp3
70
1
102
RTVSPropertyOp4
70
1
102
RTVSPropertyOp5
70
1
102
RTVSPropertyOp6
70
1
102
RTVSPropertyOp7
70
1
102
RTVSPropertyOp8
70
1
102
RTVSPropertyOp9
70
1
102
RTVSPropertyOp10
70
1
102
RTVSPropertyOp11
70
1
102
RTVSPropertyOp12
70
1
102
RTVSPropertyOp13
70
1
102
RTVSPropertyOp14
70
1
102
RTVSPropertyOp15
70
1
102
RTVSPropertyOp16
70
1
102
RTVSPropertyOp17
70
1
102
RTVSPropertyOp18
70
1
102
RTVSPropertyOp19
70
1
102
RTVSPropertyOp20
70
1
102
RTVSPropertyOp21
70
1
102
RTVSPropertyOp22
70
1
102
RTVSPropertyOp23
70
1
102
RTVSPropertyOp24
70
1
102
RTVSPropertyOp25
70
1
102
RTVSPropertyOp26
70
1
102
RTVSPropertyOp27
70
1
0
XRECORD
5
1085
102
{ACAD_REACTORS
330
1084
102
}
330
1084
100
AcDbXrecord
280
1
102
RTVSPropertyOp0
70
1
102
RTVSPropertyOp1
70
1
102
RTVSPropertyOp2
70
1
102
RTVSPropertyOp3
70
1
102
RTVSPropertyOp4
70
1
102
RTVSPropertyOp5
70
1
102
RTVSPropertyOp6
70
1
102
RTVSPropertyOp7
70
1
102
RTVSPropertyOp8
70
1
102
RTVSPropertyOp9
70
1
102
RTVSPropertyOp10
70
1
102
RTVSPropertyOp11
70
1
102
RTVSPropertyOp12
70
1
102
RTVSPropertyOp13
70
1
102
RTVSPropertyOp14
70
1
102
RTVSPropertyOp15
70
1
102
RTVSPropertyOp16
70
1
102
RTVSPropertyOp17
70
1
102
RTVSPropertyOp18
70
1
102
RTVSPropertyOp19
70
1
102
RTVSPropertyOp20
70
1
102
RTVSPropertyOp21
70
1
102
RTVSPropertyOp22
70
1
102
RTVSPropertyOp23
70
1
102
RTVSPropertyOp24
70
1
102
RTVSPropertyOp25
70
1
102
RTVSPropertyOp26
70
1
102
RTVSPropertyOp27
70
1
0
XRECORD
5
1087
102
{ACAD_REACTORS
330
1086
102
}
330
1086
100
AcDbXrecord
280
1
102
RTVSPropertyOp0
70
1
102
RTVSPropertyOp1
70
1
102
RTVSPropertyOp2
70
1
102
RTVSPropertyOp3
70
1
102
RTVSPropertyOp4
70
1
102
RTVSPropertyOp5
70
1
102
RTVSPropertyOp6
70
1
102
RTVSPropertyOp7
70
1
102
RTVSPropertyOp8
70
1
102
RTVSPropertyOp9
70
1
102
RTVSPropertyOp10
70
1
102
RTVSPropertyOp11
70
1
102
RTVSPropertyOp12
70
1
102
RTVSPropertyOp13
70
1
102
RTVSPropertyOp14
70
1
102
RTVSPropertyOp15
70
1
102
RTVSPropertyOp16
70
1
102
RTVSPropertyOp17
70
1
102
RTVSPropertyOp18
70
1
102
RTVSPropertyOp19
70
1
102
RTVSPropertyOp20
70
1
102
RTVSPropertyOp21
70
1
102
RTVSPropertyOp22
70
1
102
RTVSPropertyOp23
70
1
102
RTVSPropertyOp24
70
1
102
RTVSPropertyOp25
70
1
102
RTVSPropertyOp26
70
1
102
RTVSPropertyOp27
70
1
0
XRECORD
5
10A1
102
{ACAD_REACTORS
330
10A0
102
}
330
10A0
100
AcDbXrecord
280
1
102
RTVSPropertyOp0
70
0
102
RTVSPropertyOp1
70
0
102
RTVSPropertyOp2
70
0
102
RTVSPropertyOp3
70
0
102
RTVSPropertyOp4
70
0
102
RTVSPropertyOp5
70
0
102
RTVSPropertyOp6
70
0
102
RTVSPropertyOp7
70
0
102
RTVSPropertyOp8
70
0
102
RTVSPropertyOp9
70
0
102
RTVSPropertyOp10
70
0
102
RTVSPropertyOp11
70
0
102
RTVSPropertyOp12
70
0
102
RTVSPropertyOp13
70
0
102
RTVSPropertyOp14
70
2
102
RTVSPropertyOp15
70
0
102
RTVSPropertyOp16
70
0
102
RTVSPropertyOp17
70
0
102
RTVSPropertyOp18
70
0
102
RTVSPropertyOp19
70
0
102
RTVSPropertyOp20
70
0
102
RTVSPropertyOp21
70
0
102
RTVSPropertyOp22
70
0
102
RTVSPropertyOp23
70
0
102
RTVSPropertyOp24
70
0
102
RTVSPropertyOp25
70
0
102
RTVSPropertyOp26
70
0
102
RTVSPropertyOp27
70
0
0
XRECORD
5
109B
102
{ACAD_REACTORS
330
109A
102
}
330
109A
100
AcDbXrecord
280
1
102
RTVSPropertyOp0
70
1
102
RTVSPropertyOp1
70
1
102
RTVSPropertyOp2
70
1
102
RTVSPropertyOp3
70
1
102
RTVSPropertyOp4
70
1
102
RTVSPropertyOp5
70
1
102
RTVSPropertyOp6
70
1
102
RTVSPropertyOp7
70
1
102
RTVSPropertyOp8
70
1
102
RTVSPropertyOp9
70
1
102
RTVSPropertyOp10
70
1
102
RTVSPropertyOp11
70
1
102
RTVSPropertyOp12
70
1
102
RTVSPropertyOp13
70
1
102
RTVSPropertyOp14
70
1
102
RTVSPropertyOp15
70
1
102
RTVSPropertyOp16
70
1
102
RTVSPropertyOp17
70
1
102
RTVSPropertyOp18
70
1
102
RTVSPropertyOp19
70
1
102
RTVSPropertyOp20
70
1
102
RTVSPropertyOp21
70
1
102
RTVSPropertyOp22
70
1
102
RTVSPropertyOp23
70
1
102
RTVSPropertyOp24
70
1
102
RTVSPropertyOp25
70
1
102
RTVSPropertyOp26
70
1
102
RTVSPropertyOp27
70
1
0
XRECORD
5
10A3
102
{ACAD_REACTORS
330
10A2
102
}
330
10A2
100
AcDbXrecord
280
1
102
RTVSPropertyOp0
70
0
102
RTVSPropertyOp1
70
0
102
RTVSPropertyOp2
70
0
102
RTVSPropertyOp3
70
0
102
RTVSPropertyOp4
70
0
102
RTVSPropertyOp5
70
0
102
RTVSPropertyOp6
70
0
102
RTVSPropertyOp7
70
0
102
RTVSPropertyOp8
70
0
102
RTVSPropertyOp9
70
0
102
RTVSPropertyOp10
70
0
102
RTVSPropertyOp11
70
0
102
RTVSPropertyOp12
70
0
102
RTVSPropertyOp13
70
0
102
RTVSPropertyOp14
70
2
102
RTVSPropertyOp15
70
0
102
RTVSPropertyOp16
70
0
102
RTVSPropertyOp17
70
0
102
RTVSPropertyOp18
70
0
102
RTVSPropertyOp19
70
0
102
RTVSPropertyOp20
70
0
102
RTVSPropertyOp21
70
0
102
RTVSPropertyOp22
70
0
102
RTVSPropertyOp23
70
0
102
RTVSPropertyOp24
70
0
102
RTVSPropertyOp25
70
0
102
RTVSPropertyOp26
70
0
102
RTVSPropertyOp27
70
0
0
XRECORD
5
1093
102
{ACAD_REACTORS
330
1092
102
}
330
1092
100
AcDbXrecord
280
1
102
RTVSPropertyOp0
70
1
102
RTVSPropertyOp1
70
1
102
RTVSPropertyOp2
70
1
102
RTVSPropertyOp3
70
1
102
RTVSPropertyOp4
70
1
102
RTVSPropertyOp5
70
1
102
RTVSPropertyOp6
70
1
102
RTVSPropertyOp7
70
1
102
RTVSPropertyOp8
70
1
102
RTVSPropertyOp9
70
1
102
RTVSPropertyOp10
70
1
102
RTVSPropertyOp11
70
1
102
RTVSPropertyOp12
70
1
102
RTVSPropertyOp13
70
1
102
RTVSPropertyOp14
70
1
102
RTVSPropertyOp15
70
1
102
RTVSPropertyOp16
70
1
102
RTVSPropertyOp17
70
1
102
RTVSPropertyOp18
70
1
102
RTVSPropertyOp19
70
1
102
RTVSPropertyOp20
70
1
102
RTVSPropertyOp21
70
1
102
RTVSPropertyOp22
70
1
102
RTVSPropertyOp23
70
1
102
RTVSPropertyOp24
70
1
102
RTVSPropertyOp25
70
1
102
RTVSPropertyOp26
70
1
102
RTVSPropertyOp27
70
1
0
XRECORD
5
1099
102
{ACAD_REACTORS
330
1098
102
}
330
1098
100
AcDbXrecord
280
1
102
RTVSPropertyOp0
70
1
102
RTVSPropertyOp1
70
1
102
RTVSPropertyOp2
70
1
102
RTVSPropertyOp3
70
1
102
RTVSPropertyOp4
70
1
102
RTVSPropertyOp5
70
1
102
RTVSPropertyOp6
70
1
102
RTVSPropertyOp7
70
1
102
RTVSPropertyOp8
70
1
102
RTVSPropertyOp9
70
1
102
RTVSPropertyOp10
70
1
102
RTVSPropertyOp11
70
1
102
RTVSPropertyOp12
70
1
102
RTVSPropertyOp13
70
1
102
RTVSPropertyOp14
70
1
102
RTVSPropertyOp15
70
1
102
RTVSPropertyOp16
70
1
102
RTVSPropertyOp17
70
1
102
RTVSPropertyOp18
70
1
102
RTVSPropertyOp19
70
1
102
RTVSPropertyOp20
70
1
102
RTVSPropertyOp21
70
1
102
RTVSPropertyOp22
70
1
102
RTVSPropertyOp23
70
1
102
RTVSPropertyOp24
70
1
102
RTVSPropertyOp25
70
1
102
RTVSPropertyOp26
70
1
102
RTVSPropertyOp27
70
1
0
ENDSEC
0
EOF
