  0
SECTION
  2
HEADER
  9
$ACADVER
  1
AC1015
  9
$ACADMAINTVER
 70
     6
  9
$DWGCODEPAGE
  3
DOS932
  9
$INSBASE
 10
0.0
 20
0.0
 30
0.0
  9
$EXTMIN
 10
0.0
 20
0.0
 30
0.0
  9
$EXTMAX
 10
279.4
 20
215.9
 30
0.0
  9
$LIMMIN
 10
0.0
 20
0.0
  9
$LIMMAX
 10
279.4
 20
215.9
  9
$ORTHOMODE
 70
     0
  9
$REGENMODE
 70
     1
  9
$FILLMODE
 70
     1
  9
$QTEXTMODE
 70
     0
  9
$MIRRTEXT
 70
     1
  9
$LTSCALE
 40
1.0
  9
$ATTMODE
 70
     1
  9
$TEXTSIZE
 40
3.5
  9
$TRACEWID
 40
1.0
  9
$TEXTSTYLE
  7
STANDARD
  9
$CLAYER
  8
0
  9
$CELTYPE
  6
ByLayer
  9
$CECOLOR
 62
   256
  9
$CELTSCALE
 40
1.0
  9
$DISPSILH
 70
     0
  9
$DIMSCALE
 40
1.0
  9
$DIMASZ
 40
3.5
  9
$DIMEXO
 40
1.0
  9
$DIMDLI
 40
3.75
  9
$DIMRND
 40
0.0
  9
$DIMDLE
 40
0.0
  9
$DIMEXE
 40
1.0
  9
$DIMTP
 40
0.0
  9
$DIMTM
 40
0.0
  9
$DIMTXT
 40
3.5
  9
$DIMCEN
 40
2.5
  9
$DIMTSZ
 40
0.0
  9
$DIMTOL
 70
     0
  9
$DIMLIM
 70
     0
  9
$DIMTIH
 70
     1
  9
$DIMTOH
 70
     1
  9
$DIMSE1
 70
     0
  9
$DIMSE2
 70
     0
  9
$DIMTAD
 70
     1
  9
$DIMZIN
 70
     1
  9
$DIMBLK
  1

  9
$DIMASO
 70
     1
  9
$DIMSHO
 70
     1
  9
$DIMPOST
  1

  9
$DIMAPOST
  1

  9
$DIMALT
 70
     0
  9
$DIMALTD
 70
     3
  9
$DIMALTF
 40
0.0393700787
  9
$DIMLFAC
 40
1.0
  9
$DIMTOFL
 70
     1
  9
$DIMTVP
 40
0.0
  9
$DIMTIX
 70
     0
  9
$DIMSOXD
 70
     0
  9
$DIMSAH
 70
     0
  9
$DIMBLK1
  1

  9
$DIMBLK2
  1

  9
$DIMSTYLE
  2
ISO-25
  9
$DIMCLRD
 70
     0
  9
$DIMCLRE
 70
     0
  9
$DIMCLRT
 70
     0
  9
$DIMTFAC
 40
1.0
  9
$DIMGAP
 40
1.524
  9
$DIMJUST
 70
     0
  9
$DIMSD1
 70
     0
  9
$DIMSD2
 70
     0
  9
$DIMTOLJ
 70
     0
  9
$DIMTZIN
 70
     1
  9
$DIMALTZ
 70
     0
  9
$DIMALTTZ
 70
     0
  9
$DIMUPT
 70
     0
  9
$DIMDEC
 70
     2
  9
$DIMTDEC
 70
     2
  9
$DIMALTU
 70
     2
  9
$DIMALTTD
 70
     3
  9
$DIMTXSTY
  7
STANDARD
  9
$DIMAUNIT
 70
     0
  9
$DIMADEC
 70
     2
  9
$DIMALTRND
 40
0.0
  9
$DIMAZIN
 70
     0
  9
$DIMDSEP
 70
    44
  9
$DIMATFIT
 70
     3
  9
$DIMFRAC
 70
     0
  9
$DIMLDRBLK
  1

  9
$DIMLUNIT
 70
     2
  9
$DIMLWD
 70
    -2
  9
$DIMLWE
 70
    -2
  9
$DIMTMOVE
 70
     0
  9
$LUNITS
 70
     2
  9
$LUPREC
 70
     2
  9
$SKETCHINC
 40
1.0
  9
$FILLETRAD
 40
10.0
  9
$AUNITS
 70
     0
  9
$AUPREC
 70
     2
  9
$MENU
  1
.
  9
$ELEVATION
 40
0.0
  9
$PELEVATION
 40
0.0
  9
$THICKNESS
 40
0.0
  9
$LIMCHECK
 70
     0
  9
$CHAMFERA
 40
0.0
  9
$CHAMFERB
 40
0.0
  9
$CHAMFERC
 40
0.0
  9
$CHAMFERD
 40
0.0
  9
$SKPOLY
 70
     0
  9
$TDCREATE
 40
2459188.544026574
  9
$TDUCREATE
 40
2459188.169026574
  9
$TDUPDATE
 40
2459188.54402853
  9
$TDUUPDATE
 40
2459188.16902853
  9
$TDINDWG
 40
0.0000000116
  9
$TDUSRTIMER
 40
0.0000000116
  9
$USRTIMER
 70
     1
  9
$ANGBASE
 50
0.0
  9
$ANGDIR
 70
     0
  9
$PDMODE
 70
     0
  9
$PDSIZE
 40
-1.0
  9
$PLINEWID
 40
0.0
  9
$SPLFRAME
 70
     0
  9
$SPLINETYPE
 70
     6
  9
$SPLINESEGS
 70
     8
  9
$HANDSEED
  5
109
  9
$SURFTAB1
 70
     6
  9
$SURFTAB2
 70
     6
  9
$SURFTYPE
 70
     6
  9
$SURFU
 70
     6
  9
$SURFV
 70
     6
  9
$UCSBASE
  2

  9
$UCSNAME
  2

  9
$UCSORG
 10
0.0
 20
0.0
 30
0.0
  9
$UCSXDIR
 10
1.0
 20
0.0
 30
0.0
  9
$UCSYDIR
 10
0.0
 20
1.0
 30
0.0
  9
$UCSORTHOREF
  2

  9
$UCSORTHOVIEW
 70
     0
  9
$UCSORGTOP
 10
0.0
 20
0.0
 30
0.0
  9
$UCSORGBOTTOM
 10
0.0
 20
0.0
 30
0.0
  9
$UCSORGLEFT
 10
0.0
 20
0.0
 30
0.0
  9
$UCSORGRIGHT
 10
0.0
 20
0.0
 30
0.0
  9
$UCSORGFRONT
 10
0.0
 20
0.0
 30
0.0
  9
$UCSORGBACK
 10
0.0
 20
0.0
 30
0.0
  9
$PUCSBASE
  2

  9
$PUCSNAME
  2

  9
$PUCSORG
 10
0.0
 20
0.0
 30
0.0
  9
$PUCSXDIR
 10
1.0
 20
0.0
 30
0.0
  9
$PUCSYDIR
 10
0.0
 20
1.0
 30
0.0
  9
$PUCSORTHOREF
  2

  9
$PUCSORTHOVIEW
 70
     0
  9
$PUCSORGTOP
 10
0.0
 20
0.0
 30
0.0
  9
$PUCSORGBOTTOM
 10
0.0
 20
0.0
 30
0.0
  9
$PUCSORGLEFT
 10
0.0
 20
0.0
 30
0.0
  9
$PUCSORGRIGHT
 10
0.0
 20
0.0
 30
0.0
  9
$PUCSORGFRONT
 10
0.0
 20
0.0
 30
0.0
  9
$PUCSORGBACK
 10
0.0
 20
0.0
 30
0.0
  9
$USERI1
 70
     0
  9
$USERI2
 70
     0
  9
$USERI3
 70
     0
  9
$USERI4
 70
     0
  9
$USERI5
 70
     0
  9
$USERR1
 40
0.0
  9
$USERR2
 40
0.0
  9
$USERR3
 40
0.0
  9
$USERR4
 40
0.0
  9
$USERR5
 40
0.0
  9
$WORLDVIEW
 70
     1
  9
$SHADEDGE
 70
     3
  9
$SHADEDIF
 70
    70
  9
$TILEMODE
 70
     1
  9
$MAXACTVP
 70
    64
  9
$PINSBASE
 10
0.0
 20
0.0
 30
0.0
  9
$PLIMCHECK
 70
     0
  9
$PEXTMIN
 10
1.0000000000E+20
 20
1.0000000000E+20
 30
1.0000000000E+20
  9
$PEXTMAX
 10
-1.0000000000E+20
 20
-1.0000000000E+20
 30
-1.0000000000E+20
  9
$PLIMMIN
 10
0.0
 20
0.0
  9
$PLIMMAX
 10
420.0
 20
297.0
  9
$UNITMODE
 70
     0
  9
$VISRETAIN
 70
     1
  9
$PLINEGEN
 70
     0
  9
$PSLTSCALE
 70
     1
  9
$TREEDEPTH
 70
  3020
  9
$CMLSTYLE
  2
Standard
  9
$CMLJUST
 70
     0
  9
$CMLSCALE
 40
20.0
  9
$PROXYGRAPHICS
 70
     1
  9
$MEASUREMENT
 70
     1
  9
$CELWEIGHT
370
    -1
  9
$ENDCAPS
280
     0
  9
$JOINSTYLE
280
     0
  9
$LWDISPLAY
290
     1
  9
$INSUNITS
 70
     4
  9
$HYPERLINKBASE
  1

  9
$STYLESHEET
  1

  9
$XEDIT
290
     1
  9
$CEPSNTYPE
380
     0
  9
$PSTYLEMODE
290
     1
  9
$FINGERPRINTGUID
  2
{8ED7F7D5-B792-4AE0-9124-DD0B126AB045}
  9
$VERSIONGUID
  2
{FAEB1C32-E019-11D5-929B-00C0DF256EC4}
  9
$EXTNAMES
290
     1
  9
$PSVPSCALE
 40
0.0
  9
$OLESTARTUP
290
     0
  0
ENDSEC
  0
SECTION
  2
CLASSES
  0
CLASS
  1
ACDBDICTIONARYWDFLT
  2
AcDbDictionaryWithDefault
  3
ObjectDBX Classes
 90
        0
280
     0
281
     0
  0
CLASS
  1
VISUALSTYLE
  2
AcDbVisualStyle
  3
ObjectDBX Classes
 90
     4095
280
     0
281
     0
  0
CLASS
  1
MATERIAL
  2
AcDbMaterial
  3
ObjectDBX Classes
 90
     1153
280
     0
281
     0
  0
CLASS
  1
SCALE
  2
AcDbScale
  3
ObjectDBX Classes
 90
     1153
280
     0
281
     0
  0
CLASS
  1
TABLESTYLE
  2
AcDbTableStyle
  3
ObjectDBX Classes
 90
     4095
280
     0
281
     0
  0
CLASS
  1
MLEADERSTYLE
  2
AcDbMLeaderStyle
  3
ACDB_MLEADERSTYLE_CLASS
 90
     4095
280
     0
281
     0
  0
CLASS
  1
SUN
  2
AcDbSun
  3
SCENEOE
 90
     1153
280
     0
281
     0
  0
CLASS
  1
ACDBPLACEHOLDER
  2
AcDbPlaceHolder
  3
ObjectDBX Classes
 90
        0
280
     0
281
     0
  0
CLASS
  1
LAYOUT
  2
AcDbLayout
  3
ObjectDBX Classes
 90
        0
280
     0
281
     0
  0
ENDSEC
  0
SECTION
  2
TABLES
  0
TABLE
  2
VPORT
  5
8
330
0
100
AcDbSymbolTable
 70
     1
  0
VPORT
  5
29
330
8
100
AcDbSymbolTableRecord
100
AcDbViewportTableRecord
  2
*Active
 70
     0
 10
0.0
 20
0.0
 11
1.0
 21
1.0
 12
139.7
 22
107.95
 13
0.0
 23
0.0
 14
10.0
 24
10.0
 15
10.0
 25
10.0
 16
0.0
 26
0.0
 36
1.0
 17
0.0
 27
0.0
 37
0.0
 40
215.9
 41
1.2941176471
 42
50.0
 43
0.0
 44
0.0
 50
0.0
 51
0.0
 71
     0
 72
  2000
 73
     1
 74
     3
 75
     0
 76
     0
 77
     0
 78
     0
281
     0
 65
     1
110
0.0
120
0.0
130
0.0
111
1.0
121
0.0
131
0.0
112
0.0
122
1.0
132
0.0
 79
     0
146
0.0
  0
ENDTAB
  0
TABLE
  2
LTYPE
  5
5
330
0
100
AcDbSymbolTable
 70
     6
  0
LTYPE
  5
14
330
5
100
AcDbSymbolTableRecord
100
AcDbLinetypeTableRecord
  2
ByBlock
 70
     0
  3

 72
    65
 73
     0
 40
0.0
  0
LTYPE
  5
15
330
5
100
AcDbSymbolTableRecord
100
AcDbLinetypeTableRecord
  2
ByLayer
 70
     0
  3

 72
    65
 73
     0
 40
0.0
  0
LTYPE
  5
16
330
5
100
AcDbSymbolTableRecord
100
AcDbLinetypeTableRecord
  2
Continuous
 70
     0
  3
Solid line
 72
    65
 73
     0
 40
0.0
  0
LTYPE
  5
6E
330
5
100
AcDbSymbolTableRecord
100
AcDbLinetypeTableRecord
  2
HIDDEN
 70
     0
  3
Hidden __ __ __ __ __ __ __ __ __ __ __ __ __ __
 72
    65
 73
     2
 40
1.905
 49
1.27
 74
     0
 49
-0.635
 74
     0
  0
LTYPE
  5
6F
330
5
100
AcDbSymbolTableRecord
100
AcDbLinetypeTableRecord
  2
PHANTOM
 70
     0
  3
Phantom ______  __  __  ______  __  __  ______
 72
    65
 73
     6
 40
12.7
 49
6.35
 74
     0
 49
-1.27
 74
     0
 49
1.27
 74
     0
 49
-1.27
 74
     0
 49
1.27
 74
     0
 49
-1.27
 74
     0
  0
LTYPE
  5
70
330
5
100
AcDbSymbolTableRecord
100
AcDbLinetypeTableRecord
  2
CENTER
 70
     0
  3
Center ____ _ ____ _ ____ _ ____ _ ____ _ ____
 72
    65
 73
     4
 40
10.16
 49
6.35
 74
     0
 49
-1.27
 74
     0
 49
1.27
 74
     0
 49
-1.27
 74
     0
  0
LTYPE
  5
71
330
5
100
AcDbSymbolTableRecord
100
AcDbLinetypeTableRecord
  2
CENTERX2
 70
     0
  3
Center (2x) ________  __  ________  __  _____
 72
    65
 73
     4
 40
20.32
 49
12.7
 74
     0
 49
-2.54
 74
     0
 49
2.54
 74
     0
 49
-2.54
 74
     0
  0
LTYPE
  5
72
330
5
100
AcDbSymbolTableRecord
100
AcDbLinetypeTableRecord
  2
DOT2
 70
     0
  3
Dot (.5x) ........................................
 72
    65
 73
     2
 40
0.635
 49
0.0
 74
     0
 49
-0.635
 74
     0
  0
ENDTAB
  0
TABLE
  2
LAYER
  5
2
330
0
100
AcDbSymbolTable
 70
    10
  0
LAYER
  5
10
330
2
100
AcDbSymbolTableRecord
100
AcDbLayerTableRecord
  2
0
 70
     0
 62
     7
  6
Continuous
370
    -3
390
F
  0
LAYER
  5
73
330
2
100
AcDbSymbolTableRecord
100
AcDbLayerTableRecord
  2
1
 70
     0
 62
     4
  6
Continuous
370
    -3
390
F
  0
LAYER
  5
74
330
2
100
AcDbSymbolTableRecord
100
AcDbLayerTableRecord
  2
2
 70
     0
 62
     7
  6
Continuous
370
    -3
390
F
  0
LAYER
  5
75
330
2
100
AcDbSymbolTableRecord
100
AcDbLayerTableRecord
  2
4
 70
     0
 62
     2
  6
CENTER
370
    -3
390
F
  0
LAYER
  5
76
330
2
100
AcDbSymbolTableRecord
100
AcDbLayerTableRecord
  2
CUT
 70
     0
 62
     1
  6
Continuous
370
    -3
390
F
  0
LAYER
  5
77
330
2
100
AcDbSymbolTableRecord
100
AcDbLayerTableRecord
  2
INFTOTAL
 70
     0
 62
     9
  6
Continuous
370
    -3
390
F
  0
LAYER
  5
78
330
2
100
AcDbSymbolTableRecord
100
AcDbLayerTableRecord
  2
NOCUT
 70
     0
 62
     7
  6
Continuous
370
    -3
390
F
  0
LAYER
  5
79
330
2
100
AcDbSymbolTableRecord
100
AcDbLayerTableRecord
  2
SK1
 70
     0
 62
     4
  6
Continuous
370
    -3
390
F
  0
LAYER
  5
7A
330
2
100
AcDbSymbolTableRecord
100
AcDbLayerTableRecord
  2
SK2
 70
     0
 62
     7
  6
Continuous
370
    -3
390
F
  0
LAYER
  5
7B
330
2
100
AcDbSymbolTableRecord
100
AcDbLayerTableRecord
  2
SK4
 70
     0
 62
     2
  6
CENTER
370
    -3
390
F
  0
ENDTAB
  0
TABLE
  2
STYLE
  5
3
330
0
100
AcDbSymbolTable
 70
     2
  0
STYLE
  5
11
330
3
100
AcDbSymbolTableRecord
100
AcDbTextStyleTableRecord
  2
STANDARD
 70
     0
 40
0.0
 41
1.0
 50
0.0
 71
     0
 42
3.5
  3
C:\PROGRAM FILES\SOLIDWORKS CORP\SOLIDWORKS VISUALIZE\PLUGINS\SPATIAL.PLUGIN\WIN_B64\RESOURCES\FONTS\EXTRAFILES\TRUETYPE\MONOS.TTF
  4

1001
ACAD
1000
MONOSPAC821 BT
1071
       49
  0
STYLE
  5
D0
330
3
100
AcDbSymbolTableRecord
100
AcDbTextStyleTableRecord
  2
SLDTEXTSTYLE0
 70
     0
 40
0.0
 41
1.0
 50
0.0
 71
     0
 42
3.5
  3
C:\PROGRAM FILES\SOLIDWORKS CORP\SOLIDWORKS VISUALIZE\PLUGINS\SPATIAL.PLUGIN\WIN_B64\RESOURCES\FONTS\EXTRAFILES\TRUETYPE\MONOS.TTF
  4

1001
ACAD
1000
Monospac821 BT
1071
      305
  0
ENDTAB
  0
TABLE
  2
VIEW
  5
6
330
0
100
AcDbSymbolTable
 70
     0
  0
ENDTAB
  0
TABLE
  2
UCS
  5
7
330
0
100
AcDbSymbolTable
 70
     0
  0
ENDTAB
  0
TABLE
  2
APPID
  5
9
330
0
100
AcDbSymbolTable
 70
     1
  0
APPID
  5
12
330
9
100
AcDbSymbolTableRecord
100
AcDbRegAppTableRecord
  2
ACAD
 70
     0
  0
ENDTAB
  0
TABLE
  2
DIMSTYLE
  5
A
330
0
100
AcDbSymbolTable
 70
     3
100
AcDbDimStyleTable
  0
DIMSTYLE
105
27
330
A
100
AcDbSymbolTableRecord
100
AcDbDimStyleTableRecord
  2
ISO-25
 70
     0
 41
2.5
 42
0.625
 43
3.75
 44
1.25
 73
     0
 74
     0
 77
     1
 78
     8
140
2.5
141
2.5
143
0.0393700787
147
0.625
171
     3
172
     1
178
     0
271
     2
272
     2
274
     3
278
    44
283
     0
284
     8
340
11
  0
DIMSTYLE
105
D1
102
{ACAD_REACTORS
330
CF
330
DC
330
F4
330
FF
102
}
330
A
100
AcDbSymbolTableRecord
100
AcDbDimStyleTableRecord
  2
SLDDIMSTYLE0
 70
     0
 41
3.5
 44
0.0
 45
0.000000001
 73
     0
 74
     0
 77
     1
 78
     4
 79
     1
140
3.5
147
0.875
173
     1
178
     0
271
     2
272
     2
276
     2
284
    12
340
D0
  0
DIMSTYLE
105
E8
102
{ACAD_REACTORS
330
E7
102
}
330
A
100
AcDbSymbolTableRecord
100
AcDbDimStyleTableRecord
  2
SLDDIMSTYLE1
 70
     0
 41
3.5
 44
0.0
 45
0.000000001
 73
     0
 74
     0
 77
     1
 78
     4
 79
     1
140
3.5
147
0.875
172
     1
173
     1
178
     0
271
     2
272
     2
276
     2
284
    12
289
     0
340
D0
  0
ENDTAB
  0
TABLE
  2
BLOCK_RECORD
  5
1
330
0
100
AcDbSymbolTable
 70
     8
  0
BLOCK_RECORD
  5
1F
330
1
100
AcDbSymbolTableRecord
100
AcDbBlockTableRecord
  2
*Model_Space
340
22
  0
BLOCK_RECORD
  5
1B
330
1
100
AcDbSymbolTableRecord
100
AcDbBlockTableRecord
  2
*Paper_Space
340
1E
  0
BLOCK_RECORD
  5
23
330
1
100
AcDbSymbolTableRecord
100
AcDbBlockTableRecord
  2
*Paper_Space0
340
26
  0
BLOCK_RECORD
  5
7C
330
1
100
AcDbSymbolTableRecord
100
AcDbBlockTableRecord
  2
reference point
340
0
102
{BLKREFS
331
CD
102
}
  0
BLOCK_RECORD
  5
8C
330
1
100
AcDbSymbolTableRecord
100
AcDbBlockTableRecord
  2
ﾌﾞﾛｯｸ10
340
0
102
{BLKREFS
331
CE
102
}
  0
BLOCK_RECORD
  5
D2
330
1
100
AcDbSymbolTableRecord
100
AcDbBlockTableRecord
  2
_D
340
0
  0
BLOCK_RECORD
  5
DD
330
1
100
AcDbSymbolTableRecord
100
AcDbBlockTableRecord
  2
_D_1
340
0
  0
BLOCK_RECORD
  5
E9
330
1
100
AcDbSymbolTableRecord
100
AcDbBlockTableRecord
  2
_D_2
340
0
  0
BLOCK_RECORD
  5
F5
330
1
100
AcDbSymbolTableRecord
100
AcDbBlockTableRecord
  2
_D_3
340
0
  0
BLOCK_RECORD
  5
100
330
1
100
AcDbSymbolTableRecord
100
AcDbBlockTableRecord
  2
_D_4
340
0
  0
ENDTAB
  0
ENDSEC
  0
SECTION
  2
BLOCKS
  0
BLOCK
  5
20
330
1F
100
AcDbEntity
  8
0
100
AcDbBlockBegin
  2
*Model_Space
 70
     0
 10
0.0
 20
0.0
 30
0.0
  3
*Model_Space
  1

  0
ENDBLK
  5
21
330
1F
100
AcDbEntity
  8
0
100
AcDbBlockEnd
  0
BLOCK
  5
1C
330
1B
100
AcDbEntity
 67
     1
  8
0
100
AcDbBlockBegin
  2
*Paper_Space
 70
     0
 10
0.0
 20
0.0
 30
0.0
  3
*Paper_Space
  1

  0
ENDBLK
  5
1D
330
1B
100
AcDbEntity
 67
     1
  8
0
100
AcDbBlockEnd
  0
BLOCK
  5
24
330
23
100
AcDbEntity
  8
0
100
AcDbBlockBegin
  2
*Paper_Space0
 70
     0
 10
0.0
 20
0.0
 30
0.0
  3
*Paper_Space0
  1

  0
ENDBLK
  5
25
330
23
100
AcDbEntity
  8
0
100
AcDbBlockEnd
  0
BLOCK
  5
7D
330
7C
100
AcDbEntity
  8
0
100
AcDbBlockBegin
  2
reference point
 70
     0
 10
0.0
 20
0.0
 30
0.0
  3
reference point
  1

  0
CIRCLE
  5
7F
330
7C
100
AcDbEntity
  8
SK1
100
AcDbCircle
 10
136.1986742837
 20
88.2977191024
 30
0.0
 40
1.750000000000014
  0
LINE
  5
80
330
7C
100
AcDbEntity
  8
SK1
100
AcDbLine
 10
136.1986742837
 20
90.0477191024
 30
0.0
 11
136.1986742837
 21
86.5477191024
 31
0.0
  0
LINE
  5
81
330
7C
100
AcDbEntity
  8
SK1
100
AcDbLine
 10
134.4486742837
 20
88.2977191024
 30
0.0
 11
137.9486742837
 21
88.2977191024
 31
0.0
  0
LINE
  5
82
330
7C
100
AcDbEntity
  8
SK1
100
AcDbLine
 10
135.8042789774
 20
88.2977191024
 30
0.0
 11
136.1986742837
 21
88.6921144087
 31
0.0
  0
LINE
  5
83
330
7C
100
AcDbEntity
  8
SK1
100
AcDbLine
 10
135.3800149087
 20
88.2977191024
 30
0.0
 11
136.1986742837
 21
89.1163784774
 31
0.0
  0
LINE
  5
84
330
7C
100
AcDbEntity
  8
SK1
100
AcDbLine
 10
134.95575084
 20
88.2977191024
 30
0.0
 11
136.1986742837
 21
89.5406425461
 31
0.0
  0
LINE
  5
85
330
7C
100
AcDbEntity
  8
SK1
100
AcDbLine
 10
134.5314867713
 20
88.2977191024
 30
0.0
 11
136.1986742837
 21
89.9649066148
 31
0.0
  0
LINE
  5
86
330
7C
100
AcDbEntity
  8
SK1
100
AcDbLine
 10
134.4913537751
 20
88.6818501749
 30
0.0
 11
135.8145432112
 21
90.005039611
 31
0.0
  0
LINE
  5
87
330
7C
100
AcDbEntity
  8
SK1
  6
Continuous
 62
     4
370
    18
100
AcDbLine
 10
137.0173336587
 20
88.2977191024
 30
0.0
 11
136.1986742837
 21
87.4790597274
 31
0.0
  0
LINE
  5
88
330
7C
100
AcDbEntity
  8
SK1
  6
Continuous
 62
     4
370
    18
100
AcDbLine
 10
137.4415977274
 20
88.2977191024
 30
0.0
 11
136.1986742837
 21
87.0547956587
 31
0.0
  0
LINE
  5
89
330
7C
100
AcDbEntity
  8
SK1
  6
Continuous
 62
     4
370
    18
100
AcDbLine
 10
137.8658617961
 20
88.2977191024
 30
0.0
 11
136.1986742837
 21
86.63053159
 31
0.0
  0
LINE
  5
8A
330
7C
100
AcDbEntity
  8
SK1
  6
Continuous
 62
     4
370
    18
100
AcDbLine
 10
137.9059947923
 20
87.9135880299
 30
0.0
 11
136.5828053562
 21
86.5903985938
 31
0.0
  0
LINE
  5
8B
330
7C
100
AcDbEntity
  8
SK1
  6
Continuous
 62
     4
370
    18
100
AcDbLine
 10
136.59306959
 20
88.2977191024
 30
0.0
 11
136.1986742837
 21
87.9033237961
 31
0.0
  0
ENDBLK
  5
7E
330
7C
100
AcDbEntity
  8
0
100
AcDbBlockEnd
  0
BLOCK
  5
8D
330
8C
100
AcDbEntity
  8
0
100
AcDbBlockBegin
  2
ﾌﾞﾛｯｸ10
 70
     0
 10
0.0
 20
0.0
 30
0.0
  3
ﾌﾞﾛｯｸ10
  1

  0
ARC
  5
8F
330
8C
100
AcDbEntity
  8
CUT
100
AcDbCircle
 10
14.3258048248
 20
13.2379940672
 30
0.0
 40
0.7499999999997531
100
AcDbArc
 50
7.3149460472
 51
90.0
  0
ARC
  5
90
330
8C
100
AcDbEntity
  8
CUT
100
AcDbCircle
 10
8.8040371259
 20
0.75
 30
0.0
 40
0.7499999999998056
100
AcDbArc
 50
247.3149460472
 51
330.0
  0
ARC
  5
91
330
8C
100
AcDbEntity
  8
CUT
100
AcDbCircle
 10
0.75
 20
11.7759887901
 30
0.0
 40
0.74999999999996
100
AcDbArc
 50
127.3149234909
 51
209.9999774437
  0
LINE
  5
92
330
8C
100
AcDbEntity
  8
CUT
100
AcDbLine
 10
15.0697007721
 20
13.3334865779
 30
0.0
 11
15.4090190406
 21
10.6901642593
 31
0.0
  0
LINE
  5
93
330
8C
100
AcDbEntity
  8
CUT
100
AcDbLine
 10
8.5147880924
 20
0.0580209565
 30
0.0
 11
6.0559446798
 21
1.0858238754
 31
0.0
  0
LINE
  5
94
330
8C
100
AcDbEntity
  8
CUT
100
AcDbLine
 10
0.295353321
 20
12.3724755019
 30
0.0
 11
2.4148791011
 21
13.9879940672
 31
0.0
  0
LINE
  5
95
330
8C
100
AcDbEntity
  8
CUT
100
AcDbLine
 10
0.1004807995
 20
11.4009890458
 30
0.0
 11
6.0559446798
 21
1.0858238754
 31
0.0
  0
LINE
  5
96
330
8C
100
AcDbEntity
  8
CUT
100
AcDbLine
 10
9.4535561788
 20
0.375
 30
0.0
 11
15.4090190406
 21
10.6901642593
 31
0.0
  0
LINE
  5
97
330
8C
100
AcDbEntity
  8
CUT
100
AcDbLine
 10
14.3258048248
 20
13.9879940672
 30
0.0
 11
2.4148791011
 21
13.9879940672
 31
0.0
  0
ENDBLK
  5
8E
330
8C
100
AcDbEntity
  8
0
100
AcDbBlockEnd
  0
BLOCK
  5
D3
330
D2
100
AcDbEntity
  8
0
100
AcDbBlockBegin
  2
_D
 70
     0
 10
0.0
 20
0.0
 30
0.0
  3
_D
  1

  0
SOLID
  5
D5
330
D2
100
AcDbEntity
  8
SK2
100
AcDbTrace
 10
-24.2608116297
 20
45.0
 30
0.0
 11
-24.7992731682
 21
41.5
 31
0.0
 12
-23.7223500913
 22
41.5
 32
0.0
 13
-23.7223500913
 23
41.5
 33
0.0
  0
SOLID
  5
D6
330
D2
100
AcDbEntity
  8
SK2
100
AcDbTrace
 10
-24.2608116297
 20
-45.0
 30
0.0
 11
-23.7223500913
 21
-41.5
 31
0.0
 12
-24.7992731682
 22
-41.5
 32
0.0
 13
-24.7992731682
 23
-41.5
 33
0.0
  0
LINE
  5
D7
330
D2
100
AcDbEntity
  8
SK2
100
AcDbLine
 10
0.0
 20
45.0
 30
0.0
 11
-25.2608116297
 21
45.0
 31
0.0
  0
LINE
  5
D8
330
D2
100
AcDbEntity
  8
SK2
100
AcDbLine
 10
0.0
 20
-45.0
 30
0.0
 11
-25.2608116297
 21
-45.0
 31
0.0
  0
LINE
  5
D9
330
D2
100
AcDbEntity
  8
SK2
100
AcDbLine
 10
-24.2608116297
 20
45.0
 30
0.0
 11
-24.2608116297
 21
-45.0
 31
0.0
  0
MTEXT
  5
DA
330
D2
100
AcDbEntity
  8
SK2
100
AcDbMText
 10
-28.8869400527
 20
-9.4609889418
 30
0.0
 40
3.5
 41
0.0
 71
     1
 72
     1
  1
%%c
  7
SLDTEXTSTYLE0
 11
-6.156016597943509E-15
 21
1.0
 31
0.0
 73
     1
 44
1.0
  0
MTEXT
  5
DB
330
D2
100
AcDbEntity
  8
SK2
100
AcDbMText
 10
-28.8674955508
 20
-4.210259787
 30
0.0
 40
3.5
 41
0.0
 71
     1
 72
     1
  1
90.00
  7
SLDTEXTSTYLE0
 11
-6.156016597943509E-15
 21
1.0
 31
0.0
 73
     1
 44
1.0
  0
ENDBLK
  5
D4
330
D2
100
AcDbEntity
  8
0
100
AcDbBlockEnd
  0
BLOCK
  5
DE
330
DD
100
AcDbEntity
  8
0
100
AcDbBlockBegin
  2
_D_1
 70
     0
 10
0.0
 20
0.0
 30
0.0
  3
_D_1
  1

  0
SOLID
  5
E0
330
DD
100
AcDbEntity
  8
SK2
100
AcDbTrace
 10
9.0
 20
-57.6336617643
 30
0.0
 11
5.5
 21
-57.0952002259
 31
0.0
 12
5.5
 22
-58.1721233028
 32
0.0
 13
5.5
 23
-58.1721233028
 33
0.0
  0
SOLID
  5
E1
330
DD
100
AcDbEntity
  8
SK2
100
AcDbTrace
 10
0.0
 20
-57.6336617643
 30
0.0
 11
3.5
 21
-58.1721233028
 31
0.0
 12
3.5
 22
-57.0952002259
 32
0.0
 13
3.5
 23
-57.0952002259
 33
0.0
  0
LINE
  5
E2
330
DD
100
AcDbEntity
  8
SK2
100
AcDbLine
 10
9.0
 20
-8.7
 30
0.0
 11
9.0
 21
-58.6336617643
 31
0.0
  0
LINE
  5
E3
330
DD
100
AcDbEntity
  8
SK2
100
AcDbLine
 10
0.0
 20
-45.0
 30
0.0
 11
0.0
 21
-58.6336617643
 31
0.0
  0
LINE
  5
E4
330
DD
100
AcDbEntity
  8
SK2
100
AcDbLine
 10
9.0
 20
-57.6336617643
 30
0.0
 11
0.0
 21
-57.6336617643
 31
0.0
  0
LINE
  5
E5
330
DD
100
AcDbEntity
  8
SK2
100
AcDbLine
 10
0.0
 20
-57.6336617643
 30
0.0
 11
-13.1314056993
 21
-57.6336617643
 31
0.0
  0
MTEXT
  5
E6
330
DD
100
AcDbEntity
  8
SK2
100
AcDbMText
 10
-13.1314056993
 20
-53.0269778433
 30
0.0
 40
3.5
 41
0.0
 71
     1
 72
     1
  1
9.00
  7
SLDTEXTSTYLE0
 73
     1
 44
1.0
  0
ENDBLK
  5
DF
330
DD
100
AcDbEntity
  8
0
100
AcDbBlockEnd
  0
BLOCK
  5
EA
330
E9
100
AcDbEntity
  8
0
100
AcDbBlockBegin
  2
_D_2
 70
     0
 10
0.0
 20
0.0
 30
0.0
  3
_D_2
  1

  0
SOLID
  5
EC
330
E9
100
AcDbEntity
  8
SK2
100
AcDbTrace
 10
-7.5800167464
 20
8.2
 30
0.0
 11
-7.0415552079
 21
11.7
 31
0.0
 12
-8.1184782849
 22
11.7
 32
0.0
 13
-8.1184782849
 23
11.7
 33
0.0
  0
SOLID
  5
ED
330
E9
100
AcDbEntity
  8
SK2
100
AcDbTrace
 10
-7.5800167464
 20
-8.2
 30
0.0
 11
-8.1184782849
 21
-11.7
 31
0.0
 12
-7.0415552079
 22
-11.7
 32
0.0
 13
-7.0415552079
 23
-11.7
 33
0.0
  0
LINE
  5
EE
330
E9
100
AcDbEntity
  8
SK2
100
AcDbLine
 10
0.0
 20
8.2
 30
0.0
 11
-8.5800167464
 21
8.2
 31
0.0
  0
LINE
  5
EF
330
E9
100
AcDbEntity
  8
SK2
100
AcDbLine
 10
0.0
 20
-8.2
 30
0.0
 11
-8.5800167464
 21
-8.2
 31
0.0
  0
LINE
  5
F0
330
E9
100
AcDbEntity
  8
SK2
100
AcDbLine
 10
-7.5800167464
 20
8.2
 30
0.0
 11
-7.5800167464
 21
14.9307692308
 31
0.0
  0
LINE
  5
F1
330
E9
100
AcDbEntity
  8
SK2
100
AcDbLine
 10
-7.5800167464
 20
8.2
 30
0.0
 11
-7.5800167464
 21
-8.2
 31
0.0
  0
LINE
  5
F2
330
E9
100
AcDbEntity
  8
SK2
100
AcDbLine
 10
-7.5800167464
 20
-8.2
 30
0.0
 11
-7.5800167464
 21
-14.9307692308
 31
0.0
  0
MTEXT
  5
F3
330
E9
100
AcDbEntity
  8
SK2
100
AcDbMText
 10
-12.1867006674
 20
-7.6035005651
 30
0.0
 40
3.5
 41
0.0
 71
     1
 72
     1
  1
16.40
  7
SLDTEXTSTYLE0
 11
-7.044195017643634E-15
 21
1.0
 31
0.0
 73
     1
 44
1.0
  0
ENDBLK
  5
EB
330
E9
100
AcDbEntity
  8
0
100
AcDbBlockEnd
  0
BLOCK
  5
F6
330
F5
100
AcDbEntity
  8
0
100
AcDbBlockBegin
  2
_D_3
 70
     0
 10
0.0
 20
0.0
 30
0.0
  3
_D_3
  1

  0
SOLID
  5
F8
330
F5
100
AcDbEntity
  8
2
100
AcDbTrace
 10
76.3583591215
 20
62.5
 30
0.0
 11
75.8198975831
 21
59.0
 31
0.0
 12
76.89682066
 22
59.0
 32
0.0
 13
76.89682066
 23
59.0
 33
0.0
  0
SOLID
  5
F9
330
F5
100
AcDbEntity
  8
2
100
AcDbTrace
 10
76.3583591215
 20
-62.5
 30
0.0
 11
76.89682066
 21
-59.0
 31
0.0
 12
75.8198975831
 22
-59.0
 32
0.0
 13
75.8198975831
 23
-59.0
 33
0.0
  0
LINE
  5
FA
330
F5
100
AcDbEntity
  8
2
100
AcDbLine
 10
62.9167857842
 20
62.5
 30
0.0
 11
77.3583591215
 21
62.5
 31
0.0
  0
LINE
  5
FB
330
F5
100
AcDbEntity
  8
2
100
AcDbLine
 10
62.9167857842
 20
-62.5
 30
0.0
 11
77.3583591215
 21
-62.5
 31
0.0
  0
LINE
  5
FC
330
F5
100
AcDbEntity
  8
2
100
AcDbLine
 10
76.3583591215
 20
62.5
 30
0.0
 11
76.3583591215
 21
-62.5
 31
0.0
  0
MTEXT
  5
FD
330
F5
100
AcDbEntity
  8
2
100
AcDbMText
 10
71.7322306985
 20
-9.8877732907
 30
0.0
 40
3.5
 41
0.0
 71
     1
 72
     1
  1
%%c
  7
SLDTEXTSTYLE0
 11
-1.148508711614426E-14
 21
1.0
 31
0.0
 73
     1
 44
1.0
  0
MTEXT
  5
FE
330
F5
100
AcDbEntity
  8
2
100
AcDbMText
 10
71.7516752005
 20
-4.6370441359
 30
0.0
 40
3.5
 41
0.0
 71
     1
 72
     1
  1
125.00
  7
SLDTEXTSTYLE0
 11
-1.148508711614426E-14
 21
1.0
 31
0.0
 73
     1
 44
1.0
  0
ENDBLK
  5
F7
330
F5
100
AcDbEntity
  8
0
100
AcDbBlockEnd
  0
BLOCK
  5
101
330
100
100
AcDbEntity
  8
0
100
AcDbBlockBegin
  2
_D_4
 70
     0
 10
0.0
 20
0.0
 30
0.0
  3
_D_4
  1

  0
SOLID
  5
103
330
100
100
AcDbEntity
  8
2
100
AcDbTrace
 10
63.0
 20
69.1575802632
 30
0.0
 11
59.5
 21
69.6960418017
 31
0.0
 12
59.5
 22
68.6191187248
 32
0.0
 13
59.5
 23
68.6191187248
 33
0.0
  0
SOLID
  5
104
330
100
100
AcDbEntity
  8
2
100
AcDbTrace
 10
0.0
 20
69.1575802632
 30
0.0
 11
3.5
 21
68.6191187248
 31
0.0
 12
3.5
 22
69.6960418017
 32
0.0
 13
3.5
 23
69.6960418017
 33
0.0
  0
LINE
  5
105
330
100
100
AcDbEntity
  8
2
100
AcDbLine
 10
63.0
 20
60.2021701921
 30
0.0
 11
63.0
 21
70.1575802632
 31
0.0
  0
LINE
  5
106
330
100
100
AcDbEntity
  8
2
100
AcDbLine
 10
0.0
 20
45.0
 30
0.0
 11
0.0
 21
70.1575802632
 31
0.0
  0
LINE
  5
107
330
100
100
AcDbEntity
  8
2
100
AcDbLine
 10
63.0
 20
69.1575802632
 30
0.0
 11
0.0
 21
69.1575802632
 31
0.0
  0
MTEXT
  5
108
330
100
100
AcDbEntity
  8
2
100
AcDbMText
 10
24.7520285383
 20
73.7642641843
 30
0.0
 40
3.5
 41
0.0
 71
     1
 72
     1
  1
63.00
  7
SLDTEXTSTYLE0
 73
     1
 44
1.0
  0
ENDBLK
  5
102
330
100
100
AcDbEntity
  8
0
100
AcDbBlockEnd
  0
ENDSEC
  0
SECTION
  2
ENTITIES
  0
LINE
  5
98
330
1F
100
AcDbEntity
  8
1
100
AcDbLine
 10
0.0
 20
44.0
 30
0.0
 11
0.0
 21
9.2
 31
0.0
  0
LINE
  5
99
330
1F
100
AcDbEntity
  8
INFTOTAL
100
AcDbLine
 10
-50.0
 20
180.0
 30
0.0
 11
350.0
 21
180.0
 31
0.0
  0
LINE
  5
9A
330
1F
100
AcDbEntity
  8
INFTOTAL
100
AcDbLine
 10
-50.0
 20
180.0
 30
0.0
 11
-50.0
 21
-120.0
 31
0.0
  0
LINE
  5
9B
330
1F
100
AcDbEntity
  8
INFTOTAL
100
AcDbLine
 10
-50.0
 20
-120.0
 30
0.0
 11
350.0
 21
-120.0
 31
0.0
  0
LINE
  5
9C
330
1F
100
AcDbEntity
  8
INFTOTAL
100
AcDbLine
 10
350.0
 20
180.0
 30
0.0
 11
350.0
 21
-120.0
 31
0.0
  0
LINE
  5
9D
330
1F
100
AcDbEntity
  8
1
100
AcDbLine
 10
1.0
 20
-45.0
 30
0.0
 11
15.0
 21
-45.0
 31
0.0
  0
LINE
  5
9E
330
1F
100
AcDbEntity
  8
1
100
AcDbLine
 10
15.6840402867
 20
-44.8793852416
 30
0.0
 11
17.0
 21
-44.4004150764
 31
0.0
  0
LINE
  5
9F
330
1F
100
AcDbEntity
  8
1
100
AcDbLine
 10
23.6483875187
 20
-46.181845143
 30
0.0
 11
33.9240275754
 21
-58.4278760969
 31
0.0
  0
LINE
  5
A0
330
1F
100
AcDbEntity
  8
1
100
AcDbLine
 10
41.5844720066
 20
-62.0
 30
0.0
 11
61.0
 21
-62.0
 31
0.0
  0
LINE
  5
A1
330
1F
100
AcDbEntity
  8
1
100
AcDbLine
 10
62.0
 20
61.0
 30
0.0
 11
62.0
 21
-61.0
 31
0.0
  0
LINE
  5
A2
330
1F
100
AcDbEntity
  8
1
100
AcDbLine
 10
61.0
 20
62.0
 30
0.0
 11
41.5844720066
 21
62.0
 31
0.0
  0
LINE
  5
A3
330
1F
100
AcDbEntity
  8
1
100
AcDbLine
 10
33.9240275754
 20
58.4278760969
 30
0.0
 11
23.6483875187
 21
46.181845143
 31
0.0
  0
LINE
  5
A4
330
1F
100
AcDbEntity
  8
1
100
AcDbLine
 10
17.0
 20
44.4004150764
 30
0.0
 11
15.6840402867
 21
44.8793852416
 31
0.0
  0
LINE
  5
A5
330
1F
100
AcDbEntity
  8
1
100
AcDbLine
 10
15.0
 20
45.0
 30
0.0
 11
1.0
 21
45.0
 31
0.0
  0
LINE
  5
A6
330
1F
100
AcDbEntity
  8
SK4
  6
CENTERX2
100
AcDbLine
 10
-5.0
 20
0.0
 30
0.0
 11
68.0
 21
0.0
 31
0.0
  0
LINE
  5
A7
330
1F
100
AcDbEntity
  8
1
100
AcDbLine
 10
1.0
 20
45.0
 30
0.0
 11
0.0
 21
44.0
 31
0.0
  0
LINE
  5
A8
330
1F
100
AcDbEntity
  8
1
100
AcDbLine
 10
0.0
 20
-44.0
 30
0.0
 11
1.0
 21
-45.0
 31
0.0
  0
LINE
  5
A9
330
1F
100
AcDbEntity
  8
1
100
AcDbLine
 10
1.0
 20
45.0
 30
0.0
 11
1.0
 21
8.2
 31
0.0
  0
LINE
  5
AA
330
1F
100
AcDbEntity
  8
1
100
AcDbLine
 10
15.0
 20
45.0
 30
0.0
 11
15.0
 21
-45.0
 31
0.0
  0
LINE
  5
AB
330
1F
100
AcDbEntity
  8
1
100
AcDbLine
 10
15.6840402867
 20
44.8793852416
 30
0.0
 11
15.6840402867
 21
-44.8793852416
 31
0.0
  0
LINE
  5
AC
330
1F
100
AcDbEntity
  8
1
100
AcDbLine
 10
17.0
 20
44.4004150764
 30
0.0
 11
17.0
 21
-44.4004150764
 31
0.0
  0
LINE
  5
AD
330
1F
100
AcDbEntity
  8
1
100
AcDbLine
 10
23.6483875187
 20
46.181845143
 30
0.0
 11
23.6483875187
 21
-46.181845143
 31
0.0
  0
LINE
  5
AE
330
1F
100
AcDbEntity
  8
1
100
AcDbLine
 10
62.0
 20
61.0
 30
0.0
 11
61.0
 21
62.0
 31
0.0
  0
LINE
  5
AF
330
1F
100
AcDbEntity
  8
1
100
AcDbLine
 10
62.0
 20
-61.0
 30
0.0
 11
61.0
 21
-62.0
 31
0.0
  0
LINE
  5
B0
330
1F
100
AcDbEntity
  8
NOCUT
100
AcDbLine
 10
61.0
 20
62.0
 30
0.0
 11
62.0
 21
61.0
 31
0.0
  0
LINE
  5
B1
330
1F
100
AcDbEntity
  8
1
100
AcDbLine
 10
1.0
 20
8.2
 30
0.0
 11
8.5
 21
8.2
 31
0.0
  0
LINE
  5
B2
330
1F
100
AcDbEntity
  8
1
100
AcDbLine
 10
9.0
 20
7.7
 30
0.0
 11
9.0
 21
-7.7
 31
0.0
  0
LINE
  5
B3
330
1F
100
AcDbEntity
  8
1
100
AcDbLine
 10
8.5
 20
-8.2
 30
0.0
 11
1.0
 21
-8.2
 31
0.0
  0
LINE
  5
B4
330
1F
100
AcDbEntity
  8
1
100
AcDbLine
 10
0.0
 20
9.2
 30
0.0
 11
1.0
 21
8.2
 31
0.0
  0
LINE
  5
B5
330
1F
100
AcDbEntity
  8
1
100
AcDbLine
 10
1.0
 20
-8.2
 30
0.0
 11
0.0
 21
-9.2
 31
0.0
  0
LINE
  5
B6
330
1F
100
AcDbEntity
  8
1
100
AcDbLine
 10
0.0
 20
-9.2
 30
0.0
 11
0.0
 21
-44.0
 31
0.0
  0
LINE
  5
B7
330
1F
100
AcDbEntity
  8
1
100
AcDbLine
 10
1.0
 20
-8.2
 30
0.0
 11
1.0
 21
-45.0
 31
0.0
  0
LINE
  5
B8
330
1F
100
AcDbEntity
  8
4
100
AcDbLine
 10
62.0
 20
0.0
 30
0.0
 11
0.0
 21
0.0
 31
0.0
  0
LINE
  5
B9
330
1F
100
AcDbEntity
  8
NOCUT
100
AcDbLine
 10
1.0
 20
45.0
 30
0.0
 11
0.0
 21
44.0
 31
0.0
  0
LINE
  5
BA
330
1F
100
AcDbEntity
  8
NOCUT
100
AcDbLine
 10
1.0
 20
45.0
 30
0.0
 11
15.0
 21
45.0
 31
0.0
  0
LINE
  5
BB
330
1F
100
AcDbEntity
  8
NOCUT
100
AcDbLine
 10
17.0
 20
44.4004150764
 30
0.0
 11
15.6840402867
 21
44.8793852416
 31
0.0
  0
LINE
  5
BC
330
1F
100
AcDbEntity
  8
NOCUT
100
AcDbLine
 10
33.9240275754
 20
58.4278760969
 30
0.0
 11
23.6483875187
 21
46.181845143
 31
0.0
  0
LINE
  5
BD
330
1F
100
AcDbEntity
  8
NOCUT
100
AcDbLine
 10
61.0
 20
62.0
 30
0.0
 11
41.5844720066
 21
62.0
 31
0.0
  0
LINE
  5
BE
330
1F
100
AcDbEntity
  8
NOCUT
100
AcDbLine
 10
62.0
 20
0.0
 30
0.0
 11
62.0
 21
61.0
 31
0.0
  0
LINE
  5
BF
330
1F
100
AcDbEntity
  8
1
100
AcDbLine
 10
61.0
 20
62.0
 30
0.0
 11
61.0
 21
-62.0
 31
0.0
  0
LINE
  5
C0
330
1F
100
AcDbEntity
  8
NOCUT
100
AcDbLine
 10
0.0
 20
44.0
 30
0.0
 11
0.0
 21
0.0
 31
0.0
  0
LINE
  5
C1
330
1F
100
AcDbEntity
  8
NOCUT
100
AcDbLine
 10
62.0
 20
0.0
 30
0.0
 11
0.0
 21
0.0
 31
0.0
  0
ARC
  5
C2
330
1F
100
AcDbEntity
  8
1
100
AcDbCircle
 10
15.0
 20
43.0
 30
0.0
 40
2.0
100
AcDbArc
 50
70.0
 51
90.0
  0
ARC
  5
C3
330
1F
100
AcDbEntity
  8
1
100
AcDbCircle
 10
15.0
 20
-43.0
 30
0.0
 40
2.0
100
AcDbArc
 50
270.0
 51
290.0
  0
ARC
  5
C4
330
1F
100
AcDbEntity
  8
1
100
AcDbCircle
 10
19.05212086
 20
50.0385708011
 30
0.0
 40
6.000000000000028
100
AcDbArc
 50
250.0
 51
320.0
  0
ARC
  5
C5
330
1F
100
AcDbEntity
  8
1
100
AcDbCircle
 10
19.05212086
 20
-50.0385708011
 30
0.0
 40
6.000000000000028
100
AcDbArc
 50
40.0
 51
110.0
  0
ARC
  5
C6
330
1F
100
AcDbEntity
  8
1
100
AcDbCircle
 10
41.5844720066
 20
52.0
 30
0.0
 40
10.00000000000001
100
AcDbArc
 50
90.0
 51
140.0
  0
ARC
  5
C7
330
1F
100
AcDbEntity
  8
1
100
AcDbCircle
 10
41.5844720066
 20
-52.0
 30
0.0
 40
10.00000000000001
100
AcDbArc
 50
220.0
 51
270.0
  0
ARC
  5
C8
330
1F
100
AcDbEntity
  8
1
100
AcDbCircle
 10
8.5
 20
-7.7
 30
0.0
 40
0.5000000000000036
100
AcDbArc
 50
270.0
 51
0.0
  0
ARC
  5
C9
330
1F
100
AcDbEntity
  8
1
100
AcDbCircle
 10
8.5
 20
7.7
 30
0.0
 40
0.5000000000000036
100
AcDbArc
 50
0.0
 51
90.0
  0
ARC
  5
CA
330
1F
100
AcDbEntity
  8
NOCUT
100
AcDbCircle
 10
15.0
 20
43.0
 30
0.0
 40
2.0
100
AcDbArc
 50
70.0
 51
90.0
  0
ARC
  5
CB
330
1F
100
AcDbEntity
  8
NOCUT
100
AcDbCircle
 10
19.05212086
 20
50.0385708011
 30
0.0
 40
6.000000000000028
100
AcDbArc
 50
250.0
 51
320.0
  0
ARC
  5
CC
330
1F
100
AcDbEntity
  8
NOCUT
100
AcDbCircle
 10
41.5844720066
 20
52.0
 30
0.0
 40
10.00000000000001
100
AcDbArc
 50
90.0
 51
140.0
  0
INSERT
  5
CD
330
1F
100
AcDbEntity
  8
SK1
100
AcDbBlockReference
  2
reference point
 10
-136.1986742837
 20
-88.2977191024
 30
0.0
  0
INSERT
  5
CE
330
1F
100
AcDbEntity
  8
CUT
100
AcDbBlockReference
  2
ﾌﾞﾛｯｸ10
 10
47.5909809594
 20
48.5120059328
 30
0.0
  0
DIMENSION
  5
CF
330
1F
100
AcDbEntity
  8
SK2
100
AcDbDimension
  2
_D
 10
-24.2608116297
 20
-45.0
 30
0.0
 11
-24.2608116297
 21
0.1036119432
 31
0.0
 70
   160
  1
%%c<>
 71
     2
 42
-1.0
  3
SLDDIMSTYLE0
100
AcDbAlignedDimension
 13
1.0
 23
45.0
 33
0.0
 14
1.0
 24
-45.0
 34
0.0
 50
90.0
100
AcDbRotatedDimension
  0
DIMENSION
  5
DC
330
1F
100
AcDbEntity
  8
SK2
100
AcDbDimension
  2
_D_1
 10
0.0
 20
-57.6336617643
 30
0.0
 11
-7.5800167464
 21
-57.6336617643
 31
0.0
 70
   160
  1
<>
 71
     2
 42
-1.0
  3
SLDDIMSTYLE0
100
AcDbAlignedDimension
 13
9.0
 23
-7.7
 33
0.0
 14
0.0
 24
-44.0
 34
0.0
100
AcDbRotatedDimension
  0
DIMENSION
  5
E7
330
1F
100
AcDbEntity
  8
SK2
100
AcDbDimension
  2
_D_2
 10
-7.5800167464
 20
-8.2
 30
0.0
 11
-7.5800167464
 21
-0.6642644905
 31
0.0
 70
   160
  1
<>
 71
     2
 42
-1.0
  3
SLDDIMSTYLE1
100
AcDbAlignedDimension
 13
1.0
 23
8.2
 33
0.0
 14
1.0
 24
-8.2
 34
0.0
 50
90.0
100
AcDbRotatedDimension
  0
DIMENSION
  5
F4
330
1F
100
AcDbEntity
  8
2
100
AcDbDimension
  2
_D_3
 10
76.3583591215
 20
-62.5
 30
0.0
 11
76.3583591215
 21
1.0646751817
 31
0.0
 70
   160
  1
%%c<>
 71
     2
 42
-1.0
  3
SLDDIMSTYLE0
100
AcDbAlignedDimension
 13
61.9167857842
 23
62.5
 33
0.0
 14
61.9167857842
 24
-62.5
 34
0.0
 50
90.0
100
AcDbRotatedDimension
  0
DIMENSION
  5
FF
330
1F
100
AcDbEntity
  8
2
100
AcDbDimension
  2
_D_4
 10
0.0
 20
69.1575802632
 30
0.0
 11
31.691264613
 21
69.1575802632
 31
0.0
 70
   160
  1
<>
 71
     2
 42
-1.0
  3
SLDDIMSTYLE0
100
AcDbAlignedDimension
 13
63.0
 23
59.2021701921
 33
0.0
 14
0.0
 24
44.0
 34
0.0
100
AcDbRotatedDimension
  0
ENDSEC
  0
SECTION
  2
OBJECTS
  0
DICTIONARY
  5
C
330
0
100
AcDbDictionary
281
     1
  3
ACAD_GROUP
350
D
  3
ACAD_LAYOUT
350
1A
  3
ACAD_MLINESTYLE
350
17
  3
ACAD_PLOTSETTINGS
350
19
  3
ACAD_PLOTSTYLENAME
350
E
  3
ACAD_SCALELIST
350
47
  0
DICTIONARY
  5
D
102
{ACAD_REACTORS
330
C
102
}
330
C
100
AcDbDictionary
281
     1
  0
DICTIONARY
  5
1A
102
{ACAD_REACTORS
330
C
102
}
330
C
100
AcDbDictionary
281
     1
  3
Layout1
350
1E
  3
Layout2
350
26
  3
Model
350
22
  0
DICTIONARY
  5
17
102
{ACAD_REACTORS
330
C
102
}
330
C
100
AcDbDictionary
281
     1
  3
Standard
350
18
  0
DICTIONARY
  5
19
102
{ACAD_REACTORS
330
C
102
}
330
C
100
AcDbDictionary
281
     1
  0
ACDBDICTIONARYWDFLT
  5
E
102
{ACAD_REACTORS
330
C
102
}
330
C
100
AcDbDictionary
281
     1
  3
Normal
350
F
100
AcDbDictionaryWithDefault
340
F
  0
DICTIONARY
  5
47
102
{ACAD_REACTORS
330
C
102
}
330
C
100
AcDbDictionary
281
     1
  3
A0
350
48
  3
A1
350
49
  3
A2
350
4A
  3
A3
350
4B
  3
A4
350
4C
  3
A5
350
4D
  3
A6
350
4E
  3
A7
350
4F
  3
A8
350
50
  3
A9
350
51
  3
B0
350
52
  3
B1
350
53
  3
B2
350
54
  3
B3
350
55
  3
B4
350
56
  3
B5
350
57
  3
B6
350
58
  3
B7
350
59
  3
B8
350
5A
  3
B9
350
5B
  3
C0
350
5C
  3
C1
350
5D
  3
C2
350
5E
  3
C3
350
5F
  3
C4
350
60
  3
C5
350
61
  3
C6
350
62
  3
C7
350
63
  3
C8
350
64
  3
C9
350
65
  3
D0
350
66
  3
D1
350
67
  3
D2
350
68
  0
LAYOUT
  5
1E
102
{ACAD_REACTORS
330
1A
102
}
330
1A
100
AcDbPlotSettings
  1

  2
none_device
  4

  6

 40
0.0
 41
0.0
 42
0.0
 43
0.0
 44
0.0
 45
0.0
 46
0.0
 47
0.0
 48
0.0
 49
0.0
140
0.0
141
0.0
142
1.0
143
1.0
 70
   688
 72
     1
 73
     0
 74
     5
  7

 75
    16
147
1.0
148
0.0
149
0.0
100
AcDbLayout
  1
Layout1
 70
     1
 71
     1
 10
0.0
 20
0.0
 11
420.0
 21
297.0
 12
0.0
 22
0.0
 32
0.0
 14
1.0000000000E+20
 24
1.0000000000E+20
 34
1.0000000000E+20
 15
-1.0000000000E+20
 25
-1.0000000000E+20
 35
-1.0000000000E+20
146
0.0
 13
0.0
 23
0.0
 33
0.0
 16
1.0
 26
0.0
 36
0.0
 17
0.0
 27
1.0
 37
0.0
 76
     0
330
1B
  0
LAYOUT
  5
26
102
{ACAD_REACTORS
330
1A
102
}
330
1A
100
AcDbPlotSettings
  1

  2
none_device
  4

  6

 40
0.0
 41
0.0
 42
0.0
 43
0.0
 44
0.0
 45
0.0
 46
0.0
 47
0.0
 48
0.0
 49
0.0
140
0.0
141
0.0
142
1.0
143
1.0
 70
   688
 72
     1
 73
     0
 74
     5
  7

 75
    16
147
1.0
148
0.0
149
0.0
100
AcDbLayout
  1
Layout2
 70
     1
 71
     2
 10
0.0
 20
0.0
 11
0.0
 21
0.0
 12
0.0
 22
0.0
 32
0.0
 14
0.0
 24
0.0
 34
0.0
 15
0.0
 25
0.0
 35
0.0
146
0.0
 13
0.0
 23
0.0
 33
0.0
 16
1.0
 26
0.0
 36
0.0
 17
0.0
 27
1.0
 37
0.0
 76
     0
330
23
  0
LAYOUT
  5
22
102
{ACAD_REACTORS
330
1A
102
}
330
1A
100
AcDbPlotSettings
  1

  2
none_device
  4
Letter_(8.50_x_11.00_Inches)
  6

 40
6.35
 41
6.35
 42
6.35000508
 43
6.35000508
 44
215.9
 45
279.4
 46
0.0
 47
0.0
 48
0.0
 49
0.0
140
0.0
141
0.0
142
1.0
143
1.0
 70
  1712
 72
     1
 73
     0
 74
     0
  7

 75
     0
147
1.0
148
0.0
149
0.0
100
AcDbLayout
  1
Model
 70
     1
 71
     0
 10
0.0
 20
0.0
 11
279.4
 21
215.9
 12
0.0
 22
0.0
 32
0.0
 14
0.0
 24
0.0
 34
0.0
 15
279.4
 25
215.9
 35
0.0
146
0.0
 13
0.0
 23
0.0
 33
0.0
 16
1.0
 26
0.0
 36
0.0
 17
0.0
 27
1.0
 37
0.0
 76
     0
330
1F
331
29
  0
MLINESTYLE
  5
18
102
{ACAD_REACTORS
330
17
102
}
330
17
100
AcDbMlineStyle
  2
Standard
 70
     0
  3

 62
   256
 51
90.0
 52
90.0
 71
     2
 49
0.5
 62
   256
  6
BYLAYER
 49
-0.5
 62
   256
  6
BYLAYER
  0
ACDBPLACEHOLDER
  5
F
102
{ACAD_REACTORS
330
E
102
}
330
E
  0
SCALE
  5
48
102
{ACAD_REACTORS
330
47
102
}
330
47
100
AcDbScale
 70
     0
300
1:1
140
1.0
141
1.0
290
     1
  0
SCALE
  5
49
102
{ACAD_REACTORS
330
47
102
}
330
47
100
AcDbScale
 70
     0
300
1:2
140
1.0
141
2.0
290
     0
  0
SCALE
  5
4A
102
{ACAD_REACTORS
330
47
102
}
330
47
100
AcDbScale
 70
     0
300
1:4
140
1.0
141
4.0
290
     0
  0
SCALE
  5
4B
102
{ACAD_REACTORS
330
47
102
}
330
47
100
AcDbScale
 70
     0
300
1:5
140
1.0
141
5.0
290
     0
  0
SCALE
  5
4C
102
{ACAD_REACTORS
330
47
102
}
330
47
100
AcDbScale
 70
     0
300
1:8
140
1.0
141
8.0
290
     0
  0
SCALE
  5
4D
102
{ACAD_REACTORS
330
47
102
}
330
47
100
AcDbScale
 70
     0
300
1:10
140
1.0
141
10.0
290
     0
  0
SCALE
  5
4E
102
{ACAD_REACTORS
330
47
102
}
330
47
100
AcDbScale
 70
     0
300
1:16
140
1.0
141
16.0
290
     0
  0
SCALE
  5
4F
102
{ACAD_REACTORS
330
47
102
}
330
47
100
AcDbScale
 70
     0
300
1:20
140
1.0
141
20.0
290
     0
  0
SCALE
  5
50
102
{ACAD_REACTORS
330
47
102
}
330
47
100
AcDbScale
 70
     0
300
1:30
140
1.0
141
30.0
290
     0
  0
SCALE
  5
51
102
{ACAD_REACTORS
330
47
102
}
330
47
100
AcDbScale
 70
     0
300
1:40
140
1.0
141
40.0
290
     0
  0
SCALE
  5
52
102
{ACAD_REACTORS
330
47
102
}
330
47
100
AcDbScale
 70
     0
300
1:50
140
1.0
141
50.0
290
     0
  0
SCALE
  5
53
102
{ACAD_REACTORS
330
47
102
}
330
47
100
AcDbScale
 70
     0
300
1:100
140
1.0
141
100.0
290
     0
  0
SCALE
  5
54
102
{ACAD_REACTORS
330
47
102
}
330
47
100
AcDbScale
 70
     0
300
2:1
140
2.0
141
1.0
290
     0
  0
SCALE
  5
55
102
{ACAD_REACTORS
330
47
102
}
330
47
100
AcDbScale
 70
     0
300
4:1
140
4.0
141
1.0
290
     0
  0
SCALE
  5
56
102
{ACAD_REACTORS
330
47
102
}
330
47
100
AcDbScale
 70
     0
300
8:1
140
8.0
141
1.0
290
     0
  0
SCALE
  5
57
102
{ACAD_REACTORS
330
47
102
}
330
47
100
AcDbScale
 70
     0
300
10:1
140
10.0
141
1.0
290
     0
  0
SCALE
  5
58
102
{ACAD_REACTORS
330
47
102
}
330
47
100
AcDbScale
 70
     0
300
100:1
140
100.0
141
1.0
290
     0
  0
SCALE
  5
59
102
{ACAD_REACTORS
330
47
102
}
330
47
100
AcDbScale
 70
     0
300
1/128" = 1'-0"
140
0.0078125
141
12.0
290
     0
  0
SCALE
  5
5A
102
{ACAD_REACTORS
330
47
102
}
330
47
100
AcDbScale
 70
     0
300
1/64" = 1'-0"
140
0.015625
141
12.0
290
     0
  0
SCALE
  5
5B
102
{ACAD_REACTORS
330
47
102
}
330
47
100
AcDbScale
 70
     0
300
1/32" = 1'-0"
140
0.03125
141
12.0
290
     0
  0
SCALE
  5
5C
102
{ACAD_REACTORS
330
47
102
}
330
47
100
AcDbScale
 70
     0
300
1/16" = 1'-0"
140
0.0625
141
12.0
290
     0
  0
SCALE
  5
5D
102
{ACAD_REACTORS
330
47
102
}
330
47
100
AcDbScale
 70
     0
300
3/32" = 1'-0"
140
0.09375
141
12.0
290
     0
  0
SCALE
  5
5E
102
{ACAD_REACTORS
330
47
102
}
330
47
100
AcDbScale
 70
     0
300
1/8" = 1'-0"
140
0.125
141
12.0
290
     0
  0
SCALE
  5
5F
102
{ACAD_REACTORS
330
47
102
}
330
47
100
AcDbScale
 70
     0
300
3/16" = 1'-0"
140
0.1875
141
12.0
290
     0
  0
SCALE
  5
60
102
{ACAD_REACTORS
330
47
102
}
330
47
100
AcDbScale
 70
     0
300
1/4" = 1'-0"
140
0.25
141
12.0
290
     0
  0
SCALE
  5
61
102
{ACAD_REACTORS
330
47
102
}
330
47
100
AcDbScale
 70
     0
300
3/8" = 1'-0"
140
0.375
141
12.0
290
     0
  0
SCALE
  5
62
102
{ACAD_REACTORS
330
47
102
}
330
47
100
AcDbScale
 70
     0
300
1/2" = 1'-0"
140
0.5
141
12.0
290
     0
  0
SCALE
  5
63
102
{ACAD_REACTORS
330
47
102
}
330
47
100
AcDbScale
 70
     0
300
3/4" = 1'-0"
140
0.75
141
12.0
290
     0
  0
SCALE
  5
64
102
{ACAD_REACTORS
330
47
102
}
330
47
100
AcDbScale
 70
     0
300
1" = 1'-0"
140
1.0
141
12.0
290
     0
  0
SCALE
  5
65
102
{ACAD_REACTORS
330
47
102
}
330
47
100
AcDbScale
 70
     0
300
1-1/2" = 1'-0"
140
1.5
141
12.0
290
     0
  0
SCALE
  5
66
102
{ACAD_REACTORS
330
47
102
}
330
47
100
AcDbScale
 70
     0
300
3" = 1'-0"
140
3.0
141
12.0
290
     0
  0
SCALE
  5
67
102
{ACAD_REACTORS
330
47
102
}
330
47
100
AcDbScale
 70
     0
300
6" = 1'-0"
140
6.0
141
12.0
290
     0
  0
SCALE
  5
68
102
{ACAD_REACTORS
330
47
102
}
330
47
100
AcDbScale
 70
     0
300
1'-0" = 1'-0"
140
12.0
141
12.0
290
     0
  0
ENDSEC
  0
EOF
