  0
SECTION
  2
HEADER
  9
$ACADVER
  1
AC1015
  9
$DWGCODEPAGE
  3
ANSI_932
  9
$HANDSEED
  5
106AB90
  0
ENDSEC
  0
SECTION
  2
CLASSES
  0
CLASS
  1
IMAGEDEF
  2
AcDbRasterImageDef
  3
ISM
  90
0
  91
4
  280
0
  281
0
  0
CLASS
  1
IMAGE
  2
AcDbRasterImage
  3
ISM
  90
127
  91
5
  280
0
  281
1
  0
CLASS
  1
IMAGEDEF_REACTOR
  2
AcDbRasterImageDefReactor
  3
ISM
  90
1
  91
4
  280
0
  281
0
  0
ENDSEC
  0
SECTION
  2
TABLES
  0
TABLE
  2
VPORT
  5
2
  330
0
  100
AcDbSymbolTable
  70
    0
  0
ENDTAB
  0
TABLE
  2
LTYPE
  5
3
  330
0
  100
AcDbSymbolTable
  70
    4
  0
LTYPE
  5
4
  330
3
  100
AcDbSymbolTableRecord
  100
AcDbLinetypeTableRecord
  2
ByBlock
  70
    0
  3

  72
65
  73
    0
  40
0
  0
LTYPE
  5
5
  330
3
  100
AcDbSymbolTableRecord
  100
AcDbLinetypeTableRecord
  2
ByLayer
  70
    0
  3

  72
65
  73
    0
  40
0
  0
LTYPE
  5
6
  330
3
  100
AcDbSymbolTableRecord
  100
AcDbLinetypeTableRecord
  2
CONTINUOUS
  70
    0
  3
Solid Line
  72
65
  73
    0
  40
0
  0
LTYPE
  5
7
  330
3
  100
AcDbSymbolTableRecord
  100
AcDbLinetypeTableRecord
  2
DASH
  70
    0
  3
Hidden
  72
65
  73
2
  40
2.5
  49
1.5
  74
0
  49
-1
  74
0
  0
LTYPE
  5
8
  330
3
  100
AcDbSymbolTableRecord
  100
AcDbLinetypeTableRecord
  2
LONGDASHDASH
  70
    0
  3
__ . __
  72
65
  73
    4
  40
7
  49
4
  74
    0
  49
-1
  74
    0
  49
1
  74
    0
  49
-1
  74
    0
  0
ENDTAB
  0
TABLE
  2
LAYER
  5
9
  330
0
  100
AcDbSymbolTable
  70
    40
  0
LAYER
  5
a
  330
9
  100
AcDbSymbolTableRecord
  100
AcDbLayerTableRecord
  2
0
  70
    0
  62
    0
  6
CONTINUOUS
  390
0
  0
LAYER
  5
c
  330
9
  100
AcDbSymbolTableRecord
  100
AcDbLayerTableRecord
  2
1
  70
    0
  62
    4
  6
CONTINUOUS
  370
50
  390
0
  0
LAYER
  5
d
  330
9
  100
AcDbSymbolTableRecord
  100
AcDbLayerTableRecord
  2
2
  70
    0
  62
    7
  6
CONTINUOUS
  370
25
  390
0
  0
LAYER
  5
f
  330
9
  100
AcDbSymbolTableRecord
  100
AcDbLayerTableRecord
  2
4
  70
    0
  62
    2
  6
LONGDASHDASH
  370
25
  390
0
  0
LAYER
  5
13
  330
9
  100
AcDbSymbolTableRecord
  100
AcDbLayerTableRecord
  2
SK1
  70
    0
  62
    4
  6
CONTINUOUS
  370
50
  390
0
  0
LAYER
  5
14
  330
9
  100
AcDbSymbolTableRecord
  100
AcDbLayerTableRecord
  2
SK2
  70
    0
  62
    7
  6
CONTINUOUS
  370
25
  390
0
  0
LAYER
  5
16
  330
9
  100
AcDbSymbolTableRecord
  100
AcDbLayerTableRecord
  2
SK4
  70
    0
  62
    2
  6
LONGDASHDASH
  370
25
  390
0
  0
LAYER
  5
21
  330
9
  100
AcDbSymbolTableRecord
  100
AcDbLayerTableRecord
  2
NOCUT
  70
    0
  62
    7
  6
CONTINUOUS
  370
25
  390
0
  0
LAYER
  5
22
  330
9
  100
AcDbSymbolTableRecord
  100
AcDbLayerTableRecord
  2
CUT
  70
    0
  62
    1
  6
CONTINUOUS
  370
25
  390
0
  0
LAYER
  5
26
  330
9
  100
AcDbSymbolTableRecord
  100
AcDbLayerTableRecord
  2
INFTOTAL
  70
    0
  62
    9
  6
CONTINUOUS
  370
18
  390
0
  0
ENDTAB
  0
TABLE
  2
STYLE
  5
27
  330
0
  100
AcDbSymbolTable
  70
    1
  0
STYLE
  5
28
  330
27
  100
AcDbSymbolTableRecord
  100
AcDbTextStyleTableRecord
  2
Monospac821 BT
  70
    0
  40
    3.5
  41
1
  50
0
  71
0
  42
3
  3

  4

  1001
ACAD
  1000
Monospac821 BT
  1071
256
  0
ENDTAB
  0
TABLE
  2
VIEW
  5
29
  330
0
  100
AcDbSymbolTable
  70
    0
  0
ENDTAB
  0
TABLE
  2
UCS
  5
2a
  330
0
  100
AcDbSymbolTable
  70
    0
  0
ENDTAB
  0
TABLE
  2
APPID
  5
2b
  330
0
  100
AcDbSymbolTable
  70
    1
  0
APPID
  5
2c
  330
2b
  100
AcDbSymbolTableRecord
  100
AcDbRegAppTableRecord
  2
ACAD
  70
    0
  0
ENDTAB
  0
TABLE
  2
DIMSTYLE
  5
2d
  330
0
  100
AcDbSymbolTable
  70
    1
  100
AcDbDimStyleTable
  0
DIMSTYLE
  105
2e
  330
2d
  100
AcDbSymbolTableRecord
  100
AcDbDimStyleTableRecord
  2
STANDARD
  70
    0
  41
    3
  42
0.5
  44
1
  73
0
  77
1
  78
1
  140
3.5
  141
2.5
  143
0.03937
  147
0.8
  172
1
  174
1
  178
0
  179
1
  271
2
  279
1
  284
1
  340
28
  0
ENDTAB
  0
TABLE
  2
BLOCK_RECORD
  5
2f
  330
0
  100
AcDbSymbolTable
  70
    2
  0
BLOCK_RECORD
  5
30
  330
2f
  100
AcDbSymbolTableRecord
  100
AcDbBlockTableRecord
  2
*Model_Space
  0
BLOCK_RECORD
  5
31
  330
2f
  100
AcDbSymbolTableRecord
  100
AcDbBlockTableRecord
  2
*Paper_Space
  0
BLOCK_RECORD
  5
21f
  330
2f
  100
AcDbSymbolTableRecord
  100
AcDbBlockTableRecord
  2
*D21e
  340
0
  0
BLOCK_RECORD
  5
22d
  330
2f
  100
AcDbSymbolTableRecord
  100
AcDbBlockTableRecord
  2
*D22c
  340
0
  0
BLOCK_RECORD
  5
23b
  330
2f
  100
AcDbSymbolTableRecord
  100
AcDbBlockTableRecord
  2
*D23a
  340
0
  0
BLOCK_RECORD
  5
249
  330
2f
  100
AcDbSymbolTableRecord
  100
AcDbBlockTableRecord
  2
*D248
  340
0
  0
BLOCK_RECORD
  5
257
  330
2f
  100
AcDbSymbolTableRecord
  100
AcDbBlockTableRecord
  2
*D256
  340
0
  0
BLOCK_RECORD
  5
265
  330
2f
  100
AcDbSymbolTableRecord
  100
AcDbBlockTableRecord
  2
*D264
  340
0
  0
BLOCK_RECORD
  5
273
  330
2f
  100
AcDbSymbolTableRecord
  100
AcDbBlockTableRecord
  2
*D272
  340
0
  0
BLOCK_RECORD
  5
281
  330
2f
  100
AcDbSymbolTableRecord
  100
AcDbBlockTableRecord
  2
*D280
  340
0
  0
ENDTAB
  0
ENDSEC
  0
SECTION
  2
BLOCKS
  0
BLOCK
  5
32
  330
30
  100
AcDbEntity
  8
0
  100
AcDbBlockBegin
  2
*Model_Space
  70
    0
  10
0
  20
0
  30
0
  3
*Model_Space
  1

  0
ENDBLK
  5
33
  330
30
  100
AcDbEntity
  8
0
  100
AcDbBlockEnd
  0
BLOCK
  5
34
  330
31
  100
AcDbEntity
  8
0
  100
AcDbBlockBegin
  2
*Paper_Space
  70
    0
  10
0
  20
0
  30
0
  3
*Paper_Space
  1

  0
ENDBLK
  5
35
  330
31
  100
AcDbEntity
  8
0
  100
AcDbBlockEnd
  0
BLOCK
  5
21d
  330
21f
  100
AcDbEntity
  8
SK2
  100
AcDbBlockBegin
  2
*D21e
  70
1
  10
0
  20
0
  30
0
  3
*D21e
  1

  0
LINE
  5
220
  330
21f
  100
AcDbEntity
  8
SK2
  100
AcDbLine
  10
0
  20
-43.59485
  30
0
  11
0
  21
2.6
  31
0
  0
LINE
  5
221
  330
21f
  100
AcDbEntity
  8
SK2
  100
AcDbLine
  10
50
  20
-43.59485
  30
0
  11
50
  21
19.883274
  31
0
  0
LINE
  5
222
  330
21f
  100
AcDbEntity
  8
SK2
  100
AcDbLine
  10
0
  20
-41.59485
  30
0
  11
50
  21
-41.59485
  31
0
  0
SOLID
  5
223
  330
21f
  100
AcDbEntity
  8
SK2
  100
AcDbTrace
  10
0
  20
-41.59485
  30
0
  11
2.478612
  21
-41.268534
  31
0
  12
2.478612
  22
-41.921165
  32
0
  13
2.478612
  23
-41.921165
  33
0
  0
SOLID
  5
224
  330
21f
  100
AcDbEntity
  8
SK2
  100
AcDbTrace
  10
50
  20
-41.59485
  30
0
  11
47.521388
  21
-41.921165
  31
0
  12
47.521388
  22
-41.268534
  32
0
  13
47.521388
  23
-41.268534
  33
0
  0
MTEXT
  5
225
  330
21f
  100
AcDbEntity
  8
SK2
  100
AcDbMText
  10
25
  20
-41.59485
  30
0
  11
1
  21
-0
  31
0
  40
2
  41
0
  71
8
  72
1
  1
50
  0
POINT
  5
226
  330
21f
  100
AcDbEntity
  8
SK2
  62
0
  100
AcDbPoint
  10
0
  20
2.6
  30
0
  0
POINT
  5
227
  330
21f
  100
AcDbEntity
  8
SK2
  62
0
  100
AcDbPoint
  10
50
  20
19.883274
  30
0
  0
POINT
  5
228
  330
21f
  100
AcDbEntity
  8
SK2
  62
0
  100
AcDbPoint
  10
50
  20
-41.59485
  30
0
  0
ENDBLK
  5
229
  330
21f
  100
AcDbEntity
  8
SK2
  100
AcDbBlockEnd
  0
BLOCK
  5
22b
  330
22d
  100
AcDbEntity
  8
SK2
  100
AcDbBlockBegin
  2
*D22c
  70
1
  10
0
  20
0
  30
0
  3
*D22c
  1

  0
LINE
  5
22e
  330
22d
  100
AcDbEntity
  8
SK2
  100
AcDbLine
  10
33.825786
  20
-33.817496
  30
0
  11
33.825786
  21
3
  31
0
  0
LINE
  5
22f
  330
22d
  100
AcDbEntity
  8
SK2
  100
AcDbLine
  10
0
  20
-43.59485
  30
0
  11
0
  21
2.6
  31
0
  0
LINE
  5
230
  330
22d
  100
AcDbEntity
  8
SK2
  100
AcDbLine
  10
33.825786
  20
-31.817496
  30
0
  11
0
  21
-31.817496
  31
0
  0
SOLID
  5
231
  330
22d
  100
AcDbEntity
  8
SK2
  100
AcDbTrace
  10
33.825786
  20
-31.817496
  30
0
  11
36.304399
  21
-31.49118
  31
0
  12
36.304399
  22
-32.143811
  32
0
  13
36.304399
  23
-32.143811
  33
0
  0
SOLID
  5
232
  330
22d
  100
AcDbEntity
  8
SK2
  100
AcDbTrace
  10
0
  20
-31.817496
  30
0
  11
-2.478612
  21
-32.143811
  31
0
  12
-2.478612
  22
-31.49118
  32
0
  13
-2.478612
  23
-31.49118
  33
0
  0
MTEXT
  5
233
  330
22d
  100
AcDbEntity
  8
SK2
  100
AcDbMText
  10
16.912893
  20
-31.817496
  30
0
  11
1
  21
-0
  31
0
  40
2
  41
0
  71
8
  72
1
  1
33.83
  0
POINT
  5
234
  330
22d
  100
AcDbEntity
  8
SK2
  62
0
  100
AcDbPoint
  10
33.825786
  20
3
  30
0
  0
POINT
  5
235
  330
22d
  100
AcDbEntity
  8
SK2
  62
0
  100
AcDbPoint
  10
0
  20
2.6
  30
0
  0
POINT
  5
236
  330
22d
  100
AcDbEntity
  8
SK2
  62
0
  100
AcDbPoint
  10
0
  20
-31.817496
  30
0
  0
ENDBLK
  5
237
  330
22d
  100
AcDbEntity
  8
SK2
  100
AcDbBlockEnd
  0
BLOCK
  5
239
  330
23b
  100
AcDbEntity
  8
SK2
  100
AcDbBlockBegin
  2
*D23a
  70
1
  10
0
  20
0
  30
0
  3
*D23a
  1

  0
LINE
  5
23c
  330
23b
  100
AcDbEntity
  8
SK2
  100
AcDbLine
  10
0.4
  20
-3
  30
0
  11
-12
  21
-3
  31
0
  0
LINE
  5
23d
  330
23b
  100
AcDbEntity
  8
SK2
  100
AcDbLine
  10
0.4
  20
3
  30
0
  11
-12
  21
3
  31
0
  0
LINE
  5
23e
  330
23b
  100
AcDbEntity
  8
SK2
  100
AcDbLine
  10
-10
  20
-3
  30
0
  11
-10
  21
3
  31
0
  0
SOLID
  5
23f
  330
23b
  100
AcDbEntity
  8
SK2
  100
AcDbTrace
  10
-10
  20
-3
  30
0
  11
-10.326315
  21
-0.521388
  31
0
  12
-9.673685
  22
-0.521388
  32
0
  13
-9.673685
  23
-0.521388
  33
0
  0
SOLID
  5
240
  330
23b
  100
AcDbEntity
  8
SK2
  100
AcDbTrace
  10
-10
  20
3
  30
0
  11
-9.673685
  21
0.521388
  31
0
  12
-10.326315
  22
0.521388
  32
0
  13
-10.326315
  23
0.521388
  33
0
  0
MTEXT
  5
241
  330
23b
  100
AcDbEntity
  8
SK2
  100
AcDbMText
  10
-10
  20
-0.064076
  30
0
  11
0
  21
1
  31
0
  40
2
  41
0
  71
8
  72
1
  1
Ø6
  0
POINT
  5
242
  330
23b
  100
AcDbEntity
  8
SK2
  62
0
  100
AcDbPoint
  10
0.4
  20
-3
  30
0
  0
POINT
  5
243
  330
23b
  100
AcDbEntity
  8
SK2
  62
0
  100
AcDbPoint
  10
0.4
  20
3
  30
0
  0
POINT
  5
244
  330
23b
  100
AcDbEntity
  8
SK2
  62
0
  100
AcDbPoint
  10
-10
  20
3
  30
0
  0
ENDBLK
  5
245
  330
23b
  100
AcDbEntity
  8
SK2
  100
AcDbBlockEnd
  0
BLOCK
  5
247
  330
249
  100
AcDbEntity
  8
2
  100
AcDbBlockBegin
  2
*D248
  70
1
  10
0
  20
0
  30
0
  3
*D248
  1

  0
LINE
  5
24a
  330
249
  100
AcDbEntity
  8
2
  100
AcDbLine
  10
50
  20
-2.3
  30
0
  11
62
  21
-2.3
  31
0
  0
LINE
  5
24b
  330
249
  100
AcDbEntity
  8
2
  100
AcDbLine
  10
50
  20
2.3
  30
0
  11
62
  21
2.3
  31
0
  0
LINE
  5
24c
  330
249
  100
AcDbEntity
  8
2
  100
AcDbLine
  10
60
  20
-2.3
  30
0
  11
60
  21
7.128884
  31
0
  0
SOLID
  5
24d
  330
249
  100
AcDbEntity
  8
2
  100
AcDbTrace
  10
60
  20
-2.3
  30
0
  11
59.673685
  21
0.178612
  31
0
  12
60.326315
  22
0.178612
  32
0
  13
60.326315
  23
0.178612
  33
0
  0
SOLID
  5
24e
  330
249
  100
AcDbEntity
  8
2
  100
AcDbTrace
  10
60
  20
2.3
  30
0
  11
60.326315
  21
-0.178612
  31
0
  12
59.673685
  22
-0.178612
  32
0
  13
59.673685
  23
-0.178612
  33
0
  0
MTEXT
  5
24f
  330
249
  100
AcDbEntity
  8
2
  100
AcDbMText
  10
60
  20
7.345512
  30
0
  11
0
  21
1
  31
0
  40
2
  41
0
  71
8
  72
1
  1
Ø4.6
  0
POINT
  5
250
  330
249
  100
AcDbEntity
  8
2
  62
0
  100
AcDbPoint
  10
50
  20
-2.3
  30
0
  0
POINT
  5
251
  330
249
  100
AcDbEntity
  8
2
  62
0
  100
AcDbPoint
  10
50
  20
2.3
  30
0
  0
POINT
  5
252
  330
249
  100
AcDbEntity
  8
2
  62
0
  100
AcDbPoint
  10
60
  20
7.128884
  30
0
  0
ENDBLK
  5
253
  330
249
  100
AcDbEntity
  8
2
  100
AcDbBlockEnd
  0
BLOCK
  5
255
  330
257
  100
AcDbEntity
  8
2
  100
AcDbBlockBegin
  2
*D256
  70
1
  10
0
  20
0
  30
0
  3
*D256
  1

  0
LINE
  5
258
  330
257
  100
AcDbEntity
  8
2
  100
AcDbLine
  10
47.2
  20
-1.74
  30
0
  11
41.206644
  21
-1.74
  31
0
  0
LINE
  5
259
  330
257
  100
AcDbEntity
  8
2
  100
AcDbLine
  10
47.2
  20
1.74
  30
0
  11
41.206644
  21
1.74
  31
0
  0
LINE
  5
25a
  330
257
  100
AcDbEntity
  8
2
  100
AcDbLine
  10
43.206644
  20
-1.74
  30
0
  11
43.206644
  21
13.411968
  31
0
  0
SOLID
  5
25b
  330
257
  100
AcDbEntity
  8
2
  100
AcDbTrace
  10
43.206644
  20
-1.74
  30
0
  11
42.880328
  21
0.738612
  31
0
  12
43.532959
  22
0.738612
  32
0
  13
43.532959
  23
0.738612
  33
0
  0
SOLID
  5
25c
  330
257
  100
AcDbEntity
  8
2
  100
AcDbTrace
  10
43.206644
  20
1.74
  30
0
  11
43.532959
  21
-0.738612
  31
0
  12
42.880328
  22
-0.738612
  32
0
  13
42.880328
  23
-0.738612
  33
0
  0
MTEXT
  5
25d
  330
257
  100
AcDbEntity
  8
2
  100
AcDbMText
  10
43.206644
  20
3.649444
  30
0
  11
0
  21
1
  31
0
  40
2
  41
0
  71
8
  72
1
  1
Ø3.48
  0
POINT
  5
25e
  330
257
  100
AcDbEntity
  8
2
  62
0
  100
AcDbPoint
  10
47.2
  20
-1.74
  30
0
  0
POINT
  5
25f
  330
257
  100
AcDbEntity
  8
2
  62
0
  100
AcDbPoint
  10
47.2
  20
1.74
  30
0
  0
POINT
  5
260
  330
257
  100
AcDbEntity
  8
2
  62
0
  100
AcDbPoint
  10
43.206644
  20
13.411968
  30
0
  0
ENDBLK
  5
261
  330
257
  100
AcDbEntity
  8
2
  100
AcDbBlockEnd
  0
BLOCK
  5
263
  330
265
  100
AcDbEntity
  8
2
  100
AcDbBlockBegin
  2
*D264
  70
1
  10
0
  20
0
  30
0
  3
*D264
  1

  0
LINE
  5
266
  330
265
  100
AcDbEntity
  8
2
  100
AcDbLine
  10
47.2
  20
-25.322624
  30
0
  11
47.2
  21
1.74
  31
0
  0
LINE
  5
267
  330
265
  100
AcDbEntity
  8
2
  100
AcDbLine
  10
35.5
  20
-25.322624
  30
0
  11
35.5
  21
1.74
  31
0
  0
LINE
  5
268
  330
265
  100
AcDbEntity
  8
2
  100
AcDbLine
  10
47.2
  20
-23.322624
  30
0
  11
35.5
  21
-23.322624
  31
0
  0
SOLID
  5
269
  330
265
  100
AcDbEntity
  8
2
  100
AcDbTrace
  10
47.2
  20
-23.322624
  30
0
  11
49.678612
  21
-22.996309
  31
0
  12
49.678612
  22
-23.64894
  32
0
  13
49.678612
  23
-23.64894
  33
0
  0
SOLID
  5
26a
  330
265
  100
AcDbEntity
  8
2
  100
AcDbTrace
  10
35.5
  20
-23.322624
  30
0
  11
33.021388
  21
-23.64894
  31
0
  12
33.021388
  22
-22.996309
  32
0
  13
33.021388
  23
-22.996309
  33
0
  0
MTEXT
  5
26b
  330
265
  100
AcDbEntity
  8
2
  100
AcDbMText
  10
43.573585
  20
-23.322624
  30
0
  11
1
  21
-0
  31
0
  40
2
  41
0
  71
8
  72
1
  1
11.7
  0
POINT
  5
26c
  330
265
  100
AcDbEntity
  8
2
  62
0
  100
AcDbPoint
  10
47.2
  20
1.74
  30
0
  0
POINT
  5
26d
  330
265
  100
AcDbEntity
  8
2
  62
0
  100
AcDbPoint
  10
35.5
  20
1.74
  30
0
  0
POINT
  5
26e
  330
265
  100
AcDbEntity
  8
2
  62
0
  100
AcDbPoint
  10
35.5
  20
-23.322624
  30
0
  0
ENDBLK
  5
26f
  330
265
  100
AcDbEntity
  8
2
  100
AcDbBlockEnd
  0
BLOCK
  5
271
  330
273
  100
AcDbEntity
  8
2
  100
AcDbBlockBegin
  2
*D272
  70
1
  10
0
  20
0
  30
0
  3
*D272
  1

  0
LINE
  5
274
  330
273
  100
AcDbEntity
  8
2
  100
AcDbLine
  10
47.2
  20
-1.74
  30
0
  11
47.2
  21
-25.273643
  31
0
  0
LINE
  5
275
  330
273
  100
AcDbEntity
  8
2
  100
AcDbLine
  10
50
  20
-43.59485
  30
0
  11
50
  21
19.883274
  31
0
  0
LINE
  5
276
  330
273
  100
AcDbEntity
  8
2
  100
AcDbLine
  10
47.2
  20
-23.273643
  30
0
  11
52.681243
  21
-23.273643
  31
0
  0
SOLID
  5
277
  330
273
  100
AcDbEntity
  8
2
  100
AcDbTrace
  10
47.2
  20
-23.273643
  30
0
  11
49.678612
  21
-22.947327
  31
0
  12
49.678612
  22
-23.599958
  32
0
  13
49.678612
  23
-23.599958
  33
0
  0
SOLID
  5
278
  330
273
  100
AcDbEntity
  8
2
  100
AcDbTrace
  10
50
  20
-23.273643
  30
0
  11
47.521388
  21
-23.599958
  31
0
  12
47.521388
  22
-22.947327
  32
0
  13
47.521388
  23
-22.947327
  33
0
  0
MTEXT
  5
279
  330
273
  100
AcDbEntity
  8
2
  100
AcDbMText
  10
52.825719
  20
-23.273643
  30
0
  11
1
  21
0
  31
0
  40
2
  41
0
  71
8
  72
1
  1
2.8
  0
POINT
  5
27a
  330
273
  100
AcDbEntity
  8
2
  62
0
  100
AcDbPoint
  10
47.2
  20
-1.74
  30
0
  0
POINT
  5
27b
  330
273
  100
AcDbEntity
  8
2
  62
0
  100
AcDbPoint
  10
50
  20
19.883274
  30
0
  0
POINT
  5
27c
  330
273
  100
AcDbEntity
  8
2
  62
0
  100
AcDbPoint
  10
52.681243
  20
-23.273643
  30
0
  0
ENDBLK
  5
27d
  330
273
  100
AcDbEntity
  8
2
  100
AcDbBlockEnd
  0
BLOCK
  5
27f
  330
281
  100
AcDbEntity
  8
2
  100
AcDbBlockBegin
  2
*D280
  70
1
  10
0
  20
0
  30
0
  3
*D280
  1

  0
LINE
  5
282
  330
281
  100
AcDbEntity
  8
2
  100
AcDbLine
  10
32.83
  20
19.883274
  30
0
  11
32.83
  21
-3
  31
0
  0
LINE
  5
283
  330
281
  100
AcDbEntity
  8
2
  100
AcDbLine
  10
50
  20
-43.59485
  30
0
  11
50
  21
19.883274
  31
0
  0
LINE
  5
284
  330
281
  100
AcDbEntity
  8
2
  100
AcDbLine
  10
32.83
  20
17.883274
  30
0
  11
50
  21
17.883274
  31
0
  0
SOLID
  5
285
  330
281
  100
AcDbEntity
  8
2
  100
AcDbTrace
  10
32.83
  20
17.883274
  30
0
  11
35.308612
  21
18.209589
  31
0
  12
35.308612
  22
17.556958
  32
0
  13
35.308612
  23
17.556958
  33
0
  0
SOLID
  5
286
  330
281
  100
AcDbEntity
  8
2
  100
AcDbTrace
  10
50
  20
17.883274
  30
0
  11
47.521388
  21
17.556958
  31
0
  12
47.521388
  22
18.209589
  32
0
  13
47.521388
  23
18.209589
  33
0
  0
MTEXT
  5
287
  330
281
  100
AcDbEntity
  8
2
  100
AcDbMText
  10
40.181307
  20
17.883274
  30
0
  11
1
  21
0
  31
0
  40
2
  41
0
  71
8
  72
1
  1
17.17
  0
POINT
  5
288
  330
281
  100
AcDbEntity
  8
2
  62
0
  100
AcDbPoint
  10
32.83
  20
-3
  30
0
  0
POINT
  5
289
  330
281
  100
AcDbEntity
  8
2
  62
0
  100
AcDbPoint
  10
50
  20
-43.59485
  30
0
  0
POINT
  5
28a
  330
281
  100
AcDbEntity
  8
2
  62
0
  100
AcDbPoint
  10
50
  20
17.883274
  30
0
  0
ENDBLK
  5
28b
  330
281
  100
AcDbEntity
  8
2
  100
AcDbBlockEnd
  0
ENDSEC
  0
SECTION
  2
ENTITIES
  0
DIMENSION
  5
22a
  100
AcDbEntity
  8
SK2
  100
AcDbDimension
  2
*D21e
  10
50
  20
-41.59485
  30
0
  11
25
  21
-41.59485
  31
0
  70
160
  1
<>
  71
5
  3
STANDARD
  42
50
  100
AcDbAlignedDimension
  13
0
  23
2.6
  33
0
  14
50
  24
19.883274
  34
0
  50
0
  100
AcDbRotatedDimension
  0
DIMENSION
  5
238
  100
AcDbEntity
  8
SK2
  100
AcDbDimension
  2
*D22c
  10
0
  20
-31.817496
  30
0
  11
16.912893
  21
-31.817496
  31
0
  70
160
  1
<>
  71
5
  3
STANDARD
  42
33.825786
  100
AcDbAlignedDimension
  13
33.825786
  23
3
  33
0
  14
0
  24
2.6
  34
0
  50
0
  100
AcDbRotatedDimension
  0
DIMENSION
  5
246
  100
AcDbEntity
  8
SK2
  100
AcDbDimension
  2
*D23a
  10
-10
  20
3
  30
0
  11
-10
  21
-0.064076
  31
0
  70
160
  1
%%c<>
  71
5
  3
STANDARD
  42
6
  100
AcDbAlignedDimension
  13
0.4
  23
-3
  33
0
  14
0.4
  24
3
  34
0
  50
-90
  100
AcDbRotatedDimension
  0
DIMENSION
  5
254
  100
AcDbEntity
  8
2
  100
AcDbDimension
  2
*D248
  10
60
  20
7.128884
  30
0
  11
60
  21
7.345512
  31
0
  70
160
  1
%%c<>
  71
5
  3
STANDARD
  42
4.6
  100
AcDbAlignedDimension
  13
50
  23
-2.3
  33
0
  14
50
  24
2.3
  34
0
  50
-90
  100
AcDbRotatedDimension
  0
DIMENSION
  5
262
  100
AcDbEntity
  8
2
  100
AcDbDimension
  2
*D256
  10
43.206644
  20
13.411968
  30
0
  11
43.206644
  21
3.649444
  31
0
  70
160
  1
%%c<>
  71
5
  3
STANDARD
  42
3.48
  100
AcDbAlignedDimension
  13
47.2
  23
-1.74
  33
0
  14
47.2
  24
1.74
  34
0
  50
-90
  100
AcDbRotatedDimension
  0
DIMENSION
  5
270
  100
AcDbEntity
  8
2
  100
AcDbDimension
  2
*D264
  10
35.5
  20
-23.322624
  30
0
  11
43.573585
  21
-23.322624
  31
0
  70
160
  1
<>
  71
5
  3
STANDARD
  42
11.7
  100
AcDbAlignedDimension
  13
47.2
  23
1.74
  33
0
  14
35.5
  24
1.74
  34
0
  50
0
  100
AcDbRotatedDimension
  0
DIMENSION
  5
27e
  100
AcDbEntity
  8
2
  100
AcDbDimension
  2
*D272
  10
52.681243
  20
-23.273643
  30
0
  11
52.825719
  21
-23.273643
  31
0
  70
160
  1
<>
  71
5
  3
STANDARD
  42
2.8
  100
AcDbAlignedDimension
  13
47.2
  23
-1.74
  33
0
  14
50
  24
19.883274
  34
0
  50
0
  100
AcDbRotatedDimension
  0
DIMENSION
  5
28c
  100
AcDbEntity
  8
2
  100
AcDbDimension
  2
*D280
  10
50
  20
17.883274
  30
0
  11
40.181307
  21
17.883274
  31
0
  70
160
  1
<>
  71
5
  3
STANDARD
  42
17.17
  100
AcDbAlignedDimension
  13
32.83
  23
-3
  33
0
  14
50
  24
-43.59485
  34
0
  50
0
  100
AcDbRotatedDimension
  0
LINE
  5
36
  100
AcDbEntity
  8
1
  100
AcDbLine
  10
50
  20
2.18743
  30
0
  11
49.9
  21
2.18743
  31
0
  0
LINE
  5
37
  100
AcDbEntity
  8
1
  100
AcDbLine
  10
49.9
  20
2.18743
  30
0
  11
49.8
  21
2.18743
  31
0
  0
LINE
  5
38
  100
AcDbEntity
  8
1
  100
AcDbLine
  10
49.8
  20
2.18743
  30
0
  11
49.7
  21
2.18743
  31
0
  0
LINE
  5
39
  100
AcDbEntity
  8
1
  100
AcDbLine
  10
49.7
  20
2.18743
  30
0
  11
49.6
  21
2.18743
  31
0
  0
LINE
  5
3a
  100
AcDbEntity
  8
1
  100
AcDbLine
  10
49.6
  20
2.18743
  30
0
  11
49.5
  21
2.18743
  31
0
  0
LINE
  5
3b
  100
AcDbEntity
  8
1
  100
AcDbLine
  10
49.5
  20
2.18743
  30
0
  11
49.4
  21
2.18743
  31
0
  0
LINE
  5
3c
  100
AcDbEntity
  8
1
  100
AcDbLine
  10
49.4
  20
2.18743
  30
0
  11
49.3
  21
2.18743
  31
0
  0
LINE
  5
3d
  100
AcDbEntity
  8
1
  100
AcDbLine
  10
49.3
  20
2.18743
  30
0
  11
49.2
  21
2.18743
  31
0
  0
LINE
  5
3e
  100
AcDbEntity
  8
1
  100
AcDbLine
  10
49.2
  20
2.18743
  30
0
  11
49.1
  21
2.18743
  31
0
  0
LINE
  5
3f
  100
AcDbEntity
  8
1
  100
AcDbLine
  10
49.1
  20
2.18743
  30
0
  11
49
  21
2.18743
  31
0
  0
LINE
  5
40
  100
AcDbEntity
  8
1
  100
AcDbLine
  10
49
  20
2.18743
  30
0
  11
48.9
  21
2.18743
  31
0
  0
LINE
  5
41
  100
AcDbEntity
  8
1
  100
AcDbLine
  10
48.9
  20
2.18743
  30
0
  11
48.8
  21
2.18743
  31
0
  0
LINE
  5
42
  100
AcDbEntity
  8
1
  100
AcDbLine
  10
48.8
  20
2.18743
  30
0
  11
48.7
  21
2.18743
  31
0
  0
LINE
  5
43
  100
AcDbEntity
  8
1
  100
AcDbLine
  10
48.7
  20
2.18743
  30
0
  11
48.6
  21
2.18743
  31
0
  0
LINE
  5
44
  100
AcDbEntity
  8
1
  100
AcDbLine
  10
48.6
  20
2.18743
  30
0
  11
48.5
  21
2.18743
  31
0
  0
LINE
  5
45
  100
AcDbEntity
  8
1
  100
AcDbLine
  10
48.5
  20
2.18743
  30
0
  11
48.4
  21
2.18743
  31
0
  0
LINE
  5
46
  100
AcDbEntity
  8
1
  100
AcDbLine
  10
48.4
  20
2.18743
  30
0
  11
48.3
  21
2.18743
  31
0
  0
LINE
  5
47
  100
AcDbEntity
  8
1
  100
AcDbLine
  10
48.3
  20
2.18743
  30
0
  11
48.2
  21
2.18743
  31
0
  0
LINE
  5
48
  100
AcDbEntity
  8
1
  100
AcDbLine
  10
48.2
  20
2.18743
  30
0
  11
48.1
  21
2.18743
  31
0
  0
LINE
  5
49
  100
AcDbEntity
  8
1
  100
AcDbLine
  10
48.1
  20
2.18743
  30
0
  11
48
  21
2.18743
  31
0
  0
LINE
  5
4a
  100
AcDbEntity
  8
1
  100
AcDbLine
  10
48
  20
2.18743
  30
0
  11
47.9
  21
2.18743
  31
0
  0
LINE
  5
4b
  100
AcDbEntity
  8
1
  100
AcDbLine
  10
47.9
  20
2.18743
  30
0
  11
47.8
  21
2.18743
  31
0
  0
LINE
  5
4c
  100
AcDbEntity
  8
1
  100
AcDbLine
  10
47.8
  20
2.18743
  30
0
  11
47.7
  21
2.18743
  31
0
  0
LINE
  5
4d
  100
AcDbEntity
  8
1
  100
AcDbLine
  10
47.7
  20
2.18743
  30
0
  11
47.6
  21
2.18743
  31
0
  0
LINE
  5
4e
  100
AcDbEntity
  8
1
  100
AcDbLine
  10
47.6
  20
2.18743
  30
0
  11
47.5
  21
2.18743
  31
0
  0
LINE
  5
4f
  100
AcDbEntity
  8
1
  100
AcDbLine
  10
47.5
  20
2.18743
  30
0
  11
47.4
  21
2.18743
  31
0
  0
LINE
  5
50
  100
AcDbEntity
  8
1
  100
AcDbLine
  10
47.4
  20
2.18743
  30
0
  11
47.3
  21
2.18743
  31
0
  0
LINE
  5
51
  100
AcDbEntity
  8
1
  100
AcDbLine
  10
47.3
  20
2.18743
  30
0
  11
47.2
  21
2.18743
  31
0
  0
LINE
  5
52
  100
AcDbEntity
  8
1
  100
AcDbLine
  10
47.2
  20
2.18743
  30
0
  11
47.2
  21
1.516413
  31
0
  0
LINE
  5
53
  100
AcDbEntity
  8
1
  100
AcDbLine
  10
47.2
  20
1.516413
  30
0
  11
47.1
  21
1.516222
  31
0
  0
LINE
  5
54
  100
AcDbEntity
  8
1
  100
AcDbLine
  10
47.1
  20
1.516222
  30
0
  11
47
  21
1.51565
  31
0
  0
LINE
  5
55
  100
AcDbEntity
  8
1
  100
AcDbLine
  10
47
  20
1.51565
  30
0
  11
46.9
  21
1.514696
  31
0
  0
LINE
  5
56
  100
AcDbEntity
  8
1
  100
AcDbLine
  10
46.9
  20
1.514696
  30
0
  11
46.8
  21
1.513357
  31
0
  0
LINE
  5
57
  100
AcDbEntity
  8
1
  100
AcDbLine
  10
46.8
  20
1.513357
  30
0
  11
46.7
  21
1.511631
  31
0
  0
LINE
  5
58
  100
AcDbEntity
  8
1
  100
AcDbLine
  10
46.7
  20
1.511631
  30
0
  11
46.6
  21
1.509517
  31
0
  0
LINE
  5
59
  100
AcDbEntity
  8
1
  100
AcDbLine
  10
46.6
  20
1.509517
  30
0
  11
46.5
  21
1.507009
  31
0
  0
LINE
  5
5a
  100
AcDbEntity
  8
1
  100
AcDbLine
  10
46.5
  20
1.507009
  30
0
  11
46.4
  21
1.504103
  31
0
  0
LINE
  5
5b
  100
AcDbEntity
  8
1
  100
AcDbLine
  10
46.4
  20
1.504103
  30
0
  11
46.3
  21
1.500796
  31
0
  0
LINE
  5
5c
  100
AcDbEntity
  8
1
  100
AcDbLine
  10
46.3
  20
1.500796
  30
0
  11
46.2
  21
1.497081
  31
0
  0
LINE
  5
5d
  100
AcDbEntity
  8
1
  100
AcDbLine
  10
46.2
  20
1.497081
  30
0
  11
46.1
  21
1.492952
  31
0
  0
LINE
  5
5e
  100
AcDbEntity
  8
1
  100
AcDbLine
  10
46.1
  20
1.492952
  30
0
  11
46
  21
1.488404
  31
0
  0
LINE
  5
5f
  100
AcDbEntity
  8
1
  100
AcDbLine
  10
46
  20
1.488404
  30
0
  11
45.9
  21
1.483428
  31
0
  0
LINE
  5
60
  100
AcDbEntity
  8
1
  100
AcDbLine
  10
45.9
  20
1.483428
  30
0
  11
45.8
  21
1.478019
  31
0
  0
LINE
  5
61
  100
AcDbEntity
  8
1
  100
AcDbLine
  10
45.8
  20
1.478019
  30
0
  11
45.7
  21
1.472168
  31
0
  0
LINE
  5
62
  100
AcDbEntity
  8
1
  100
AcDbLine
  10
45.7
  20
1.472168
  30
0
  11
45.6
  21
1.465867
  31
0
  0
LINE
  5
63
  100
AcDbEntity
  8
1
  100
AcDbLine
  10
45.6
  20
1.465867
  30
0
  11
45.5
  21
1.459109
  31
0
  0
LINE
  5
64
  100
AcDbEntity
  8
1
  100
AcDbLine
  10
45.5
  20
1.459109
  30
0
  11
45.4
  21
1.451884
  31
0
  0
LINE
  5
65
  100
AcDbEntity
  8
1
  100
AcDbLine
  10
45.4
  20
1.451884
  30
0
  11
45.3
  21
1.444184
  31
0
  0
LINE
  5
66
  100
AcDbEntity
  8
1
  100
AcDbLine
  10
45.3
  20
1.444184
  30
0
  11
45.2
  21
1.436
  31
0
  0
LINE
  5
67
  100
AcDbEntity
  8
1
  100
AcDbLine
  10
45.2
  20
1.436
  30
0
  11
45.1
  21
1.427323
  31
0
  0
LINE
  5
68
  100
AcDbEntity
  8
1
  100
AcDbLine
  10
45.1
  20
1.427323
  30
0
  11
45
  21
1.418145
  31
0
  0
LINE
  5
69
  100
AcDbEntity
  8
1
  100
AcDbLine
  10
45
  20
1.418145
  30
0
  11
44.9
  21
1.408456
  31
0
  0
LINE
  5
6a
  100
AcDbEntity
  8
1
  100
AcDbLine
  10
44.9
  20
1.408456
  30
0
  11
44.8
  21
1.398249
  31
0
  0
LINE
  5
6b
  100
AcDbEntity
  8
1
  100
AcDbLine
  10
44.8
  20
1.398249
  30
0
  11
44.7
  21
1.387514
  31
0
  0
LINE
  5
6c
  100
AcDbEntity
  8
1
  100
AcDbLine
  10
44.7
  20
1.387514
  30
0
  11
44.6
  21
1.376243
  31
0
  0
LINE
  5
6d
  100
AcDbEntity
  8
1
  100
AcDbLine
  10
44.6
  20
1.376243
  30
0
  11
44.5
  21
1.364429
  31
0
  0
LINE
  5
6e
  100
AcDbEntity
  8
1
  100
AcDbLine
  10
44.5
  20
1.364429
  30
0
  11
44.4
  21
1.352064
  31
0
  0
LINE
  5
6f
  100
AcDbEntity
  8
1
  100
AcDbLine
  10
44.4
  20
1.352064
  30
0
  11
44.3
  21
1.33914
  31
0
  0
LINE
  5
70
  100
AcDbEntity
  8
1
  100
AcDbLine
  10
44.3
  20
1.33914
  30
0
  11
44.2
  21
1.325651
  31
0
  0
LINE
  5
71
  100
AcDbEntity
  8
1
  100
AcDbLine
  10
44.2
  20
1.325651
  30
0
  11
44.1
  21
1.311592
  31
0
  0
LINE
  5
72
  100
AcDbEntity
  8
1
  100
AcDbLine
  10
44.1
  20
1.311592
  30
0
  11
44
  21
1.296956
  31
0
  0
LINE
  5
73
  100
AcDbEntity
  8
1
  100
AcDbLine
  10
44
  20
1.296956
  30
0
  11
43.9
  21
1.281739
  31
0
  0
LINE
  5
74
  100
AcDbEntity
  8
1
  100
AcDbLine
  10
43.9
  20
1.281739
  30
0
  11
43.8
  21
1.265938
  31
0
  0
LINE
  5
75
  100
AcDbEntity
  8
1
  100
AcDbLine
  10
43.8
  20
1.265938
  30
0
  11
43.7
  21
1.249548
  31
0
  0
LINE
  5
76
  100
AcDbEntity
  8
1
  100
AcDbLine
  10
43.7
  20
1.249548
  30
0
  11
43.6
  21
1.232568
  31
0
  0
LINE
  5
77
  100
AcDbEntity
  8
1
  100
AcDbLine
  10
43.6
  20
1.232568
  30
0
  11
43.5
  21
1.214996
  31
0
  0
LINE
  5
78
  100
AcDbEntity
  8
1
  100
AcDbLine
  10
43.5
  20
1.214996
  30
0
  11
43.4
  21
1.196832
  31
0
  0
LINE
  5
79
  100
AcDbEntity
  8
1
  100
AcDbLine
  10
43.4
  20
1.196832
  30
0
  11
43.3
  21
1.178076
  31
0
  0
LINE
  5
7a
  100
AcDbEntity
  8
1
  100
AcDbLine
  10
43.3
  20
1.178076
  30
0
  11
43.2
  21
1.15873
  31
0
  0
LINE
  5
7b
  100
AcDbEntity
  8
1
  100
AcDbLine
  10
43.2
  20
1.15873
  30
0
  11
43.1
  21
1.138797
  31
0
  0
LINE
  5
7c
  100
AcDbEntity
  8
1
  100
AcDbLine
  10
43.1
  20
1.138797
  30
0
  11
43
  21
1.11828
  31
0
  0
LINE
  5
7d
  100
AcDbEntity
  8
1
  100
AcDbLine
  10
43
  20
1.11828
  30
0
  11
42.9
  21
1.097185
  31
0
  0
LINE
  5
7e
  100
AcDbEntity
  8
1
  100
AcDbLine
  10
42.9
  20
1.097185
  30
0
  11
42.8
  21
1.075518
  31
0
  0
LINE
  5
7f
  100
AcDbEntity
  8
1
  100
AcDbLine
  10
42.8
  20
1.075518
  30
0
  11
42.7
  21
1.053286
  31
0
  0
LINE
  5
80
  100
AcDbEntity
  8
1
  100
AcDbLine
  10
42.7
  20
1.053286
  30
0
  11
42.6
  21
1.030498
  31
0
  0
LINE
  5
81
  100
AcDbEntity
  8
1
  100
AcDbLine
  10
42.6
  20
1.030498
  30
0
  11
42.5
  21
1.007163
  31
0
  0
LINE
  5
82
  100
AcDbEntity
  8
1
  100
AcDbLine
  10
42.5
  20
1.007163
  30
0
  11
42.4
  21
0.983293
  31
0
  0
LINE
  5
83
  100
AcDbEntity
  8
1
  100
AcDbLine
  10
42.4
  20
0.983293
  30
0
  11
42.3
  21
0.9589
  31
0
  0
LINE
  5
84
  100
AcDbEntity
  8
1
  100
AcDbLine
  10
42.3
  20
0.9589
  30
0
  11
42.2
  21
0.933997
  31
0
  0
LINE
  5
85
  100
AcDbEntity
  8
1
  100
AcDbLine
  10
42.2
  20
0.933997
  30
0
  11
42.1
  21
0.908599
  31
0
  0
LINE
  5
86
  100
AcDbEntity
  8
1
  100
AcDbLine
  10
42.1
  20
0.908599
  30
0
  11
42
  21
0.882722
  31
0
  0
LINE
  5
87
  100
AcDbEntity
  8
1
  100
AcDbLine
  10
42
  20
0.882722
  30
0
  11
41.9
  21
0.856383
  31
0
  0
LINE
  5
88
  100
AcDbEntity
  8
1
  100
AcDbLine
  10
41.9
  20
0.856383
  30
0
  11
41.8
  21
0.8296
  31
0
  0
LINE
  5
89
  100
AcDbEntity
  8
1
  100
AcDbLine
  10
41.8
  20
0.8296
  30
0
  11
41.7
  21
0.802393
  31
0
  0
LINE
  5
8a
  100
AcDbEntity
  8
1
  100
AcDbLine
  10
41.7
  20
0.802393
  30
0
  11
41.6
  21
0.774781
  31
0
  0
LINE
  5
8b
  100
AcDbEntity
  8
1
  100
AcDbLine
  10
41.6
  20
0.774781
  30
0
  11
41.5
  21
0.746788
  31
0
  0
LINE
  5
8c
  100
AcDbEntity
  8
1
  100
AcDbLine
  10
41.5
  20
0.746788
  30
0
  11
41.4
  21
0.718434
  31
0
  0
LINE
  5
8d
  100
AcDbEntity
  8
1
  100
AcDbLine
  10
41.4
  20
0.718434
  30
0
  11
41.3
  21
0.689744
  31
0
  0
LINE
  5
8e
  100
AcDbEntity
  8
1
  100
AcDbLine
  10
41.3
  20
0.689744
  30
0
  11
41.2
  21
0.660742
  31
0
  0
LINE
  5
8f
  100
AcDbEntity
  8
1
  100
AcDbLine
  10
41.2
  20
0.660742
  30
0
  11
41.1
  21
0.631452
  31
0
  0
LINE
  5
90
  100
AcDbEntity
  8
1
  100
AcDbLine
  10
41.1
  20
0.631452
  30
0
  11
41
  21
0.601902
  31
0
  0
LINE
  5
91
  100
AcDbEntity
  8
1
  100
AcDbLine
  10
41
  20
0.601902
  30
0
  11
40.9
  21
0.572117
  31
0
  0
LINE
  5
92
  100
AcDbEntity
  8
1
  100
AcDbLine
  10
40.9
  20
0.572117
  30
0
  11
40.8
  21
0.542124
  31
0
  0
LINE
  5
93
  100
AcDbEntity
  8
1
  100
AcDbLine
  10
40.8
  20
0.542124
  30
0
  11
40.8
  21
0.74852
  31
0
  0
LINE
  5
94
  100
AcDbEntity
  8
1
  100
AcDbLine
  10
40.8
  20
0.74852
  30
0
  11
40.9
  21
0.729574
  31
0
  0
LINE
  5
95
  100
AcDbEntity
  8
1
  100
AcDbLine
  10
40.9
  20
0.729574
  30
0
  11
41
  21
0.710534
  31
0
  0
LINE
  5
96
  100
AcDbEntity
  8
1
  100
AcDbLine
  10
41
  20
0.710534
  30
0
  11
41.1
  21
0.691415
  31
0
  0
LINE
  5
97
  100
AcDbEntity
  8
1
  100
AcDbLine
  10
41.1
  20
0.691415
  30
0
  11
41.2
  21
0.672231
  31
0
  0
LINE
  5
98
  100
AcDbEntity
  8
1
  100
AcDbLine
  10
41.2
  20
0.672231
  30
0
  11
41.3
  21
0.652996
  31
0
  0
LINE
  5
99
  100
AcDbEntity
  8
1
  100
AcDbLine
  10
41.3
  20
0.652996
  30
0
  11
41.4
  21
0.633727
  31
0
  0
LINE
  5
9a
  100
AcDbEntity
  8
1
  100
AcDbLine
  10
41.4
  20
0.633727
  30
0
  11
41.5
  21
0.614439
  31
0
  0
LINE
  5
9b
  100
AcDbEntity
  8
1
  100
AcDbLine
  10
41.5
  20
0.614439
  30
0
  11
41.6
  21
0.595146
  31
0
  0
LINE
  5
9c
  100
AcDbEntity
  8
1
  100
AcDbLine
  10
41.6
  20
0.595146
  30
0
  11
41.7
  21
0.575865
  31
0
  0
LINE
  5
9d
  100
AcDbEntity
  8
1
  100
AcDbLine
  10
41.7
  20
0.575865
  30
0
  11
41.8
  21
0.556611
  31
0
  0
LINE
  5
9e
  100
AcDbEntity
  8
1
  100
AcDbLine
  10
41.8
  20
0.556611
  30
0
  11
41.9
  21
0.537399
  31
0
  0
LINE
  5
9f
  100
AcDbEntity
  8
1
  100
AcDbLine
  10
41.9
  20
0.537399
  30
0
  11
42
  21
0.518245
  31
0
  0
LINE
  5
a0
  100
AcDbEntity
  8
1
  100
AcDbLine
  10
42
  20
0.518245
  30
0
  11
42.1
  21
0.499165
  31
0
  0
LINE
  5
a1
  100
AcDbEntity
  8
1
  100
AcDbLine
  10
42.1
  20
0.499165
  30
0
  11
42.2
  21
0.480174
  31
0
  0
LINE
  5
a2
  100
AcDbEntity
  8
1
  100
AcDbLine
  10
42.2
  20
0.480174
  30
0
  11
42.3
  21
0.461288
  31
0
  0
LINE
  5
a3
  100
AcDbEntity
  8
1
  100
AcDbLine
  10
42.3
  20
0.461288
  30
0
  11
42.4
  21
0.442522
  31
0
  0
LINE
  5
a4
  100
AcDbEntity
  8
1
  100
AcDbLine
  10
42.4
  20
0.442522
  30
0
  11
42.5
  21
0.423892
  31
0
  0
LINE
  5
a5
  100
AcDbEntity
  8
1
  100
AcDbLine
  10
42.5
  20
0.423892
  30
0
  11
42.6
  21
0.405412
  31
0
  0
LINE
  5
a6
  100
AcDbEntity
  8
1
  100
AcDbLine
  10
42.6
  20
0.405412
  30
0
  11
42.7
  21
0.387098
  31
0
  0
LINE
  5
a7
  100
AcDbEntity
  8
1
  100
AcDbLine
  10
42.7
  20
0.387098
  30
0
  11
42.8
  21
0.368964
  31
0
  0
LINE
  5
a8
  100
AcDbEntity
  8
1
  100
AcDbLine
  10
42.8
  20
0.368964
  30
0
  11
42.9
  21
0.351025
  31
0
  0
LINE
  5
a9
  100
AcDbEntity
  8
1
  100
AcDbLine
  10
42.9
  20
0.351025
  30
0
  11
43
  21
0.333296
  31
0
  0
LINE
  5
aa
  100
AcDbEntity
  8
1
  100
AcDbLine
  10
43
  20
0.333296
  30
0
  11
43.1
  21
0.315791
  31
0
  0
LINE
  5
ab
  100
AcDbEntity
  8
1
  100
AcDbLine
  10
43.1
  20
0.315791
  30
0
  11
43.2
  21
0.298523
  31
0
  0
LINE
  5
ac
  100
AcDbEntity
  8
1
  100
AcDbLine
  10
43.2
  20
0.298523
  30
0
  11
43.3
  21
0.281507
  31
0
  0
LINE
  5
ad
  100
AcDbEntity
  8
1
  100
AcDbLine
  10
43.3
  20
0.281507
  30
0
  11
43.4
  21
0.264755
  31
0
  0
LINE
  5
ae
  100
AcDbEntity
  8
1
  100
AcDbLine
  10
43.4
  20
0.264755
  30
0
  11
43.5
  21
0.248281
  31
0
  0
LINE
  5
af
  100
AcDbEntity
  8
1
  100
AcDbLine
  10
43.5
  20
0.248281
  30
0
  11
43.6
  21
0.232097
  31
0
  0
LINE
  5
b0
  100
AcDbEntity
  8
1
  100
AcDbLine
  10
43.6
  20
0.232097
  30
0
  11
43.7
  21
0.216216
  31
0
  0
LINE
  5
b1
  100
AcDbEntity
  8
1
  100
AcDbLine
  10
43.7
  20
0.216216
  30
0
  11
43.8
  21
0.20065
  31
0
  0
LINE
  5
b2
  100
AcDbEntity
  8
1
  100
AcDbLine
  10
43.8
  20
0.20065
  30
0
  11
43.9
  21
0.185411
  31
0
  0
LINE
  5
b3
  100
AcDbEntity
  8
1
  100
AcDbLine
  10
43.9
  20
0.185411
  30
0
  11
44
  21
0.17051
  31
0
  0
LINE
  5
b4
  100
AcDbEntity
  8
1
  100
AcDbLine
  10
44
  20
0.17051
  30
0
  11
44.1
  21
0.155958
  31
0
  0
LINE
  5
b5
  100
AcDbEntity
  8
1
  100
AcDbLine
  10
44.1
  20
0.155958
  30
0
  11
44.2
  21
0.141766
  31
0
  0
LINE
  5
b6
  100
AcDbEntity
  8
1
  100
AcDbLine
  10
44.2
  20
0.141766
  30
0
  11
44.3
  21
0.127944
  31
0
  0
LINE
  5
b7
  100
AcDbEntity
  8
1
  100
AcDbLine
  10
44.3
  20
0.127944
  30
0
  11
44.4
  21
0.114502
  31
0
  0
LINE
  5
b8
  100
AcDbEntity
  8
1
  100
AcDbLine
  10
44.4
  20
0.114502
  30
0
  11
44.5
  21
0.101449
  31
0
  0
LINE
  5
b9
  100
AcDbEntity
  8
1
  100
AcDbLine
  10
44.5
  20
0.101449
  30
0
  11
44.6
  21
0.088795
  31
0
  0
LINE
  5
ba
  100
AcDbEntity
  8
1
  100
AcDbLine
  10
44.6
  20
0.088795
  30
0
  11
44.7
  21
0.076549
  31
0
  0
LINE
  5
bb
  100
AcDbEntity
  8
1
  100
AcDbLine
  10
44.7
  20
0.076549
  30
0
  11
44.8
  21
0.064718
  31
0
  0
LINE
  5
bc
  100
AcDbEntity
  8
1
  100
AcDbLine
  10
44.8
  20
0.064718
  30
0
  11
44.9
  21
0.053312
  31
0
  0
LINE
  5
bd
  100
AcDbEntity
  8
1
  100
AcDbLine
  10
44.9
  20
0.053312
  30
0
  11
45
  21
0.042336
  31
0
  0
LINE
  5
be
  100
AcDbEntity
  8
1
  100
AcDbLine
  10
45
  20
0.042336
  30
0
  11
45.1
  21
0.0318
  31
0
  0
LINE
  5
bf
  100
AcDbEntity
  8
1
  100
AcDbLine
  10
45.1
  20
0.0318
  30
0
  11
45.2
  21
0.02171
  31
0
  0
LINE
  5
c0
  100
AcDbEntity
  8
1
  100
AcDbLine
  10
45.2
  20
0.02171
  30
0
  11
45.3
  21
0.012071
  31
0
  0
LINE
  5
c1
  100
AcDbEntity
  8
1
  100
AcDbLine
  10
45.3
  20
0.012071
  30
0
  11
45.4
  21
0.002892
  31
0
  0
LINE
  5
c2
  100
AcDbEntity
  8
1
  100
AcDbLine
  10
45.4
  20
0.002892
  30
0
  11
45.5
  21
-0.005824
  31
0
  0
LINE
  5
c3
  100
AcDbEntity
  8
1
  100
AcDbLine
  10
45.5
  20
-0.005824
  30
0
  11
45.6
  21
-0.01407
  31
0
  0
LINE
  5
c4
  100
AcDbEntity
  8
1
  100
AcDbLine
  10
45.6
  20
-0.01407
  30
0
  11
45.7
  21
-0.021841
  31
0
  0
LINE
  5
c5
  100
AcDbEntity
  8
1
  100
AcDbLine
  10
45.7
  20
-0.021841
  30
0
  11
45.8
  21
-0.029132
  31
0
  0
LINE
  5
c6
  100
AcDbEntity
  8
1
  100
AcDbLine
  10
45.8
  20
-0.029132
  30
0
  11
45.9
  21
-0.035939
  31
0
  0
LINE
  5
c7
  100
AcDbEntity
  8
1
  100
AcDbLine
  10
45.9
  20
-0.035939
  30
0
  11
46
  21
-0.042258
  31
0
  0
LINE
  5
c8
  100
AcDbEntity
  8
1
  100
AcDbLine
  10
46
  20
-0.042258
  30
0
  11
46.1
  21
-0.048086
  31
0
  0
LINE
  5
c9
  100
AcDbEntity
  8
1
  100
AcDbLine
  10
46.1
  20
-0.048086
  30
0
  11
46.2
  21
-0.053418
  31
0
  0
LINE
  5
ca
  100
AcDbEntity
  8
1
  100
AcDbLine
  10
46.2
  20
-0.053418
  30
0
  11
46.3
  21
-0.058251
  31
0
  0
LINE
  5
cb
  100
AcDbEntity
  8
1
  100
AcDbLine
  10
46.3
  20
-0.058251
  30
0
  11
46.4
  21
-0.062583
  31
0
  0
LINE
  5
cc
  100
AcDbEntity
  8
1
  100
AcDbLine
  10
46.4
  20
-0.062583
  30
0
  11
46.5
  21
-0.066411
  31
0
  0
LINE
  5
cd
  100
AcDbEntity
  8
1
  100
AcDbLine
  10
46.5
  20
-0.066411
  30
0
  11
46.6
  21
-0.069733
  31
0
  0
LINE
  5
ce
  100
AcDbEntity
  8
1
  100
AcDbLine
  10
46.6
  20
-0.069733
  30
0
  11
46.7
  21
-0.072548
  31
0
  0
LINE
  5
cf
  100
AcDbEntity
  8
1
  100
AcDbLine
  10
46.7
  20
-0.072548
  30
0
  11
46.8
  21
-0.074853
  31
0
  0
LINE
  5
d0
  100
AcDbEntity
  8
1
  100
AcDbLine
  10
46.8
  20
-0.074853
  30
0
  11
46.9
  21
-0.076646
  31
0
  0
LINE
  5
d1
  100
AcDbEntity
  8
1
  100
AcDbLine
  10
46.9
  20
-0.076646
  30
0
  11
47
  21
-0.077929
  31
0
  0
LINE
  5
d2
  100
AcDbEntity
  8
1
  100
AcDbLine
  10
47
  20
-0.077929
  30
0
  11
47.1
  21
-0.078698
  31
0
  0
LINE
  5
d3
  100
AcDbEntity
  8
1
  100
AcDbLine
  10
47.1
  20
-0.078698
  30
0
  11
47.2
  21
-0.078955
  31
0
  0
LINE
  5
d4
  100
AcDbEntity
  8
1
  100
AcDbLine
  10
47.2
  20
-0.078955
  30
0
  11
47.2
  21
0
  31
0
  0
LINE
  5
d5
  100
AcDbEntity
  8
1
  100
AcDbLine
  10
47.2
  20
0
  30
0
  11
47.3
  21
0
  31
0
  0
LINE
  5
d6
  100
AcDbEntity
  8
1
  100
AcDbLine
  10
47.3
  20
0
  30
0
  11
47.4
  21
0
  31
0
  0
LINE
  5
d7
  100
AcDbEntity
  8
1
  100
AcDbLine
  10
47.4
  20
0
  30
0
  11
47.5
  21
0
  31
0
  0
LINE
  5
d8
  100
AcDbEntity
  8
1
  100
AcDbLine
  10
47.5
  20
0
  30
0
  11
47.6
  21
0
  31
0
  0
LINE
  5
d9
  100
AcDbEntity
  8
1
  100
AcDbLine
  10
47.6
  20
0
  30
0
  11
47.7
  21
0
  31
0
  0
LINE
  5
da
  100
AcDbEntity
  8
1
  100
AcDbLine
  10
47.7
  20
0
  30
0
  11
47.8
  21
0
  31
0
  0
LINE
  5
db
  100
AcDbEntity
  8
1
  100
AcDbLine
  10
47.8
  20
0
  30
0
  11
47.9
  21
0
  31
0
  0
LINE
  5
dc
  100
AcDbEntity
  8
1
  100
AcDbLine
  10
47.9
  20
0
  30
0
  11
48
  21
0
  31
0
  0
LINE
  5
dd
  100
AcDbEntity
  8
1
  100
AcDbLine
  10
48
  20
0
  30
0
  11
48.1
  21
0
  31
0
  0
LINE
  5
de
  100
AcDbEntity
  8
1
  100
AcDbLine
  10
48.1
  20
0
  30
0
  11
48.2
  21
0
  31
0
  0
LINE
  5
df
  100
AcDbEntity
  8
1
  100
AcDbLine
  10
48.2
  20
0
  30
0
  11
48.3
  21
0
  31
0
  0
LINE
  5
e0
  100
AcDbEntity
  8
1
  100
AcDbLine
  10
48.3
  20
0
  30
0
  11
48.4
  21
0
  31
0
  0
LINE
  5
e1
  100
AcDbEntity
  8
1
  100
AcDbLine
  10
48.4
  20
0
  30
0
  11
48.5
  21
0
  31
0
  0
LINE
  5
e2
  100
AcDbEntity
  8
1
  100
AcDbLine
  10
48.5
  20
0
  30
0
  11
48.6
  21
0
  31
0
  0
LINE
  5
e3
  100
AcDbEntity
  8
1
  100
AcDbLine
  10
48.6
  20
0
  30
0
  11
48.7
  21
0
  31
0
  0
LINE
  5
e4
  100
AcDbEntity
  8
1
  100
AcDbLine
  10
48.7
  20
0
  30
0
  11
48.8
  21
0
  31
0
  0
LINE
  5
e5
  100
AcDbEntity
  8
1
  100
AcDbLine
  10
48.8
  20
0
  30
0
  11
48.9
  21
0
  31
0
  0
LINE
  5
e6
  100
AcDbEntity
  8
1
  100
AcDbLine
  10
48.9
  20
0
  30
0
  11
49
  21
0
  31
0
  0
LINE
  5
e7
  100
AcDbEntity
  8
1
  100
AcDbLine
  10
49
  20
0
  30
0
  11
49.1
  21
0
  31
0
  0
LINE
  5
e8
  100
AcDbEntity
  8
1
  100
AcDbLine
  10
49.1
  20
0
  30
0
  11
49.2
  21
0
  31
0
  0
LINE
  5
e9
  100
AcDbEntity
  8
1
  100
AcDbLine
  10
49.2
  20
0
  30
0
  11
49.3
  21
0
  31
0
  0
LINE
  5
ea
  100
AcDbEntity
  8
1
  100
AcDbLine
  10
49.3
  20
0
  30
0
  11
49.4
  21
0
  31
0
  0
LINE
  5
eb
  100
AcDbEntity
  8
1
  100
AcDbLine
  10
49.4
  20
0
  30
0
  11
49.5
  21
0
  31
0
  0
LINE
  5
ec
  100
AcDbEntity
  8
1
  100
AcDbLine
  10
49.5
  20
0
  30
0
  11
49.6
  21
0
  31
0
  0
LINE
  5
ed
  100
AcDbEntity
  8
1
  100
AcDbLine
  10
49.6
  20
0
  30
0
  11
49.7
  21
0
  31
0
  0
LINE
  5
ee
  100
AcDbEntity
  8
1
  100
AcDbLine
  10
49.7
  20
0
  30
0
  11
49.8
  21
0
  31
0
  0
LINE
  5
ef
  100
AcDbEntity
  8
1
  100
AcDbLine
  10
49.8
  20
0
  30
0
  11
49.9
  21
0
  31
0
  0
LINE
  5
f0
  100
AcDbEntity
  8
1
  100
AcDbLine
  10
49.9
  20
0
  30
0
  11
50
  21
0
  31
0
  0
LINE
  5
f1
  100
AcDbEntity
  8
1
  100
AcDbLine
  10
50
  20
0
  30
0
  11
50
  21
2.3
  31
0
  0
LINE
  5
f2
  100
AcDbEntity
  8
1
  100
AcDbLine
  10
50
  20
2.3
  30
0
  11
47.2
  21
2.3
  31
0
  0
LINE
  5
f3
  100
AcDbEntity
  8
1
  100
AcDbLine
  10
47.2
  20
2.3
  30
0
  11
47.2
  21
1.74
  31
0
  0
LINE
  5
f4
  100
AcDbEntity
  8
1
  100
AcDbLine
  10
47.2
  20
1.74
  30
0
  11
35.5
  21
1.74
  31
0
  0
ARC
  5
f5
  100
AcDbEntity
  8
1
  100
AcDbCircle
  10
35.5
  20
2.74
  30
0
  40
1
  100
AcDbArc
  50
225
  51
270
  0
LINE
  5
f6
  100
AcDbEntity
  8
1
  100
AcDbLine
  10
34.792893
  20
2.032893
  30
0
  11
33.825786
  21
3
  31
0
  0
LINE
  5
f7
  100
AcDbEntity
  8
1
  100
AcDbLine
  10
33.825786
  20
3
  30
0
  11
32.83
  21
3
  31
0
  0
LINE
  5
f8
  100
AcDbEntity
  8
1
  100
AcDbLine
  10
32.83
  20
3
  30
0
  11
32.83
  21
-3
  31
0
  0
LINE
  5
f9
  100
AcDbEntity
  8
1
  100
AcDbLine
  10
32.83
  20
-3
  30
0
  11
33.825786
  21
-3
  31
0
  0
LINE
  5
fa
  100
AcDbEntity
  8
1
  100
AcDbLine
  10
33.825786
  20
-3
  30
0
  11
34.792893
  21
-2.032893
  31
0
  0
LINE
  5
fb
  100
AcDbEntity
  8
1
  100
AcDbLine
  10
34.792893
  20
-2.032893
  30
0
  11
34.792893
  21
2.032893
  31
0
  0
LINE
  5
fc
  100
AcDbEntity
  8
1
  100
AcDbLine
  10
35.5
  20
1.74
  30
0
  11
35.5
  21
-1.74
  31
0
  0
ARC
  5
fd
  100
AcDbEntity
  8
1
  100
AcDbCircle
  10
35.5
  20
-2.74
  30
0
  40
1
  100
AcDbArc
  50
90
  51
135
  0
LINE
  5
fe
  100
AcDbEntity
  8
1
  100
AcDbLine
  10
35.5
  20
-1.74
  30
0
  11
47.2
  21
-1.74
  31
0
  0
LINE
  5
ff
  100
AcDbEntity
  8
1
  100
AcDbLine
  10
47.2
  20
-1.74
  30
0
  11
47.2
  21
-2.3
  31
0
  0
LINE
  5
100
  100
AcDbEntity
  8
1
  100
AcDbLine
  10
47.2
  20
-2.3
  30
0
  11
47.2
  21
2.3
  31
0
  0
LINE
  5
101
  100
AcDbEntity
  8
1
  100
AcDbLine
  10
47.2
  20
1.74
  30
0
  11
47.2
  21
-1.74
  31
0
  0
LINE
  5
102
  100
AcDbEntity
  8
1
  100
AcDbLine
  10
45.433178
  20
-1.74
  30
0
  11
45.4
  21
-1.739998
  31
0
  0
LINE
  5
103
  100
AcDbEntity
  8
1
  100
AcDbLine
  10
45.4
  20
-1.739998
  30
0
  11
45.3
  21
-1.739958
  31
0
  0
LINE
  5
104
  100
AcDbEntity
  8
1
  100
AcDbLine
  10
45.3
  20
-1.739958
  30
0
  11
45.2
  21
-1.739865
  31
0
  0
LINE
  5
105
  100
AcDbEntity
  8
1
  100
AcDbLine
  10
45.2
  20
-1.739865
  30
0
  11
45.1
  21
-1.739709
  31
0
  0
LINE
  5
106
  100
AcDbEntity
  8
1
  100
AcDbLine
  10
45.1
  20
-1.739709
  30
0
  11
45
  21
-1.739485
  31
0
  0
LINE
  5
107
  100
AcDbEntity
  8
1
  100
AcDbLine
  10
45
  20
-1.739485
  30
0
  11
44.9
  21
-1.739183
  31
0
  0
LINE
  5
108
  100
AcDbEntity
  8
1
  100
AcDbLine
  10
44.9
  20
-1.739183
  30
0
  11
44.8
  21
-1.738796
  31
0
  0
LINE
  5
109
  100
AcDbEntity
  8
1
  100
AcDbLine
  10
44.8
  20
-1.738796
  30
0
  11
44.7
  21
-1.738315
  31
0
  0
LINE
  5
10a
  100
AcDbEntity
  8
1
  100
AcDbLine
  10
44.7
  20
-1.738315
  30
0
  11
44.6
  21
-1.737733
  31
0
  0
LINE
  5
10b
  100
AcDbEntity
  8
1
  100
AcDbLine
  10
44.6
  20
-1.737733
  30
0
  11
44.5
  21
-1.73704
  31
0
  0
LINE
  5
10c
  100
AcDbEntity
  8
1
  100
AcDbLine
  10
44.5
  20
-1.73704
  30
0
  11
44.4
  21
-1.736228
  31
0
  0
LINE
  5
10d
  100
AcDbEntity
  8
1
  100
AcDbLine
  10
44.4
  20
-1.736228
  30
0
  11
44.3
  21
-1.73529
  31
0
  0
LINE
  5
10e
  100
AcDbEntity
  8
1
  100
AcDbLine
  10
44.3
  20
-1.73529
  30
0
  11
44.2
  21
-1.734215
  31
0
  0
LINE
  5
10f
  100
AcDbEntity
  8
1
  100
AcDbLine
  10
44.2
  20
-1.734215
  30
0
  11
44.1
  21
-1.732997
  31
0
  0
LINE
  5
110
  100
AcDbEntity
  8
1
  100
AcDbLine
  10
44.1
  20
-1.732997
  30
0
  11
44
  21
-1.731625
  31
0
  0
LINE
  5
111
  100
AcDbEntity
  8
1
  100
AcDbLine
  10
44
  20
-1.731625
  30
0
  11
43.9
  21
-1.730093
  31
0
  0
LINE
  5
112
  100
AcDbEntity
  8
1
  100
AcDbLine
  10
43.9
  20
-1.730093
  30
0
  11
43.8
  21
-1.728392
  31
0
  0
LINE
  5
113
  100
AcDbEntity
  8
1
  100
AcDbLine
  10
43.8
  20
-1.728392
  30
0
  11
43.7
  21
-1.726514
  31
0
  0
LINE
  5
114
  100
AcDbEntity
  8
1
  100
AcDbLine
  10
43.7
  20
-1.726514
  30
0
  11
43.6
  21
-1.724451
  31
0
  0
LINE
  5
115
  100
AcDbEntity
  8
1
  100
AcDbLine
  10
43.6
  20
-1.724451
  30
0
  11
43.5
  21
-1.722195
  31
0
  0
LINE
  5
116
  100
AcDbEntity
  8
1
  100
AcDbLine
  10
43.5
  20
-1.722195
  30
0
  11
43.4
  21
-1.71974
  31
0
  0
LINE
  5
117
  100
AcDbEntity
  8
1
  100
AcDbLine
  10
43.4
  20
-1.71974
  30
0
  11
43.3
  21
-1.717077
  31
0
  0
LINE
  5
118
  100
AcDbEntity
  8
1
  100
AcDbLine
  10
43.3
  20
-1.717077
  30
0
  11
43.2
  21
-1.714201
  31
0
  0
LINE
  5
119
  100
AcDbEntity
  8
1
  100
AcDbLine
  10
43.2
  20
-1.714201
  30
0
  11
43.1
  21
-1.711104
  31
0
  0
LINE
  5
11a
  100
AcDbEntity
  8
1
  100
AcDbLine
  10
43.1
  20
-1.711104
  30
0
  11
43
  21
-1.70778
  31
0
  0
LINE
  5
11b
  100
AcDbEntity
  8
1
  100
AcDbLine
  10
43
  20
-1.70778
  30
0
  11
42.9
  21
-1.704224
  31
0
  0
LINE
  5
11c
  100
AcDbEntity
  8
1
  100
AcDbLine
  10
42.9
  20
-1.704224
  30
0
  11
42.8
  21
-1.700431
  31
0
  0
LINE
  5
11d
  100
AcDbEntity
  8
1
  100
AcDbLine
  10
42.8
  20
-1.700431
  30
0
  11
42.7
  21
-1.696395
  31
0
  0
LINE
  5
11e
  100
AcDbEntity
  8
1
  100
AcDbLine
  10
42.7
  20
-1.696395
  30
0
  11
42.6
  21
-1.692111
  31
0
  0
LINE
  5
11f
  100
AcDbEntity
  8
1
  100
AcDbLine
  10
42.6
  20
-1.692111
  30
0
  11
42.5
  21
-1.687577
  31
0
  0
LINE
  5
120
  100
AcDbEntity
  8
1
  100
AcDbLine
  10
42.5
  20
-1.687577
  30
0
  11
42.4
  21
-1.682788
  31
0
  0
LINE
  5
121
  100
AcDbEntity
  8
1
  100
AcDbLine
  10
42.4
  20
-1.682788
  30
0
  11
42.3
  21
-1.67774
  31
0
  0
LINE
  5
122
  100
AcDbEntity
  8
1
  100
AcDbLine
  10
42.3
  20
-1.67774
  30
0
  11
42.2
  21
-1.672433
  31
0
  0
LINE
  5
123
  100
AcDbEntity
  8
1
  100
AcDbLine
  10
42.2
  20
-1.672433
  30
0
  11
42.1
  21
-1.666864
  31
0
  0
LINE
  5
124
  100
AcDbEntity
  8
1
  100
AcDbLine
  10
42.1
  20
-1.666864
  30
0
  11
42
  21
-1.66103
  31
0
  0
LINE
  5
125
  100
AcDbEntity
  8
1
  100
AcDbLine
  10
42
  20
-1.66103
  30
0
  11
41.9
  21
-1.654933
  31
0
  0
LINE
  5
126
  100
AcDbEntity
  8
1
  100
AcDbLine
  10
41.9
  20
-1.654933
  30
0
  11
41.8
  21
-1.64857
  31
0
  0
LINE
  5
127
  100
AcDbEntity
  8
1
  100
AcDbLine
  10
41.8
  20
-1.64857
  30
0
  11
41.7
  21
-1.641944
  31
0
  0
LINE
  5
128
  100
AcDbEntity
  8
1
  100
AcDbLine
  10
41.7
  20
-1.641944
  30
0
  11
41.6
  21
-1.635054
  31
0
  0
LINE
  5
129
  100
AcDbEntity
  8
1
  100
AcDbLine
  10
41.6
  20
-1.635054
  30
0
  11
41.5
  21
-1.627902
  31
0
  0
LINE
  5
12a
  100
AcDbEntity
  8
1
  100
AcDbLine
  10
41.5
  20
-1.627902
  30
0
  11
41.4
  21
-1.620491
  31
0
  0
LINE
  5
12b
  100
AcDbEntity
  8
1
  100
AcDbLine
  10
41.4
  20
-1.620491
  30
0
  11
41.3
  21
-1.612822
  31
0
  0
LINE
  5
12c
  100
AcDbEntity
  8
1
  100
AcDbLine
  10
41.3
  20
-1.612822
  30
0
  11
41.2
  21
-1.604901
  31
0
  0
LINE
  5
12d
  100
AcDbEntity
  8
1
  100
AcDbLine
  10
41.2
  20
-1.604901
  30
0
  11
41.1
  21
-1.59673
  31
0
  0
LINE
  5
12e
  100
AcDbEntity
  8
1
  100
AcDbLine
  10
41.1
  20
-1.59673
  30
0
  11
41
  21
-1.588314
  31
0
  0
LINE
  5
12f
  100
AcDbEntity
  8
1
  100
AcDbLine
  10
41
  20
-1.588314
  30
0
  11
40.9
  21
-1.579659
  31
0
  0
LINE
  5
130
  100
AcDbEntity
  8
1
  100
AcDbLine
  10
40.9
  20
-1.579659
  30
0
  11
40.8
  21
-1.57077
  31
0
  0
LINE
  5
131
  100
AcDbEntity
  8
1
  100
AcDbLine
  10
40.8
  20
-1.57077
  30
0
  11
40.8
  21
-1.653391
  31
0
  0
LINE
  5
132
  100
AcDbEntity
  8
1
  100
AcDbLine
  10
40.8
  20
-1.653391
  30
0
  11
40.9
  21
-1.643254
  31
0
  0
LINE
  5
133
  100
AcDbEntity
  8
1
  100
AcDbLine
  10
40.9
  20
-1.643254
  30
0
  11
41
  21
-1.632579
  31
0
  0
LINE
  5
134
  100
AcDbEntity
  8
1
  100
AcDbLine
  10
41
  20
-1.632579
  30
0
  11
41.1
  21
-1.621378
  31
0
  0
LINE
  5
135
  100
AcDbEntity
  8
1
  100
AcDbLine
  10
41.1
  20
-1.621378
  30
0
  11
41.2
  21
-1.609665
  31
0
  0
LINE
  5
136
  100
AcDbEntity
  8
1
  100
AcDbLine
  10
41.2
  20
-1.609665
  30
0
  11
41.3
  21
-1.597452
  31
0
  0
LINE
  5
137
  100
AcDbEntity
  8
1
  100
AcDbLine
  10
41.3
  20
-1.597452
  30
0
  11
41.4
  21
-1.584756
  31
0
  0
LINE
  5
138
  100
AcDbEntity
  8
1
  100
AcDbLine
  10
41.4
  20
-1.584756
  30
0
  11
41.5
  21
-1.571594
  31
0
  0
LINE
  5
139
  100
AcDbEntity
  8
1
  100
AcDbLine
  10
41.5
  20
-1.571594
  30
0
  11
41.6
  21
-1.557984
  31
0
  0
LINE
  5
13a
  100
AcDbEntity
  8
1
  100
AcDbLine
  10
41.6
  20
-1.557984
  30
0
  11
41.7
  21
-1.543945
  31
0
  0
LINE
  5
13b
  100
AcDbEntity
  8
1
  100
AcDbLine
  10
41.7
  20
-1.543945
  30
0
  11
41.8
  21
-1.529498
  31
0
  0
LINE
  5
13c
  100
AcDbEntity
  8
1
  100
AcDbLine
  10
41.8
  20
-1.529498
  30
0
  11
41.9
  21
-1.514665
  31
0
  0
LINE
  5
13d
  100
AcDbEntity
  8
1
  100
AcDbLine
  10
41.9
  20
-1.514665
  30
0
  11
42
  21
-1.499467
  31
0
  0
LINE
  5
13e
  100
AcDbEntity
  8
1
  100
AcDbLine
  10
42
  20
-1.499467
  30
0
  11
42.1
  21
-1.48393
  31
0
  0
LINE
  5
13f
  100
AcDbEntity
  8
1
  100
AcDbLine
  10
42.1
  20
-1.48393
  30
0
  11
42.2
  21
-1.468077
  31
0
  0
LINE
  5
140
  100
AcDbEntity
  8
1
  100
AcDbLine
  10
42.2
  20
-1.468077
  30
0
  11
42.3
  21
-1.451934
  31
0
  0
LINE
  5
141
  100
AcDbEntity
  8
1
  100
AcDbLine
  10
42.3
  20
-1.451934
  30
0
  11
42.4
  21
-1.435526
  31
0
  0
LINE
  5
142
  100
AcDbEntity
  8
1
  100
AcDbLine
  10
42.4
  20
-1.435526
  30
0
  11
42.5
  21
-1.418881
  31
0
  0
LINE
  5
143
  100
AcDbEntity
  8
1
  100
AcDbLine
  10
42.5
  20
-1.418881
  30
0
  11
42.6
  21
-1.402025
  31
0
  0
LINE
  5
144
  100
AcDbEntity
  8
1
  100
AcDbLine
  10
42.6
  20
-1.402025
  30
0
  11
42.7
  21
-1.384987
  31
0
  0
LINE
  5
145
  100
AcDbEntity
  8
1
  100
AcDbLine
  10
42.7
  20
-1.384987
  30
0
  11
42.8
  21
-1.367794
  31
0
  0
LINE
  5
146
  100
AcDbEntity
  8
1
  100
AcDbLine
  10
42.8
  20
-1.367794
  30
0
  11
42.9
  21
-1.350475
  31
0
  0
LINE
  5
147
  100
AcDbEntity
  8
1
  100
AcDbLine
  10
42.9
  20
-1.350475
  30
0
  11
43
  21
-1.33306
  31
0
  0
LINE
  5
148
  100
AcDbEntity
  8
1
  100
AcDbLine
  10
43
  20
-1.33306
  30
0
  11
43.1
  21
-1.315577
  31
0
  0
LINE
  5
149
  100
AcDbEntity
  8
1
  100
AcDbLine
  10
43.1
  20
-1.315577
  30
0
  11
43.2
  21
-1.298054
  31
0
  0
LINE
  5
14a
  100
AcDbEntity
  8
1
  100
AcDbLine
  10
43.2
  20
-1.298054
  30
0
  11
43.3
  21
-1.280522
  31
0
  0
LINE
  5
14b
  100
AcDbEntity
  8
1
  100
AcDbLine
  10
43.3
  20
-1.280522
  30
0
  11
43.4
  21
-1.26301
  31
0
  0
LINE
  5
14c
  100
AcDbEntity
  8
1
  100
AcDbLine
  10
43.4
  20
-1.26301
  30
0
  11
43.5
  21
-1.245546
  31
0
  0
LINE
  5
14d
  100
AcDbEntity
  8
1
  100
AcDbLine
  10
43.5
  20
-1.245546
  30
0
  11
43.6
  21
-1.22816
  31
0
  0
LINE
  5
14e
  100
AcDbEntity
  8
1
  100
AcDbLine
  10
43.6
  20
-1.22816
  30
0
  11
43.7
  21
-1.21088
  31
0
  0
LINE
  5
14f
  100
AcDbEntity
  8
1
  100
AcDbLine
  10
43.7
  20
-1.21088
  30
0
  11
43.8
  21
-1.193734
  31
0
  0
LINE
  5
150
  100
AcDbEntity
  8
1
  100
AcDbLine
  10
43.8
  20
-1.193734
  30
0
  11
43.9
  21
-1.176751
  31
0
  0
LINE
  5
151
  100
AcDbEntity
  8
1
  100
AcDbLine
  10
43.9
  20
-1.176751
  30
0
  11
44
  21
-1.159959
  31
0
  0
LINE
  5
152
  100
AcDbEntity
  8
1
  100
AcDbLine
  10
44
  20
-1.159959
  30
0
  11
44.1
  21
-1.143384
  31
0
  0
LINE
  5
153
  100
AcDbEntity
  8
1
  100
AcDbLine
  10
44.1
  20
-1.143384
  30
0
  11
44.2
  21
-1.127053
  31
0
  0
LINE
  5
154
  100
AcDbEntity
  8
1
  100
AcDbLine
  10
44.2
  20
-1.127053
  30
0
  11
44.3
  21
-1.110992
  31
0
  0
LINE
  5
155
  100
AcDbEntity
  8
1
  100
AcDbLine
  10
44.3
  20
-1.110992
  30
0
  11
44.4
  21
-1.095228
  31
0
  0
LINE
  5
156
  100
AcDbEntity
  8
1
  100
AcDbLine
  10
44.4
  20
-1.095228
  30
0
  11
44.5
  21
-1.079784
  31
0
  0
LINE
  5
157
  100
AcDbEntity
  8
1
  100
AcDbLine
  10
44.5
  20
-1.079784
  30
0
  11
44.6
  21
-1.064685
  31
0
  0
LINE
  5
158
  100
AcDbEntity
  8
1
  100
AcDbLine
  10
44.6
  20
-1.064685
  30
0
  11
44.7
  21
-1.049955
  31
0
  0
LINE
  5
159
  100
AcDbEntity
  8
1
  100
AcDbLine
  10
44.7
  20
-1.049955
  30
0
  11
44.8
  21
-1.035616
  31
0
  0
LINE
  5
15a
  100
AcDbEntity
  8
1
  100
AcDbLine
  10
44.8
  20
-1.035616
  30
0
  11
44.9
  21
-1.02169
  31
0
  0
LINE
  5
15b
  100
AcDbEntity
  8
1
  100
AcDbLine
  10
44.9
  20
-1.02169
  30
0
  11
45
  21
-1.008199
  31
0
  0
LINE
  5
15c
  100
AcDbEntity
  8
1
  100
AcDbLine
  10
45
  20
-1.008199
  30
0
  11
45.1
  21
-0.995163
  31
0
  0
LINE
  5
15d
  100
AcDbEntity
  8
1
  100
AcDbLine
  10
45.1
  20
-0.995163
  30
0
  11
45.2
  21
-0.982601
  31
0
  0
LINE
  5
15e
  100
AcDbEntity
  8
1
  100
AcDbLine
  10
45.2
  20
-0.982601
  30
0
  11
45.3
  21
-0.970533
  31
0
  0
LINE
  5
15f
  100
AcDbEntity
  8
1
  100
AcDbLine
  10
45.3
  20
-0.970533
  30
0
  11
45.4
  21
-0.958975
  31
0
  0
LINE
  5
160
  100
AcDbEntity
  8
1
  100
AcDbLine
  10
45.4
  20
-0.958975
  30
0
  11
45.5
  21
-0.947946
  31
0
  0
LINE
  5
161
  100
AcDbEntity
  8
1
  100
AcDbLine
  10
45.5
  20
-0.947946
  30
0
  11
45.6
  21
-0.937461
  31
0
  0
LINE
  5
162
  100
AcDbEntity
  8
1
  100
AcDbLine
  10
45.6
  20
-0.937461
  30
0
  11
45.7
  21
-0.927535
  31
0
  0
LINE
  5
163
  100
AcDbEntity
  8
1
  100
AcDbLine
  10
45.7
  20
-0.927535
  30
0
  11
45.8
  21
-0.918183
  31
0
  0
LINE
  5
164
  100
AcDbEntity
  8
1
  100
AcDbLine
  10
45.8
  20
-0.918183
  30
0
  11
45.9
  21
-0.909418
  31
0
  0
LINE
  5
165
  100
AcDbEntity
  8
1
  100
AcDbLine
  10
45.9
  20
-0.909418
  30
0
  11
46
  21
-0.901252
  31
0
  0
LINE
  5
166
  100
AcDbEntity
  8
1
  100
AcDbLine
  10
46
  20
-0.901252
  30
0
  11
46.1
  21
-0.893697
  31
0
  0
LINE
  5
167
  100
AcDbEntity
  8
1
  100
AcDbLine
  10
46.1
  20
-0.893697
  30
0
  11
46.2
  21
-0.886763
  31
0
  0
LINE
  5
168
  100
AcDbEntity
  8
1
  100
AcDbLine
  10
46.2
  20
-0.886763
  30
0
  11
46.3
  21
-0.880461
  31
0
  0
LINE
  5
169
  100
AcDbEntity
  8
1
  100
AcDbLine
  10
46.3
  20
-0.880461
  30
0
  11
46.4
  21
-0.874799
  31
0
  0
LINE
  5
16a
  100
AcDbEntity
  8
1
  100
AcDbLine
  10
46.4
  20
-0.874799
  30
0
  11
46.5
  21
-0.869784
  31
0
  0
LINE
  5
16b
  100
AcDbEntity
  8
1
  100
AcDbLine
  10
46.5
  20
-0.869784
  30
0
  11
46.6
  21
-0.865424
  31
0
  0
LINE
  5
16c
  100
AcDbEntity
  8
1
  100
AcDbLine
  10
46.6
  20
-0.865424
  30
0
  11
46.7
  21
-0.861725
  31
0
  0
LINE
  5
16d
  100
AcDbEntity
  8
1
  100
AcDbLine
  10
46.7
  20
-0.861725
  30
0
  11
46.8
  21
-0.858692
  31
0
  0
LINE
  5
16e
  100
AcDbEntity
  8
1
  100
AcDbLine
  10
46.8
  20
-0.858692
  30
0
  11
46.9
  21
-0.856328
  31
0
  0
LINE
  5
16f
  100
AcDbEntity
  8
1
  100
AcDbLine
  10
46.9
  20
-0.856328
  30
0
  11
47
  21
-0.854637
  31
0
  0
LINE
  5
170
  100
AcDbEntity
  8
1
  100
AcDbLine
  10
47
  20
-0.854637
  30
0
  11
47.1
  21
-0.853622
  31
0
  0
LINE
  5
171
  100
AcDbEntity
  8
1
  100
AcDbLine
  10
47.1
  20
-0.853622
  30
0
  11
47.2
  21
-0.853283
  31
0
  0
LINE
  5
172
  100
AcDbEntity
  8
1
  100
AcDbLine
  10
47.2
  20
-0.853283
  30
0
  11
47.2
  21
-0.710739
  31
0
  0
LINE
  5
173
  100
AcDbEntity
  8
1
  100
AcDbLine
  10
47.2
  20
-0.710739
  30
0
  11
47.3
  21
-0.710739
  31
0
  0
LINE
  5
174
  100
AcDbEntity
  8
1
  100
AcDbLine
  10
47.3
  20
-0.710739
  30
0
  11
47.4
  21
-0.710739
  31
0
  0
LINE
  5
175
  100
AcDbEntity
  8
1
  100
AcDbLine
  10
47.4
  20
-0.710739
  30
0
  11
47.5
  21
-0.710739
  31
0
  0
LINE
  5
176
  100
AcDbEntity
  8
1
  100
AcDbLine
  10
47.5
  20
-0.710739
  30
0
  11
47.6
  21
-0.710739
  31
0
  0
LINE
  5
177
  100
AcDbEntity
  8
1
  100
AcDbLine
  10
47.6
  20
-0.710739
  30
0
  11
47.7
  21
-0.710739
  31
0
  0
LINE
  5
178
  100
AcDbEntity
  8
1
  100
AcDbLine
  10
47.7
  20
-0.710739
  30
0
  11
47.8
  21
-0.710739
  31
0
  0
LINE
  5
179
  100
AcDbEntity
  8
1
  100
AcDbLine
  10
47.8
  20
-0.710739
  30
0
  11
47.9
  21
-0.710739
  31
0
  0
LINE
  5
17a
  100
AcDbEntity
  8
1
  100
AcDbLine
  10
47.9
  20
-0.710739
  30
0
  11
48
  21
-0.710739
  31
0
  0
LINE
  5
17b
  100
AcDbEntity
  8
1
  100
AcDbLine
  10
48
  20
-0.710739
  30
0
  11
48.1
  21
-0.710739
  31
0
  0
LINE
  5
17c
  100
AcDbEntity
  8
1
  100
AcDbLine
  10
48.1
  20
-0.710739
  30
0
  11
48.2
  21
-0.710739
  31
0
  0
LINE
  5
17d
  100
AcDbEntity
  8
1
  100
AcDbLine
  10
48.2
  20
-0.710739
  30
0
  11
48.3
  21
-0.710739
  31
0
  0
LINE
  5
17e
  100
AcDbEntity
  8
1
  100
AcDbLine
  10
48.3
  20
-0.710739
  30
0
  11
48.4
  21
-0.710739
  31
0
  0
LINE
  5
17f
  100
AcDbEntity
  8
1
  100
AcDbLine
  10
48.4
  20
-0.710739
  30
0
  11
48.5
  21
-0.710739
  31
0
  0
LINE
  5
180
  100
AcDbEntity
  8
1
  100
AcDbLine
  10
48.5
  20
-0.710739
  30
0
  11
48.6
  21
-0.710739
  31
0
  0
LINE
  5
181
  100
AcDbEntity
  8
1
  100
AcDbLine
  10
48.6
  20
-0.710739
  30
0
  11
48.7
  21
-0.710739
  31
0
  0
LINE
  5
182
  100
AcDbEntity
  8
1
  100
AcDbLine
  10
48.7
  20
-0.710739
  30
0
  11
48.8
  21
-0.710739
  31
0
  0
LINE
  5
183
  100
AcDbEntity
  8
1
  100
AcDbLine
  10
48.8
  20
-0.710739
  30
0
  11
48.9
  21
-0.710739
  31
0
  0
LINE
  5
184
  100
AcDbEntity
  8
1
  100
AcDbLine
  10
48.9
  20
-0.710739
  30
0
  11
49
  21
-0.710739
  31
0
  0
LINE
  5
185
  100
AcDbEntity
  8
1
  100
AcDbLine
  10
49
  20
-0.710739
  30
0
  11
49.1
  21
-0.710739
  31
0
  0
LINE
  5
186
  100
AcDbEntity
  8
1
  100
AcDbLine
  10
49.1
  20
-0.710739
  30
0
  11
49.2
  21
-0.710739
  31
0
  0
LINE
  5
187
  100
AcDbEntity
  8
1
  100
AcDbLine
  10
49.2
  20
-0.710739
  30
0
  11
49.3
  21
-0.710739
  31
0
  0
LINE
  5
188
  100
AcDbEntity
  8
1
  100
AcDbLine
  10
49.3
  20
-0.710739
  30
0
  11
49.4
  21
-0.710739
  31
0
  0
LINE
  5
189
  100
AcDbEntity
  8
1
  100
AcDbLine
  10
49.4
  20
-0.710739
  30
0
  11
49.5
  21
-0.710739
  31
0
  0
LINE
  5
18a
  100
AcDbEntity
  8
1
  100
AcDbLine
  10
49.5
  20
-0.710739
  30
0
  11
49.6
  21
-0.710739
  31
0
  0
LINE
  5
18b
  100
AcDbEntity
  8
1
  100
AcDbLine
  10
49.6
  20
-0.710739
  30
0
  11
49.7
  21
-0.710739
  31
0
  0
LINE
  5
18c
  100
AcDbEntity
  8
1
  100
AcDbLine
  10
49.7
  20
-0.710739
  30
0
  11
49.8
  21
-0.710739
  31
0
  0
LINE
  5
18d
  100
AcDbEntity
  8
1
  100
AcDbLine
  10
49.8
  20
-0.710739
  30
0
  11
49.9
  21
-0.710739
  31
0
  0
LINE
  5
18e
  100
AcDbEntity
  8
1
  100
AcDbLine
  10
49.9
  20
-0.710739
  30
0
  11
50
  21
-0.710739
  31
0
  0
LINE
  5
18f
  100
AcDbEntity
  8
1
  100
AcDbLine
  10
50
  20
0
  30
0
  11
50
  21
-2.3
  31
0
  0
LINE
  5
190
  100
AcDbEntity
  8
1
  100
AcDbLine
  10
50
  20
-2.3
  30
0
  11
47.2
  21
-2.3
  31
0
  0
LINE
  5
191
  100
AcDbEntity
  8
1
  100
AcDbLine
  10
47.2
  20
-2.3
  30
0
  11
47.3
  21
-2.3
  31
0
  0
LINE
  5
192
  100
AcDbEntity
  8
1
  100
AcDbLine
  10
47.3
  20
-2.3
  30
0
  11
47.4
  21
-2.3
  31
0
  0
LINE
  5
193
  100
AcDbEntity
  8
1
  100
AcDbLine
  10
47.4
  20
-2.3
  30
0
  11
47.5
  21
-2.3
  31
0
  0
LINE
  5
194
  100
AcDbEntity
  8
1
  100
AcDbLine
  10
47.5
  20
-2.3
  30
0
  11
47.6
  21
-2.3
  31
0
  0
LINE
  5
195
  100
AcDbEntity
  8
1
  100
AcDbLine
  10
47.6
  20
-2.3
  30
0
  11
47.7
  21
-2.3
  31
0
  0
LINE
  5
196
  100
AcDbEntity
  8
1
  100
AcDbLine
  10
47.7
  20
-2.3
  30
0
  11
47.8
  21
-2.3
  31
0
  0
LINE
  5
197
  100
AcDbEntity
  8
1
  100
AcDbLine
  10
47.8
  20
-2.3
  30
0
  11
47.9
  21
-2.3
  31
0
  0
LINE
  5
198
  100
AcDbEntity
  8
1
  100
AcDbLine
  10
47.9
  20
-2.3
  30
0
  11
48
  21
-2.3
  31
0
  0
LINE
  5
199
  100
AcDbEntity
  8
1
  100
AcDbLine
  10
48
  20
-2.3
  30
0
  11
48.1
  21
-2.3
  31
0
  0
LINE
  5
19a
  100
AcDbEntity
  8
1
  100
AcDbLine
  10
48.1
  20
-2.3
  30
0
  11
48.2
  21
-2.3
  31
0
  0
LINE
  5
19b
  100
AcDbEntity
  8
1
  100
AcDbLine
  10
48.2
  20
-2.3
  30
0
  11
48.3
  21
-2.3
  31
0
  0
LINE
  5
19c
  100
AcDbEntity
  8
1
  100
AcDbLine
  10
48.3
  20
-2.3
  30
0
  11
48.4
  21
-2.3
  31
0
  0
LINE
  5
19d
  100
AcDbEntity
  8
1
  100
AcDbLine
  10
48.4
  20
-2.3
  30
0
  11
48.5
  21
-2.3
  31
0
  0
LINE
  5
19e
  100
AcDbEntity
  8
1
  100
AcDbLine
  10
48.5
  20
-2.3
  30
0
  11
48.6
  21
-2.3
  31
0
  0
LINE
  5
19f
  100
AcDbEntity
  8
1
  100
AcDbLine
  10
48.6
  20
-2.3
  30
0
  11
48.7
  21
-2.3
  31
0
  0
LINE
  5
1a0
  100
AcDbEntity
  8
1
  100
AcDbLine
  10
48.7
  20
-2.3
  30
0
  11
48.8
  21
-2.3
  31
0
  0
LINE
  5
1a1
  100
AcDbEntity
  8
1
  100
AcDbLine
  10
48.8
  20
-2.3
  30
0
  11
48.9
  21
-2.3
  31
0
  0
LINE
  5
1a2
  100
AcDbEntity
  8
1
  100
AcDbLine
  10
48.9
  20
-2.3
  30
0
  11
49
  21
-2.3
  31
0
  0
LINE
  5
1a3
  100
AcDbEntity
  8
1
  100
AcDbLine
  10
49
  20
-2.3
  30
0
  11
49.1
  21
-2.3
  31
0
  0
LINE
  5
1a4
  100
AcDbEntity
  8
1
  100
AcDbLine
  10
49.1
  20
-2.3
  30
0
  11
49.2
  21
-2.3
  31
0
  0
LINE
  5
1a5
  100
AcDbEntity
  8
1
  100
AcDbLine
  10
49.2
  20
-2.3
  30
0
  11
49.3
  21
-2.3
  31
0
  0
LINE
  5
1a6
  100
AcDbEntity
  8
1
  100
AcDbLine
  10
49.3
  20
-2.3
  30
0
  11
49.4
  21
-2.3
  31
0
  0
LINE
  5
1a7
  100
AcDbEntity
  8
1
  100
AcDbLine
  10
49.4
  20
-2.3
  30
0
  11
49.5
  21
-2.3
  31
0
  0
LINE
  5
1a8
  100
AcDbEntity
  8
1
  100
AcDbLine
  10
49.5
  20
-2.3
  30
0
  11
49.6
  21
-2.3
  31
0
  0
LINE
  5
1a9
  100
AcDbEntity
  8
1
  100
AcDbLine
  10
49.6
  20
-2.3
  30
0
  11
49.7
  21
-2.3
  31
0
  0
LINE
  5
1aa
  100
AcDbEntity
  8
1
  100
AcDbLine
  10
49.7
  20
-2.3
  30
0
  11
49.8
  21
-2.3
  31
0
  0
LINE
  5
1ab
  100
AcDbEntity
  8
1
  100
AcDbLine
  10
49.8
  20
-2.3
  30
0
  11
49.9
  21
-2.3
  31
0
  0
LINE
  5
1ac
  100
AcDbEntity
  8
1
  100
AcDbLine
  10
49.9
  20
-2.3
  30
0
  11
50
  21
-2.3
  31
0
  0
LINE
  5
1ad
  100
AcDbEntity
  8
1
  100
AcDbLine
  10
50
  20
-2.3
  30
0
  11
50
  21
2.3
  31
0
  0
LINE
  5
1ae
  100
AcDbEntity
  8
1
  100
AcDbLine
  10
50
  20
2.3
  30
0
  11
49.9
  21
2.3
  31
0
  0
LINE
  5
1af
  100
AcDbEntity
  8
1
  100
AcDbLine
  10
49.9
  20
2.3
  30
0
  11
49.8
  21
2.3
  31
0
  0
LINE
  5
1b0
  100
AcDbEntity
  8
1
  100
AcDbLine
  10
49.8
  20
2.3
  30
0
  11
49.7
  21
2.3
  31
0
  0
LINE
  5
1b1
  100
AcDbEntity
  8
1
  100
AcDbLine
  10
49.7
  20
2.3
  30
0
  11
49.6
  21
2.3
  31
0
  0
LINE
  5
1b2
  100
AcDbEntity
  8
1
  100
AcDbLine
  10
49.6
  20
2.3
  30
0
  11
49.5
  21
2.3
  31
0
  0
LINE
  5
1b3
  100
AcDbEntity
  8
1
  100
AcDbLine
  10
49.5
  20
2.3
  30
0
  11
49.4
  21
2.3
  31
0
  0
LINE
  5
1b4
  100
AcDbEntity
  8
1
  100
AcDbLine
  10
49.4
  20
2.3
  30
0
  11
49.3
  21
2.3
  31
0
  0
LINE
  5
1b5
  100
AcDbEntity
  8
1
  100
AcDbLine
  10
49.3
  20
2.3
  30
0
  11
49.2
  21
2.3
  31
0
  0
LINE
  5
1b6
  100
AcDbEntity
  8
1
  100
AcDbLine
  10
49.2
  20
2.3
  30
0
  11
49.1
  21
2.3
  31
0
  0
LINE
  5
1b7
  100
AcDbEntity
  8
1
  100
AcDbLine
  10
49.1
  20
2.3
  30
0
  11
49
  21
2.3
  31
0
  0
LINE
  5
1b8
  100
AcDbEntity
  8
1
  100
AcDbLine
  10
49
  20
2.3
  30
0
  11
48.9
  21
2.3
  31
0
  0
LINE
  5
1b9
  100
AcDbEntity
  8
1
  100
AcDbLine
  10
48.9
  20
2.3
  30
0
  11
48.8
  21
2.3
  31
0
  0
LINE
  5
1ba
  100
AcDbEntity
  8
1
  100
AcDbLine
  10
48.8
  20
2.3
  30
0
  11
48.7
  21
2.3
  31
0
  0
LINE
  5
1bb
  100
AcDbEntity
  8
1
  100
AcDbLine
  10
48.7
  20
2.3
  30
0
  11
48.6
  21
2.3
  31
0
  0
LINE
  5
1bc
  100
AcDbEntity
  8
1
  100
AcDbLine
  10
48.6
  20
2.3
  30
0
  11
48.5
  21
2.3
  31
0
  0
LINE
  5
1bd
  100
AcDbEntity
  8
1
  100
AcDbLine
  10
48.5
  20
2.3
  30
0
  11
48.4
  21
2.3
  31
0
  0
LINE
  5
1be
  100
AcDbEntity
  8
1
  100
AcDbLine
  10
48.4
  20
2.3
  30
0
  11
48.3
  21
2.3
  31
0
  0
LINE
  5
1bf
  100
AcDbEntity
  8
1
  100
AcDbLine
  10
48.3
  20
2.3
  30
0
  11
48.2
  21
2.3
  31
0
  0
LINE
  5
1c0
  100
AcDbEntity
  8
1
  100
AcDbLine
  10
48.2
  20
2.3
  30
0
  11
48.1
  21
2.3
  31
0
  0
LINE
  5
1c1
  100
AcDbEntity
  8
1
  100
AcDbLine
  10
48.1
  20
2.3
  30
0
  11
48
  21
2.3
  31
0
  0
LINE
  5
1c2
  100
AcDbEntity
  8
1
  100
AcDbLine
  10
48
  20
2.3
  30
0
  11
47.9
  21
2.3
  31
0
  0
LINE
  5
1c3
  100
AcDbEntity
  8
1
  100
AcDbLine
  10
47.9
  20
2.3
  30
0
  11
47.8
  21
2.3
  31
0
  0
LINE
  5
1c4
  100
AcDbEntity
  8
1
  100
AcDbLine
  10
47.8
  20
2.3
  30
0
  11
47.7
  21
2.3
  31
0
  0
LINE
  5
1c5
  100
AcDbEntity
  8
1
  100
AcDbLine
  10
47.7
  20
2.3
  30
0
  11
47.6
  21
2.3
  31
0
  0
LINE
  5
1c6
  100
AcDbEntity
  8
1
  100
AcDbLine
  10
47.6
  20
2.3
  30
0
  11
47.5
  21
2.3
  31
0
  0
LINE
  5
1c7
  100
AcDbEntity
  8
1
  100
AcDbLine
  10
47.5
  20
2.3
  30
0
  11
47.4
  21
2.3
  31
0
  0
LINE
  5
1c8
  100
AcDbEntity
  8
1
  100
AcDbLine
  10
47.4
  20
2.3
  30
0
  11
47.3
  21
2.3
  31
0
  0
LINE
  5
1c9
  100
AcDbEntity
  8
1
  100
AcDbLine
  10
47.3
  20
2.3
  30
0
  11
47.2
  21
2.3
  31
0
  0
LINE
  5
1ca
  100
AcDbEntity
  8
1
  100
AcDbLine
  10
47.2
  20
2.3
  30
0
  11
47.2
  21
1.738208
  31
0
  0
LINE
  5
1cb
  100
AcDbEntity
  8
1
  100
AcDbLine
  10
47.2
  20
1.738208
  30
0
  11
47.1
  21
1.738219
  31
0
  0
LINE
  5
1cc
  100
AcDbEntity
  8
1
  100
AcDbLine
  10
47.1
  20
1.738219
  30
0
  11
47
  21
1.738254
  31
0
  0
LINE
  5
1cd
  100
AcDbEntity
  8
1
  100
AcDbLine
  10
47
  20
1.738254
  30
0
  11
46.9
  21
1.738311
  31
0
  0
LINE
  5
1ce
  100
AcDbEntity
  8
1
  100
AcDbLine
  10
46.9
  20
1.738311
  30
0
  11
46.8
  21
1.738389
  31
0
  0
LINE
  5
1cf
  100
AcDbEntity
  8
1
  100
AcDbLine
  10
46.8
  20
1.738389
  30
0
  11
46.7
  21
1.738487
  31
0
  0
LINE
  5
1d0
  100
AcDbEntity
  8
1
  100
AcDbLine
  10
46.7
  20
1.738487
  30
0
  11
46.6
  21
1.738602
  31
0
  0
LINE
  5
1d1
  100
AcDbEntity
  8
1
  100
AcDbLine
  10
46.6
  20
1.738602
  30
0
  11
46.5
  21
1.738732
  31
0
  0
LINE
  5
1d2
  100
AcDbEntity
  8
1
  100
AcDbLine
  10
46.5
  20
1.738732
  30
0
  11
46.4
  21
1.738874
  31
0
  0
LINE
  5
1d3
  100
AcDbEntity
  8
1
  100
AcDbLine
  10
46.4
  20
1.738874
  30
0
  11
46.3
  21
1.739025
  31
0
  0
LINE
  5
1d4
  100
AcDbEntity
  8
1
  100
AcDbLine
  10
46.3
  20
1.739025
  30
0
  11
46.2
  21
1.73918
  31
0
  0
LINE
  5
1d5
  100
AcDbEntity
  8
1
  100
AcDbLine
  10
46.2
  20
1.73918
  30
0
  11
46.1
  21
1.739335
  31
0
  0
LINE
  5
1d6
  100
AcDbEntity
  8
1
  100
AcDbLine
  10
46.1
  20
1.739335
  30
0
  11
46
  21
1.739487
  31
0
  0
LINE
  5
1d7
  100
AcDbEntity
  8
1
  100
AcDbLine
  10
46
  20
1.739487
  30
0
  11
45.9
  21
1.739629
  31
0
  0
LINE
  5
1d8
  100
AcDbEntity
  8
1
  100
AcDbLine
  10
45.9
  20
1.739629
  30
0
  11
45.8
  21
1.739756
  31
0
  0
LINE
  5
1d9
  100
AcDbEntity
  8
1
  100
AcDbLine
  10
45.8
  20
1.739756
  30
0
  11
45.7
  21
1.739863
  31
0
  0
LINE
  5
1da
  100
AcDbEntity
  8
1
  100
AcDbLine
  10
45.7
  20
1.739863
  30
0
  11
45.6
  21
1.739943
  31
0
  0
LINE
  5
1db
  100
AcDbEntity
  8
1
  100
AcDbLine
  10
45.6
  20
1.739943
  30
0
  11
45.5
  21
1.73999
  31
0
  0
LINE
  5
1dc
  100
AcDbEntity
  8
1
  100
AcDbLine
  10
45.5
  20
1.73999
  30
0
  11
45.433178
  21
1.74
  31
0
  0
LINE
  5
1dd
  100
AcDbEntity
  8
1
  100
AcDbLine
  10
33.825786
  20
3
  30
0
  11
33.825786
  21
-3
  31
0
  0
LINE
  5
1de
  100
AcDbEntity
  8
1
  100
AcDbLine
  10
33.825786
  20
-3
  30
0
  11
33.825786
  21
3
  31
0
  0
LINE
  5
1df
  100
AcDbEntity
  8
SK1
  100
AcDbLine
  10
32.83
  20
3
  30
0
  11
0.4
  21
3
  31
0
  0
LINE
  5
1e0
  100
AcDbEntity
  8
SK1
  100
AcDbLine
  10
0.4
  20
3
  30
0
  11
0
  21
2.6
  31
0
  0
LINE
  5
1e1
  100
AcDbEntity
  8
SK1
  100
AcDbLine
  10
32.83
  20
-3
  30
0
  11
0.4
  21
-3
  31
0
  0
LINE
  5
1e2
  100
AcDbEntity
  8
SK1
  100
AcDbLine
  10
0.4
  20
-3
  30
0
  11
0
  21
-2.6
  31
0
  0
LINE
  5
1e3
  100
AcDbEntity
  8
SK1
  100
AcDbLine
  10
0.4
  20
3
  30
0
  11
0.4
  21
-3
  31
0
  0
LINE
  5
1e4
  100
AcDbEntity
  8
SK1
  100
AcDbLine
  10
0
  20
2.6
  30
0
  11
0
  21
-2.6
  31
0
  0
LINE
  5
1e5
  100
AcDbEntity
  8
SK1
  100
AcDbLine
  10
33.8701
  20
1.40688
  30
0
  11
34.2369
  21
1.0401
  31
0
  0
LINE
  5
1e6
  100
AcDbEntity
  8
SK1
  100
AcDbLine
  10
33.3628
  20
1.66666
  30
0
  11
34.4967
  21
0.532833
  31
0
  0
LINE
  5
1e7
  100
AcDbEntity
  8
SK1
  100
AcDbLine
  10
33.0454
  20
1.73657
  30
0
  11
34.5666
  21
0.215434
  31
0
  0
LINE
  5
1e8
  100
AcDbEntity
  8
SK1
  100
AcDbLine
  10
32.83
  20
1.70452
  30
0
  11
34.5345
  21
0
  31
0
  0
LINE
  5
1e9
  100
AcDbEntity
  8
SK1
  100
AcDbLine
  10
32.83
  20
1.45703
  30
0
  11
34.287
  21
0
  31
0
  0
LINE
  5
1ea
  100
AcDbEntity
  8
SK1
  100
AcDbLine
  10
32.83
  20
1.20954
  30
0
  11
34.0395
  21
0
  31
0
  0
LINE
  5
1eb
  100
AcDbEntity
  8
SK1
  100
AcDbLine
  10
32.83
  20
0.962054
  30
0
  11
33.7921
  21
0
  31
0
  0
LINE
  5
1ec
  100
AcDbEntity
  8
SK1
  100
AcDbLine
  10
32.83
  20
0.714566
  30
0
  11
33.5446
  21
0
  31
0
  0
LINE
  5
1ed
  100
AcDbEntity
  8
SK1
  100
AcDbLine
  10
32.83
  20
0.467079
  30
0
  11
33.2971
  21
0
  31
0
  0
LINE
  5
1ee
  100
AcDbEntity
  8
SK1
  100
AcDbLine
  10
32.83
  20
0.219592
  30
0
  11
33.0496
  21
0
  31
0
  0
LINE
  5
1ef
  100
AcDbEntity
  8
SK1
  100
AcDbLine
  10
32.83
  20
1.70452
  30
0
  11
32.8741
  21
1.74861
  31
0
  0
LINE
  5
1f0
  100
AcDbEntity
  8
SK1
  100
AcDbLine
  10
32.83
  20
1.45703
  30
0
  11
33.101
  21
1.72802
  31
0
  0
LINE
  5
1f1
  100
AcDbEntity
  8
SK1
  100
AcDbLine
  10
32.83
  20
1.20954
  30
0
  11
33.3042
  21
1.6837
  31
0
  0
LINE
  5
1f2
  100
AcDbEntity
  8
SK1
  100
AcDbLine
  10
32.83
  20
0.962054
  30
0
  11
33.4888
  21
1.62082
  31
0
  0
LINE
  5
1f3
  100
AcDbEntity
  8
SK1
  100
AcDbLine
  10
32.83
  20
0.714566
  30
0
  11
33.6571
  21
1.54167
  31
0
  0
LINE
  5
1f4
  100
AcDbEntity
  8
SK1
  100
AcDbLine
  10
32.83
  20
0.467079
  30
0
  11
33.811
  21
1.44812
  31
0
  0
LINE
  5
1f5
  100
AcDbEntity
  8
SK1
  100
AcDbLine
  10
32.83
  20
0.219592
  30
0
  11
33.9526
  21
1.34216
  31
0
  0
LINE
  5
1f6
  100
AcDbEntity
  8
SK1
  100
AcDbLine
  10
32.8579
  20
0
  30
0
  11
34.0808
  21
1.22288
  31
0
  0
LINE
  5
1f7
  100
AcDbEntity
  8
SK1
  100
AcDbLine
  10
33.1054
  20
0
  30
0
  11
34.197
  21
1.09157
  31
0
  0
LINE
  5
1f8
  100
AcDbEntity
  8
SK1
  100
AcDbLine
  10
33.3529
  20
0
  30
0
  11
34.3007
  21
0.947822
  31
0
  0
LINE
  5
1f9
  100
AcDbEntity
  8
SK1
  100
AcDbLine
  10
33.6004
  20
0
  30
0
  11
34.3905
  21
0.790145
  31
0
  0
LINE
  5
1fa
  100
AcDbEntity
  8
SK1
  100
AcDbLine
  10
33.8478
  20
0
  30
0
  11
34.4664
  21
0.618517
  31
0
  0
LINE
  5
1fb
  100
AcDbEntity
  8
SK1
  100
AcDbLine
  10
34.0953
  20
0
  30
0
  11
34.526
  21
0.430696
  31
0
  0
LINE
  5
1fc
  100
AcDbEntity
  8
SK1
  100
AcDbLine
  10
34.3428
  20
0
  30
0
  11
34.5656
  21
0.222827
  31
0
  0
LINE
  5
1fd
  100
AcDbEntity
  8
SK1
  100
AcDbLine
  10
32.83
  20
0
  30
0
  11
32.83
  21
1.75
  31
0
  0
LINE
  5
1fe
  100
AcDbEntity
  8
SK1
  100
AcDbLine
  10
32.83
  20
0
  30
0
  11
34.58
  21
0
  31
0
  0
ARC
  5
1ff
  100
AcDbEntity
  8
SK1
  100
AcDbCircle
  10
32.83
  20
0
  30
0
  40
1.75
  100
AcDbArc
  50
0
  51
90
  0
ARC
  5
200
  100
AcDbEntity
  8
SK1
  100
AcDbCircle
  10
32.83
  20
0
  30
0
  40
1.75
  100
AcDbArc
  50
90
  51
180
  0
LINE
  5
201
  100
AcDbEntity
  8
SK1
  100
AcDbLine
  10
32.8021
  20
0
  30
0
  11
32.83
  21
-0.027896
  31
0
  0
LINE
  5
202
  100
AcDbEntity
  8
SK1
  100
AcDbLine
  10
32.5546
  20
0
  30
0
  11
32.83
  21
-0.275383
  31
0
  0
LINE
  5
203
  100
AcDbEntity
  8
SK1
  100
AcDbLine
  10
32.3071
  20
0
  30
0
  11
32.83
  21
-0.522871
  31
0
  0
LINE
  5
204
  100
AcDbEntity
  8
SK1
  100
AcDbLine
  10
32.0596
  20
0
  30
0
  11
32.83
  21
-0.770358
  31
0
  0
LINE
  5
205
  100
AcDbEntity
  8
SK1
  100
AcDbLine
  10
31.8122
  20
0
  30
0
  11
32.83
  21
-1.01785
  31
0
  0
LINE
  5
206
  100
AcDbEntity
  8
SK1
  100
AcDbLine
  10
31.5647
  20
0
  30
0
  11
32.83
  21
-1.26533
  31
0
  0
LINE
  5
207
  100
AcDbEntity
  8
SK1
  100
AcDbLine
  10
31.3172
  20
0
  30
0
  11
32.83
  21
-1.51282
  31
0
  0
LINE
  5
208
  100
AcDbEntity
  8
SK1
  100
AcDbLine
  10
31.0803
  20
-0.010642
  30
0
  11
32.8194
  21
-1.74967
  31
0
  0
LINE
  5
209
  100
AcDbEntity
  8
SK1
  100
AcDbLine
  10
31.1036
  20
-0.281429
  30
0
  11
32.5486
  21
-1.72637
  31
0
  0
LINE
  5
20a
  100
AcDbEntity
  8
SK1
  100
AcDbLine
  10
31.1939
  20
-0.619147
  30
0
  11
32.2109
  21
-1.63613
  31
0
  0
LINE
  5
20b
  100
AcDbEntity
  8
SK1
  100
AcDbLine
  10
31.0814
  20
-0.044098
  30
0
  11
31.1255
  21
0
  31
0
  0
LINE
  5
20c
  100
AcDbEntity
  8
SK1
  100
AcDbLine
  10
31.102
  20
-0.270991
  30
0
  11
31.373
  21
0
  31
0
  0
LINE
  5
20d
  100
AcDbEntity
  8
SK1
  100
AcDbLine
  10
31.1463
  20
-0.474162
  30
0
  11
31.6205
  21
0
  31
0
  0
LINE
  5
20e
  100
AcDbEntity
  8
SK1
  100
AcDbLine
  10
31.2092
  20
-0.658762
  30
0
  11
31.8679
  21
0
  31
0
  0
LINE
  5
20f
  100
AcDbEntity
  8
SK1
  100
AcDbLine
  10
31.2883
  20
-0.827105
  30
0
  11
32.1154
  21
0
  31
0
  0
LINE
  5
210
  100
AcDbEntity
  8
SK1
  100
AcDbLine
  10
31.3819
  20
-0.981039
  30
0
  11
32.3629
  21
0
  31
0
  0
LINE
  5
211
  100
AcDbEntity
  8
SK1
  100
AcDbLine
  10
31.4878
  20
-1.12257
  30
0
  11
32.6104
  21
0
  31
0
  0
LINE
  5
212
  100
AcDbEntity
  8
SK1
  100
AcDbLine
  10
31.6071
  20
-1.25077
  30
0
  11
32.83
  21
-0.027896
  31
0
  0
LINE
  5
213
  100
AcDbEntity
  8
SK1
  100
AcDbLine
  10
31.7384
  20
-1.36695
  30
0
  11
32.83
  21
-0.275383
  31
0
  0
LINE
  5
214
  100
AcDbEntity
  8
SK1
  100
AcDbLine
  10
31.8822
  20
-1.47069
  30
0
  11
32.83
  21
-0.522871
  31
0
  0
LINE
  5
215
  100
AcDbEntity
  8
SK1
  100
AcDbLine
  10
32.0399
  20
-1.5605
  30
0
  11
32.83
  21
-0.770358
  31
0
  0
LINE
  5
216
  100
AcDbEntity
  8
SK1
  100
AcDbLine
  10
32.2115
  20
-1.63636
  30
0
  11
32.83
  21
-1.01785
  31
0
  0
LINE
  5
217
  100
AcDbEntity
  8
SK1
  100
AcDbLine
  10
32.3993
  20
-1.69603
  30
0
  11
32.83
  21
-1.26533
  31
0
  0
LINE
  5
218
  100
AcDbEntity
  8
SK1
  100
AcDbLine
  10
32.6072
  20
-1.73565
  30
0
  11
32.83
  21
-1.51282
  31
0
  0
LINE
  5
219
  100
AcDbEntity
  8
SK1
  100
AcDbLine
  10
32.83
  20
0
  30
0
  11
31.08
  21
0
  31
0
  0
LINE
  5
21a
  100
AcDbEntity
  8
SK1
  100
AcDbLine
  10
32.83
  20
-1.75
  30
0
  11
32.83
  21
0
  31
0
  0
ARC
  5
21b
  100
AcDbEntity
  8
SK1
  100
AcDbCircle
  10
32.83
  20
0
  30
0
  40
1.75
  100
AcDbArc
  50
180
  51
270
  0
ARC
  5
21c
  100
AcDbEntity
  8
SK1
  100
AcDbCircle
  10
32.83
  20
0
  30
0
  40
1.75
  100
AcDbArc
  50
270
  51
0
  0
LINE
  5
28d
  100
AcDbEntity
  8
NOCUT
  100
AcDbLine
  10
47.2
  20
0
  30
0
  11
47.2
  21
1.74
  31
0
  0
LINE
  5
28e
  100
AcDbEntity
  8
NOCUT
  100
AcDbLine
  10
47.2
  20
1.74
  30
0
  11
35.5
  21
1.74
  31
0
  0
ARC
  5
28f
  100
AcDbEntity
  8
NOCUT
  100
AcDbCircle
  10
35.5
  20
2.74
  30
0
  40
1
  100
AcDbArc
  50
225
  51
270
  0
LINE
  5
290
  100
AcDbEntity
  8
NOCUT
  100
AcDbLine
  10
34.792893
  20
2.032893
  30
0
  11
33.825786
  21
3
  31
0
  0
LINE
  5
291
  100
AcDbEntity
  8
NOCUT
  100
AcDbLine
  10
33.825786
  20
3
  30
0
  11
32.83
  21
3
  31
0
  0
LINE
  5
292
  100
AcDbEntity
  8
NOCUT
  100
AcDbLine
  10
32.83
  20
3
  30
0
  11
32.83
  21
0
  31
0
  0
LINE
  5
293
  100
AcDbEntity
  8
NOCUT
  100
AcDbLine
  10
32.83
  20
0
  30
0
  11
47.2
  21
0
  31
0
  0
LINE
  5
294
  100
AcDbEntity
  8
CUT
  100
AcDbLine
  10
50
  20
0
  30
0
  11
50
  21
2.3
  31
0
  0
LINE
  5
295
  100
AcDbEntity
  8
CUT
  100
AcDbLine
  10
50
  20
2.3
  30
0
  11
47.2
  21
2.3
  31
0
  0
LINE
  5
296
  100
AcDbEntity
  8
CUT
  100
AcDbLine
  10
47.2
  20
2.3
  30
0
  11
47.2
  21
0
  31
0
  0
LINE
  5
297
  100
AcDbEntity
  8
CUT
  100
AcDbLine
  10
47.2
  20
0
  30
0
  11
50
  21
0
  31
0
  0
LINE
  5
298
  100
AcDbEntity
  8
4
  100
AcDbLine
  10
32.83
  20
0
  30
0
  11
50
  21
0
  31
0
  0
LINE
  5
299
  100
AcDbEntity
  8
SK4
  100
AcDbLine
  10
-1
  20
0
  30
0
  11
51
  21
0
  31
0
  0
LINE
  5
29a
  100
AcDbEntity
  8
INFTOTAL
  100
AcDbLine
  10
-15.7
  20
23.583274
  30
0
  11
65.7
  21
23.583274
  31
0
  0
LINE
  5
29b
  100
AcDbEntity
  8
INFTOTAL
  100
AcDbLine
  10
65.7
  20
23.583274
  30
0
  11
65.7
  21
-47.29485
  31
0
  0
LINE
  5
29c
  100
AcDbEntity
  8
INFTOTAL
  100
AcDbLine
  10
65.7
  20
-47.29485
  30
0
  11
-15.7
  21
-47.29485
  31
0
  0
LINE
  5
29d
  100
AcDbEntity
  8
INFTOTAL
  100
AcDbLine
  10
-15.7
  20
-47.29485
  30
0
  11
-15.7
  21
23.583274
  31
0
  0
ENDSEC
  0
SECTION
  2
OBJECTS
  0
DICTIONARY
  5
29e
  330
0
100
AcDbDictionary
281
    1
  3
ACAD_GROUP
  350
29f
  0
DICTIONARY
  5
29f
102
{ACAD_REACTORS
  330
29e
102
}
  330
29e
100
AcDbDictionary
281
    1
  0
ENDSEC
  0
EOF
