  0
SECTION
  2
HEADER
  9
$ACADVER
  1
AC1015
  9
$DWGCODEPAGE
  3
ANSI_932
  9
$HANDSEED
  5
106AB90
  0
ENDSEC
  0
SECTION
  2
CLASSES
  0
CLASS
  1
IMAGEDEF
  2
AcDbRasterImageDef
  3
ISM
  90
0
  91
4
  280
0
  281
0
  0
CLASS
  1
IMAGE
  2
AcDbRasterImage
  3
ISM
  90
127
  91
5
  280
0
  281
1
  0
CLASS
  1
IMAGEDEF_REACTOR
  2
AcDbRasterImageDefReactor
  3
ISM
  90
1
  91
4
  280
0
  281
0
  0
ENDSEC
  0
SECTION
  2
TABLES
  0
TABLE
  2
VPORT
  5
2
  330
0
  100
AcDbSymbolTable
  70
    0
  0
ENDTAB
  0
TABLE
  2
LTYPE
  5
3
  330
0
  100
AcDbSymbolTable
  70
    4
  0
LTYPE
  5
4
  330
3
  100
AcDbSymbolTableRecord
  100
AcDbLinetypeTableRecord
  2
ByBlock
  70
    0
  3

  72
65
  73
    0
  40
0
  0
LTYPE
  5
5
  330
3
  100
AcDbSymbolTableRecord
  100
AcDbLinetypeTableRecord
  2
ByLayer
  70
    0
  3

  72
65
  73
    0
  40
0
  0
LTYPE
  5
6
  330
3
  100
AcDbSymbolTableRecord
  100
AcDbLinetypeTableRecord
  2
CONTINUOUS
  70
    0
  3
Solid Line
  72
65
  73
    0
  40
0
  0
LTYPE
  5
7
  330
3
  100
AcDbSymbolTableRecord
  100
AcDbLinetypeTableRecord
  2
DASH
  70
    0
  3
Hidden
  72
65
  73
2
  40
2.5
  49
1.5
  74
0
  49
-1
  74
0
  0
LTYPE
  5
8
  330
3
  100
AcDbSymbolTableRecord
  100
AcDbLinetypeTableRecord
  2
LONGDASHDASH
  70
    0
  3
__ . __
  72
65
  73
    4
  40
7
  49
4
  74
    0
  49
-1
  74
    0
  49
1
  74
    0
  49
-1
  74
    0
  0
ENDTAB
  0
TABLE
  2
LAYER
  5
9
  330
0
  100
AcDbSymbolTable
  70
    40
  0
LAYER
  5
a
  330
9
  100
AcDbSymbolTableRecord
  100
AcDbLayerTableRecord
  2
0
  70
    0
  62
    0
  6
CONTINUOUS
  390
0
  0
LAYER
  5
c
  330
9
  100
AcDbSymbolTableRecord
  100
AcDbLayerTableRecord
  2
1
  70
    0
  62
    4
  6
CONTINUOUS
  370
50
  390
0
  0
LAYER
  5
d
  330
9
  100
AcDbSymbolTableRecord
  100
AcDbLayerTableRecord
  2
2
  70
    0
  62
    7
  6
CONTINUOUS
  370
25
  390
0
  0
LAYER
  5
f
  330
9
  100
AcDbSymbolTableRecord
  100
AcDbLayerTableRecord
  2
4
  70
    0
  62
    2
  6
LONGDASHDASH
  370
25
  390
0
  0
LAYER
  5
13
  330
9
  100
AcDbSymbolTableRecord
  100
AcDbLayerTableRecord
  2
SK1
  70
    0
  62
    4
  6
CONTINUOUS
  370
50
  390
0
  0
LAYER
  5
14
  330
9
  100
AcDbSymbolTableRecord
  100
AcDbLayerTableRecord
  2
SK2
  70
    0
  62
    7
  6
CONTINUOUS
  370
25
  390
0
  0
LAYER
  5
16
  330
9
  100
AcDbSymbolTableRecord
  100
AcDbLayerTableRecord
  2
SK4
  70
    0
  62
    2
  6
LONGDASHDASH
  370
25
  390
0
  0
LAYER
  5
21
  330
9
  100
AcDbSymbolTableRecord
  100
AcDbLayerTableRecord
  2
NOCUT
  70
    0
  62
    7
  6
CONTINUOUS
  370
25
  390
0
  0
LAYER
  5
22
  330
9
  100
AcDbSymbolTableRecord
  100
AcDbLayerTableRecord
  2
CUT
  70
    0
  62
    1
  6
CONTINUOUS
  370
25
  390
0
  0
LAYER
  5
26
  330
9
  100
AcDbSymbolTableRecord
  100
AcDbLayerTableRecord
  2
INFTOTAL
  70
    0
  62
    9
  6
CONTINUOUS
  370
18
  390
0
  0
ENDTAB
  0
TABLE
  2
STYLE
  5
27
  330
0
  100
AcDbSymbolTable
  70
    1
  0
STYLE
  5
28
  330
27
  100
AcDbSymbolTableRecord
  100
AcDbTextStyleTableRecord
  2
Monospac821 BT
  70
    0
  40
    3.5
  41
1
  50
0
  71
0
  42
3
  3

  4

  1001
ACAD
  1000
Monospac821 BT
  1071
256
  0
ENDTAB
  0
TABLE
  2
VIEW
  5
29
  330
0
  100
AcDbSymbolTable
  70
    0
  0
ENDTAB
  0
TABLE
  2
UCS
  5
2a
  330
0
  100
AcDbSymbolTable
  70
    0
  0
ENDTAB
  0
TABLE
  2
APPID
  5
2b
  330
0
  100
AcDbSymbolTable
  70
    1
  0
APPID
  5
2c
  330
2b
  100
AcDbSymbolTableRecord
  100
AcDbRegAppTableRecord
  2
ACAD
  70
    0
  0
ENDTAB
  0
TABLE
  2
DIMSTYLE
  5
2d
  330
0
  100
AcDbSymbolTable
  70
    1
  100
AcDbDimStyleTable
  0
DIMSTYLE
  105
2e
  330
2d
  100
AcDbSymbolTableRecord
  100
AcDbDimStyleTableRecord
  2
STANDARD
  70
    0
  41
    3
  42
0.5
  44
1
  73
0
  77
1
  78
1
  140
3.5
  141
2.5
  143
0.03937
  147
0.8
  172
1
  174
1
  178
0
  179
1
  271
2
  279
1
  284
1
  340
28
  0
ENDTAB
  0
TABLE
  2
BLOCK_RECORD
  5
2f
  330
0
  100
AcDbSymbolTable
  70
    2
  0
BLOCK_RECORD
  5
30
  330
2f
  100
AcDbSymbolTableRecord
  100
AcDbBlockTableRecord
  2
*Model_Space
  0
BLOCK_RECORD
  5
31
  330
2f
  100
AcDbSymbolTableRecord
  100
AcDbBlockTableRecord
  2
*Paper_Space
  0
BLOCK_RECORD
  5
179
  330
2f
  100
AcDbSymbolTableRecord
  100
AcDbBlockTableRecord
  2
*D178
  340
0
  0
BLOCK_RECORD
  5
187
  330
2f
  100
AcDbSymbolTableRecord
  100
AcDbBlockTableRecord
  2
*D186
  340
0
  0
BLOCK_RECORD
  5
195
  330
2f
  100
AcDbSymbolTableRecord
  100
AcDbBlockTableRecord
  2
*D194
  340
0
  0
BLOCK_RECORD
  5
1a3
  330
2f
  100
AcDbSymbolTableRecord
  100
AcDbBlockTableRecord
  2
*D1a2
  340
0
  0
BLOCK_RECORD
  5
1b1
  330
2f
  100
AcDbSymbolTableRecord
  100
AcDbBlockTableRecord
  2
*D1b0
  340
0
  0
BLOCK_RECORD
  5
1bf
  330
2f
  100
AcDbSymbolTableRecord
  100
AcDbBlockTableRecord
  2
*D1be
  340
0
  0
BLOCK_RECORD
  5
1cd
  330
2f
  100
AcDbSymbolTableRecord
  100
AcDbBlockTableRecord
  2
*D1cc
  340
0
  0
BLOCK_RECORD
  5
1db
  330
2f
  100
AcDbSymbolTableRecord
  100
AcDbBlockTableRecord
  2
*D1da
  340
0
  0
ENDTAB
  0
ENDSEC
  0
SECTION
  2
BLOCKS
  0
BLOCK
  5
32
  330
30
  100
AcDbEntity
  8
0
  100
AcDbBlockBegin
  2
*Model_Space
  70
    0
  10
0
  20
0
  30
0
  3
*Model_Space
  1

  0
ENDBLK
  5
33
  330
30
  100
AcDbEntity
  8
0
  100
AcDbBlockEnd
  0
BLOCK
  5
34
  330
31
  100
AcDbEntity
  8
0
  100
AcDbBlockBegin
  2
*Paper_Space
  70
    0
  10
0
  20
0
  30
0
  3
*Paper_Space
  1

  0
ENDBLK
  5
35
  330
31
  100
AcDbEntity
  8
0
  100
AcDbBlockEnd
  0
BLOCK
  5
177
  330
179
  100
AcDbEntity
  8
SK2
  100
AcDbBlockBegin
  2
*D178
  70
1
  10
0
  20
0
  30
0
  3
*D178
  1

  0
LINE
  5
17a
  330
179
  100
AcDbEntity
  8
SK2
  100
AcDbLine
  10
0
  20
-43.59485
  30
0
  11
0
  21
2.6
  31
0
  0
LINE
  5
17b
  330
179
  100
AcDbEntity
  8
SK2
  100
AcDbLine
  10
50
  20
-43.59485
  30
0
  11
50
  21
19.883274
  31
0
  0
LINE
  5
17c
  330
179
  100
AcDbEntity
  8
SK2
  100
AcDbLine
  10
0
  20
-41.59485
  30
0
  11
50
  21
-41.59485
  31
0
  0
SOLID
  5
17d
  330
179
  100
AcDbEntity
  8
SK2
  100
AcDbTrace
  10
0
  20
-41.59485
  30
0
  11
2.478612
  21
-41.268534
  31
0
  12
2.478612
  22
-41.921165
  32
0
  13
2.478612
  23
-41.921165
  33
0
  0
SOLID
  5
17e
  330
179
  100
AcDbEntity
  8
SK2
  100
AcDbTrace
  10
50
  20
-41.59485
  30
0
  11
47.521388
  21
-41.921165
  31
0
  12
47.521388
  22
-41.268534
  32
0
  13
47.521388
  23
-41.268534
  33
0
  0
MTEXT
  5
17f
  330
179
  100
AcDbEntity
  8
SK2
  100
AcDbMText
  10
25
  20
-41.59485
  30
0
  11
1
  21
0
  31
0
  40
2
  41
0
  71
8
  72
1
  1
50
  0
POINT
  5
180
  330
179
  100
AcDbEntity
  8
SK2
  62
0
  100
AcDbPoint
  10
0
  20
2.6
  30
0
  0
POINT
  5
181
  330
179
  100
AcDbEntity
  8
SK2
  62
0
  100
AcDbPoint
  10
50
  20
19.883274
  30
0
  0
POINT
  5
182
  330
179
  100
AcDbEntity
  8
SK2
  62
0
  100
AcDbPoint
  10
50
  20
-41.59485
  30
0
  0
ENDBLK
  5
183
  330
179
  100
AcDbEntity
  8
SK2
  100
AcDbBlockEnd
  0
BLOCK
  5
185
  330
187
  100
AcDbEntity
  8
SK2
  100
AcDbBlockBegin
  2
*D186
  70
1
  10
0
  20
0
  30
0
  3
*D186
  1

  0
LINE
  5
188
  330
187
  100
AcDbEntity
  8
SK2
  100
AcDbLine
  10
34.721086
  20
-33.817496
  30
0
  11
34.721086
  21
3
  31
0
  0
LINE
  5
189
  330
187
  100
AcDbEntity
  8
SK2
  100
AcDbLine
  10
0
  20
-43.59485
  30
0
  11
0
  21
2.6
  31
0
  0
LINE
  5
18a
  330
187
  100
AcDbEntity
  8
SK2
  100
AcDbLine
  10
34.721086
  20
-31.817496
  30
0
  11
0
  21
-31.817496
  31
0
  0
SOLID
  5
18b
  330
187
  100
AcDbEntity
  8
SK2
  100
AcDbTrace
  10
34.721086
  20
-31.817496
  30
0
  11
37.199698
  21
-31.49118
  31
0
  12
37.199698
  22
-32.143811
  32
0
  13
37.199698
  23
-32.143811
  33
0
  0
SOLID
  5
18c
  330
187
  100
AcDbEntity
  8
SK2
  100
AcDbTrace
  10
0
  20
-31.817496
  30
0
  11
-2.478612
  21
-32.143811
  31
0
  12
-2.478612
  22
-31.49118
  32
0
  13
-2.478612
  23
-31.49118
  33
0
  0
MTEXT
  5
18d
  330
187
  100
AcDbEntity
  8
SK2
  100
AcDbMText
  10
17.360543
  20
-31.817496
  30
0
  11
1
  21
-0
  31
0
  40
2
  41
0
  71
8
  72
1
  1
34.72
  0
POINT
  5
18e
  330
187
  100
AcDbEntity
  8
SK2
  62
0
  100
AcDbPoint
  10
34.721086
  20
3
  30
0
  0
POINT
  5
18f
  330
187
  100
AcDbEntity
  8
SK2
  62
0
  100
AcDbPoint
  10
0
  20
2.6
  30
0
  0
POINT
  5
190
  330
187
  100
AcDbEntity
  8
SK2
  62
0
  100
AcDbPoint
  10
0
  20
-31.817496
  30
0
  0
ENDBLK
  5
191
  330
187
  100
AcDbEntity
  8
SK2
  100
AcDbBlockEnd
  0
BLOCK
  5
193
  330
195
  100
AcDbEntity
  8
SK2
  100
AcDbBlockBegin
  2
*D194
  70
1
  10
0
  20
0
  30
0
  3
*D194
  1

  0
LINE
  5
196
  330
195
  100
AcDbEntity
  8
SK2
  100
AcDbLine
  10
0.4
  20
-3
  30
0
  11
-12
  21
-3
  31
0
  0
LINE
  5
197
  330
195
  100
AcDbEntity
  8
SK2
  100
AcDbLine
  10
0.4
  20
3
  30
0
  11
-12
  21
3
  31
0
  0
LINE
  5
198
  330
195
  100
AcDbEntity
  8
SK2
  100
AcDbLine
  10
-10
  20
-3
  30
0
  11
-10
  21
3
  31
0
  0
SOLID
  5
199
  330
195
  100
AcDbEntity
  8
SK2
  100
AcDbTrace
  10
-10
  20
-3
  30
0
  11
-10.326315
  21
-0.521388
  31
0
  12
-9.673685
  22
-0.521388
  32
0
  13
-9.673685
  23
-0.521388
  33
0
  0
SOLID
  5
19a
  330
195
  100
AcDbEntity
  8
SK2
  100
AcDbTrace
  10
-10
  20
3
  30
0
  11
-9.673685
  21
0.521388
  31
0
  12
-10.326315
  22
0.521388
  32
0
  13
-10.326315
  23
0.521388
  33
0
  0
MTEXT
  5
19b
  330
195
  100
AcDbEntity
  8
SK2
  100
AcDbMText
  10
-10
  20
-0.064076
  30
0
  11
0
  21
1
  31
0
  40
2
  41
0
  71
8
  72
1
  1
Ø6
  0
POINT
  5
19c
  330
195
  100
AcDbEntity
  8
SK2
  62
0
  100
AcDbPoint
  10
0.4
  20
-3
  30
0
  0
POINT
  5
19d
  330
195
  100
AcDbEntity
  8
SK2
  62
0
  100
AcDbPoint
  10
0.4
  20
3
  30
0
  0
POINT
  5
19e
  330
195
  100
AcDbEntity
  8
SK2
  62
0
  100
AcDbPoint
  10
-10
  20
3
  30
0
  0
ENDBLK
  5
19f
  330
195
  100
AcDbEntity
  8
SK2
  100
AcDbBlockEnd
  0
BLOCK
  5
1a1
  330
1a3
  100
AcDbEntity
  8
2
  100
AcDbBlockBegin
  2
*D1a2
  70
1
  10
0
  20
0
  30
0
  3
*D1a2
  1

  0
LINE
  5
1a4
  330
1a3
  100
AcDbEntity
  8
2
  100
AcDbLine
  10
50
  20
-1.2
  30
0
  11
62
  21
-1.2
  31
0
  0
LINE
  5
1a5
  330
1a3
  100
AcDbEntity
  8
2
  100
AcDbLine
  10
50
  20
1.2
  30
0
  11
62
  21
1.2
  31
0
  0
LINE
  5
1a6
  330
1a3
  100
AcDbEntity
  8
2
  100
AcDbLine
  10
60
  20
-1.2
  30
0
  11
60
  21
8.337169
  31
0
  0
SOLID
  5
1a7
  330
1a3
  100
AcDbEntity
  8
2
  100
AcDbTrace
  10
60
  20
-1.2
  30
0
  11
59.673685
  21
1.278612
  31
0
  12
60.326315
  22
1.278612
  32
0
  13
60.326315
  23
1.278612
  33
0
  0
SOLID
  5
1a8
  330
1a3
  100
AcDbEntity
  8
2
  100
AcDbTrace
  10
60
  20
1.2
  30
0
  11
60.326315
  21
-1.278612
  31
0
  12
59.673685
  22
-1.278612
  32
0
  13
59.673685
  23
-1.278612
  33
0
  0
MTEXT
  5
1a9
  330
1a3
  100
AcDbEntity
  8
2
  100
AcDbMText
  10
60
  20
8.445512
  30
0
  11
0
  21
1
  31
0
  40
2
  41
0
  71
8
  72
1
  1
Ø2.4
  0
POINT
  5
1aa
  330
1a3
  100
AcDbEntity
  8
2
  62
0
  100
AcDbPoint
  10
50
  20
-1.2
  30
0
  0
POINT
  5
1ab
  330
1a3
  100
AcDbEntity
  8
2
  62
0
  100
AcDbPoint
  10
50
  20
1.2
  30
0
  0
POINT
  5
1ac
  330
1a3
  100
AcDbEntity
  8
2
  62
0
  100
AcDbPoint
  10
60
  20
8.337169
  30
0
  0
ENDBLK
  5
1ad
  330
1a3
  100
AcDbEntity
  8
2
  100
AcDbBlockEnd
  0
BLOCK
  5
1af
  330
1b1
  100
AcDbEntity
  8
2
  100
AcDbBlockBegin
  2
*D1b0
  70
1
  10
0
  20
0
  30
0
  3
*D1b0
  1

  0
LINE
  5
1b2
  330
1b1
  100
AcDbEntity
  8
2
  100
AcDbLine
  10
48.6
  20
-0.91
  30
0
  11
41.206644
  21
-0.91
  31
0
  0
LINE
  5
1b3
  330
1b1
  100
AcDbEntity
  8
2
  100
AcDbLine
  10
48.6
  20
0.91
  30
0
  11
41.206644
  21
0.91
  31
0
  0
LINE
  5
1b4
  330
1b1
  100
AcDbEntity
  8
2
  100
AcDbLine
  10
43.206644
  20
-0.91
  30
0
  11
43.206644
  21
14.378596
  31
0
  0
SOLID
  5
1b5
  330
1b1
  100
AcDbEntity
  8
2
  100
AcDbTrace
  10
43.206644
  20
-0.91
  30
0
  11
42.880328
  21
1.568612
  31
0
  12
43.532959
  22
1.568612
  32
0
  13
43.532959
  23
1.568612
  33
0
  0
SOLID
  5
1b6
  330
1b1
  100
AcDbEntity
  8
2
  100
AcDbTrace
  10
43.206644
  20
0.91
  30
0
  11
43.532959
  21
-1.568612
  31
0
  12
42.880328
  22
-1.568612
  32
0
  13
42.880328
  23
-1.568612
  33
0
  0
MTEXT
  5
1b7
  330
1b1
  100
AcDbEntity
  8
2
  100
AcDbMText
  10
43.206644
  20
4.479444
  30
0
  11
0
  21
1
  31
0
  40
2
  41
0
  71
8
  72
1
  1
Ø1.82
  0
POINT
  5
1b8
  330
1b1
  100
AcDbEntity
  8
2
  62
0
  100
AcDbPoint
  10
48.6
  20
-0.91
  30
0
  0
POINT
  5
1b9
  330
1b1
  100
AcDbEntity
  8
2
  62
0
  100
AcDbPoint
  10
48.6
  20
0.91
  30
0
  0
POINT
  5
1ba
  330
1b1
  100
AcDbEntity
  8
2
  62
0
  100
AcDbPoint
  10
43.206644
  20
14.378596
  30
0
  0
ENDBLK
  5
1bb
  330
1b1
  100
AcDbEntity
  8
2
  100
AcDbBlockEnd
  0
BLOCK
  5
1bd
  330
1bf
  100
AcDbEntity
  8
2
  100
AcDbBlockBegin
  2
*D1be
  70
1
  10
0
  20
0
  30
0
  3
*D1be
  1

  0
LINE
  5
1c0
  330
1bf
  100
AcDbEntity
  8
2
  100
AcDbLine
  10
48.6
  20
-25.322624
  30
0
  11
48.6
  21
0.91
  31
0
  0
LINE
  5
1c1
  330
1bf
  100
AcDbEntity
  8
2
  100
AcDbLine
  10
41.25
  20
-25.322624
  30
0
  11
41.25
  21
0.91
  31
0
  0
LINE
  5
1c2
  330
1bf
  100
AcDbEntity
  8
2
  100
AcDbLine
  10
48.6
  20
-23.322624
  30
0
  11
37.698504
  21
-23.322624
  31
0
  0
SOLID
  5
1c3
  330
1bf
  100
AcDbEntity
  8
2
  100
AcDbTrace
  10
48.6
  20
-23.322624
  30
0
  11
51.078612
  21
-22.996309
  31
0
  12
51.078612
  22
-23.64894
  32
0
  13
51.078612
  23
-23.64894
  33
0
  0
SOLID
  5
1c4
  330
1bf
  100
AcDbEntity
  8
2
  100
AcDbTrace
  10
41.25
  20
-23.322624
  30
0
  11
38.771388
  21
-23.64894
  31
0
  12
38.771388
  22
-22.996309
  32
0
  13
38.771388
  23
-22.996309
  33
0
  0
MTEXT
  5
1c5
  330
1bf
  100
AcDbEntity
  8
2
  100
AcDbMText
  10
44.973585
  20
-23.322624
  30
0
  11
1
  21
-0
  31
0
  40
2
  41
0
  71
8
  72
1
  1
7.35
  0
POINT
  5
1c6
  330
1bf
  100
AcDbEntity
  8
2
  62
0
  100
AcDbPoint
  10
48.6
  20
0.91
  30
0
  0
POINT
  5
1c7
  330
1bf
  100
AcDbEntity
  8
2
  62
0
  100
AcDbPoint
  10
41.25
  20
0.91
  30
0
  0
POINT
  5
1c8
  330
1bf
  100
AcDbEntity
  8
2
  62
0
  100
AcDbPoint
  10
37.698504
  20
-23.322624
  30
0
  0
ENDBLK
  5
1c9
  330
1bf
  100
AcDbEntity
  8
2
  100
AcDbBlockEnd
  0
BLOCK
  5
1cb
  330
1cd
  100
AcDbEntity
  8
2
  100
AcDbBlockBegin
  2
*D1cc
  70
1
  10
0
  20
0
  30
0
  3
*D1cc
  1

  0
LINE
  5
1ce
  330
1cd
  100
AcDbEntity
  8
2
  100
AcDbLine
  10
48.6
  20
-0.91
  30
0
  11
48.6
  21
-25.273643
  31
0
  0
LINE
  5
1cf
  330
1cd
  100
AcDbEntity
  8
2
  100
AcDbLine
  10
50
  20
-43.59485
  30
0
  11
50
  21
19.883274
  31
0
  0
LINE
  5
1d0
  330
1cd
  100
AcDbEntity
  8
2
  100
AcDbLine
  10
48.6
  20
-23.273643
  30
0
  11
54.131185
  21
-23.273643
  31
0
  0
SOLID
  5
1d1
  330
1cd
  100
AcDbEntity
  8
2
  100
AcDbTrace
  10
48.6
  20
-23.273643
  30
0
  11
51.078612
  21
-22.947327
  31
0
  12
51.078612
  22
-23.599958
  32
0
  13
51.078612
  23
-23.599958
  33
0
  0
SOLID
  5
1d2
  330
1cd
  100
AcDbEntity
  8
2
  100
AcDbTrace
  10
50
  20
-23.273643
  30
0
  11
47.521388
  21
-23.599958
  31
0
  12
47.521388
  22
-22.947327
  32
0
  13
47.521388
  23
-22.947327
  33
0
  0
MTEXT
  5
1d3
  330
1cd
  100
AcDbEntity
  8
2
  100
AcDbMText
  10
54.225719
  20
-23.273643
  30
0
  11
1
  21
0
  31
0
  40
2
  41
0
  71
8
  72
1
  1
1.4
  0
POINT
  5
1d4
  330
1cd
  100
AcDbEntity
  8
2
  62
0
  100
AcDbPoint
  10
48.6
  20
-0.91
  30
0
  0
POINT
  5
1d5
  330
1cd
  100
AcDbEntity
  8
2
  62
0
  100
AcDbPoint
  10
50
  20
19.883274
  30
0
  0
POINT
  5
1d6
  330
1cd
  100
AcDbEntity
  8
2
  62
0
  100
AcDbPoint
  10
54.131185
  20
-23.273643
  30
0
  0
ENDBLK
  5
1d7
  330
1cd
  100
AcDbEntity
  8
2
  100
AcDbBlockEnd
  0
BLOCK
  5
1d9
  330
1db
  100
AcDbEntity
  8
2
  100
AcDbBlockBegin
  2
*D1da
  70
1
  10
0
  20
0
  30
0
  3
*D1da
  1

  0
LINE
  5
1dc
  330
1db
  100
AcDbEntity
  8
2
  100
AcDbLine
  10
33.72
  20
19.883274
  30
0
  11
33.72
  21
-3
  31
0
  0
LINE
  5
1dd
  330
1db
  100
AcDbEntity
  8
2
  100
AcDbLine
  10
50
  20
-43.59485
  30
0
  11
50
  21
19.883274
  31
0
  0
LINE
  5
1de
  330
1db
  100
AcDbEntity
  8
2
  100
AcDbLine
  10
33.72
  20
17.883274
  30
0
  11
50
  21
17.883274
  31
0
  0
SOLID
  5
1df
  330
1db
  100
AcDbEntity
  8
2
  100
AcDbTrace
  10
33.72
  20
17.883274
  30
0
  11
36.198612
  21
18.209589
  31
0
  12
36.198612
  22
17.556958
  32
0
  13
36.198612
  23
17.556958
  33
0
  0
SOLID
  5
1e0
  330
1db
  100
AcDbEntity
  8
2
  100
AcDbTrace
  10
50
  20
17.883274
  30
0
  11
47.521388
  21
17.556958
  31
0
  12
47.521388
  22
18.209589
  32
0
  13
47.521388
  23
18.209589
  33
0
  0
MTEXT
  5
1e1
  330
1db
  100
AcDbEntity
  8
2
  100
AcDbMText
  10
41.071307
  20
17.883274
  30
0
  11
1
  21
0
  31
0
  40
2
  41
0
  71
8
  72
1
  1
16.28
  0
POINT
  5
1e2
  330
1db
  100
AcDbEntity
  8
2
  62
0
  100
AcDbPoint
  10
33.72
  20
-3
  30
0
  0
POINT
  5
1e3
  330
1db
  100
AcDbEntity
  8
2
  62
0
  100
AcDbPoint
  10
50
  20
-43.59485
  30
0
  0
POINT
  5
1e4
  330
1db
  100
AcDbEntity
  8
2
  62
0
  100
AcDbPoint
  10
50
  20
17.883274
  30
0
  0
ENDBLK
  5
1e5
  330
1db
  100
AcDbEntity
  8
2
  100
AcDbBlockEnd
  0
ENDSEC
  0
SECTION
  2
ENTITIES
  0
DIMENSION
  5
184
  100
AcDbEntity
  8
SK2
  100
AcDbDimension
  2
*D178
  10
50
  20
-41.59485
  30
0
  11
25
  21
-41.59485
  31
0
  70
160
  1
<>
  71
5
  3
STANDARD
  42
50
  100
AcDbAlignedDimension
  13
0
  23
2.6
  33
0
  14
50
  24
19.883274
  34
0
  50
0
  100
AcDbRotatedDimension
  0
DIMENSION
  5
192
  100
AcDbEntity
  8
SK2
  100
AcDbDimension
  2
*D186
  10
0
  20
-31.817496
  30
0
  11
17.360543
  21
-31.817496
  31
0
  70
160
  1
<>
  71
5
  3
STANDARD
  42
34.721086
  100
AcDbAlignedDimension
  13
34.721086
  23
3
  33
0
  14
0
  24
2.6
  34
0
  50
0
  100
AcDbRotatedDimension
  0
DIMENSION
  5
1a0
  100
AcDbEntity
  8
SK2
  100
AcDbDimension
  2
*D194
  10
-10
  20
3
  30
0
  11
-10
  21
-0.064076
  31
0
  70
160
  1
%%c<>
  71
5
  3
STANDARD
  42
6
  100
AcDbAlignedDimension
  13
0.4
  23
-3
  33
0
  14
0.4
  24
3
  34
0
  50
-90
  100
AcDbRotatedDimension
  0
DIMENSION
  5
1ae
  100
AcDbEntity
  8
2
  100
AcDbDimension
  2
*D1a2
  10
60
  20
8.337169
  30
0
  11
60
  21
8.445512
  31
0
  70
160
  1
%%c<>
  71
5
  3
STANDARD
  42
2.4
  100
AcDbAlignedDimension
  13
50
  23
-1.2
  33
0
  14
50
  24
1.2
  34
0
  50
-90
  100
AcDbRotatedDimension
  0
DIMENSION
  5
1bc
  100
AcDbEntity
  8
2
  100
AcDbDimension
  2
*D1b0
  10
43.206644
  20
14.378596
  30
0
  11
43.206644
  21
4.479444
  31
0
  70
160
  1
%%c<>
  71
5
  3
STANDARD
  42
1.82
  100
AcDbAlignedDimension
  13
48.6
  23
-0.91
  33
0
  14
48.6
  24
0.91
  34
0
  50
-90
  100
AcDbRotatedDimension
  0
DIMENSION
  5
1ca
  100
AcDbEntity
  8
2
  100
AcDbDimension
  2
*D1be
  10
37.698504
  20
-23.322624
  30
0
  11
44.973585
  21
-23.322624
  31
0
  70
160
  1
<>
  71
5
  3
STANDARD
  42
7.35
  100
AcDbAlignedDimension
  13
48.6
  23
0.91
  33
0
  14
41.25
  24
0.91
  34
0
  50
0
  100
AcDbRotatedDimension
  0
DIMENSION
  5
1d8
  100
AcDbEntity
  8
2
  100
AcDbDimension
  2
*D1cc
  10
54.131185
  20
-23.273643
  30
0
  11
54.225719
  21
-23.273643
  31
0
  70
160
  1
<>
  71
5
  3
STANDARD
  42
1.4
  100
AcDbAlignedDimension
  13
48.6
  23
-0.91
  33
0
  14
50
  24
19.883274
  34
0
  50
0
  100
AcDbRotatedDimension
  0
DIMENSION
  5
1e6
  100
AcDbEntity
  8
2
  100
AcDbDimension
  2
*D1da
  10
50
  20
17.883274
  30
0
  11
41.071307
  21
17.883274
  31
0
  70
160
  1
<>
  71
5
  3
STANDARD
  42
16.28
  100
AcDbAlignedDimension
  13
33.72
  23
-3
  33
0
  14
50
  24
-43.59485
  34
0
  50
0
  100
AcDbRotatedDimension
  0
LINE
  5
36
  100
AcDbEntity
  8
1
  100
AcDbLine
  10
41.25
  20
0.91
  30
0
  11
41.25
  21
-0.91
  31
0
  0
ARC
  5
37
  100
AcDbEntity
  8
1
  100
AcDbCircle
  10
41.25
  20
-11.91
  30
0
  40
11
  100
AcDbArc
  50
90
  51
121
  0
LINE
  5
38
  100
AcDbEntity
  8
1
  100
AcDbLine
  10
41.25
  20
-0.91
  30
0
  11
48.6
  21
-0.91
  31
0
  0
LINE
  5
39
  100
AcDbEntity
  8
1
  100
AcDbLine
  10
48.6
  20
-0.91
  30
0
  11
48.6
  21
-1.2
  31
0
  0
LINE
  5
3a
  100
AcDbEntity
  8
1
  100
AcDbLine
  10
48.6
  20
-1.2
  30
0
  11
48.6
  21
1.2
  31
0
  0
LINE
  5
3b
  100
AcDbEntity
  8
1
  100
AcDbLine
  10
50
  20
-0.37082
  30
0
  11
49.9
  21
-0.37082
  31
0
  0
LINE
  5
3c
  100
AcDbEntity
  8
1
  100
AcDbLine
  10
49.9
  20
-0.37082
  30
0
  11
49.8
  21
-0.37082
  31
0
  0
LINE
  5
3d
  100
AcDbEntity
  8
1
  100
AcDbLine
  10
49.8
  20
-0.37082
  30
0
  11
49.7
  21
-0.37082
  31
0
  0
LINE
  5
3e
  100
AcDbEntity
  8
1
  100
AcDbLine
  10
49.7
  20
-0.37082
  30
0
  11
49.6
  21
-0.37082
  31
0
  0
LINE
  5
3f
  100
AcDbEntity
  8
1
  100
AcDbLine
  10
49.6
  20
-0.37082
  30
0
  11
49.5
  21
-0.37082
  31
0
  0
LINE
  5
40
  100
AcDbEntity
  8
1
  100
AcDbLine
  10
49.5
  20
-0.37082
  30
0
  11
49.4
  21
-0.37082
  31
0
  0
LINE
  5
41
  100
AcDbEntity
  8
1
  100
AcDbLine
  10
49.4
  20
-0.37082
  30
0
  11
49.3
  21
-0.37082
  31
0
  0
LINE
  5
42
  100
AcDbEntity
  8
1
  100
AcDbLine
  10
49.3
  20
-0.37082
  30
0
  11
49.2
  21
-0.37082
  31
0
  0
LINE
  5
43
  100
AcDbEntity
  8
1
  100
AcDbLine
  10
49.2
  20
-0.37082
  30
0
  11
49.1
  21
-0.37082
  31
0
  0
LINE
  5
44
  100
AcDbEntity
  8
1
  100
AcDbLine
  10
49.1
  20
-0.37082
  30
0
  11
49
  21
-0.37082
  31
0
  0
LINE
  5
45
  100
AcDbEntity
  8
1
  100
AcDbLine
  10
49
  20
-0.37082
  30
0
  11
48.9
  21
-0.37082
  31
0
  0
LINE
  5
46
  100
AcDbEntity
  8
1
  100
AcDbLine
  10
48.9
  20
-0.37082
  30
0
  11
48.8
  21
-0.37082
  31
0
  0
LINE
  5
47
  100
AcDbEntity
  8
1
  100
AcDbLine
  10
48.8
  20
-0.37082
  30
0
  11
48.7
  21
-0.37082
  31
0
  0
LINE
  5
48
  100
AcDbEntity
  8
1
  100
AcDbLine
  10
48.7
  20
-0.37082
  30
0
  11
48.6
  21
-0.37082
  31
0
  0
LINE
  5
49
  100
AcDbEntity
  8
1
  100
AcDbLine
  10
48.6
  20
-0.37082
  30
0
  11
48.6
  21
-0.44459
  31
0
  0
LINE
  5
4a
  100
AcDbEntity
  8
1
  100
AcDbLine
  10
48.6
  20
-0.44459
  30
0
  11
48.5
  21
-0.445044
  31
0
  0
LINE
  5
4b
  100
AcDbEntity
  8
1
  100
AcDbLine
  10
48.5
  20
-0.445044
  30
0
  11
48.4
  21
-0.446404
  31
0
  0
LINE
  5
4c
  100
AcDbEntity
  8
1
  100
AcDbLine
  10
48.4
  20
-0.446404
  30
0
  11
48.3
  21
-0.448665
  31
0
  0
LINE
  5
4d
  100
AcDbEntity
  8
1
  100
AcDbLine
  10
48.3
  20
-0.448665
  30
0
  11
48.2
  21
-0.451819
  31
0
  0
LINE
  5
4e
  100
AcDbEntity
  8
1
  100
AcDbLine
  10
48.2
  20
-0.451819
  30
0
  11
48.1
  21
-0.455856
  31
0
  0
LINE
  5
4f
  100
AcDbEntity
  8
1
  100
AcDbLine
  10
48.1
  20
-0.455856
  30
0
  11
48
  21
-0.460761
  31
0
  0
LINE
  5
50
  100
AcDbEntity
  8
1
  100
AcDbLine
  10
48
  20
-0.460761
  30
0
  11
47.9
  21
-0.466517
  31
0
  0
LINE
  5
51
  100
AcDbEntity
  8
1
  100
AcDbLine
  10
47.9
  20
-0.466517
  30
0
  11
47.8
  21
-0.473103
  31
0
  0
LINE
  5
52
  100
AcDbEntity
  8
1
  100
AcDbLine
  10
47.8
  20
-0.473103
  30
0
  11
47.7
  21
-0.480496
  31
0
  0
LINE
  5
53
  100
AcDbEntity
  8
1
  100
AcDbLine
  10
47.7
  20
-0.480496
  30
0
  11
47.6
  21
-0.488669
  31
0
  0
LINE
  5
54
  100
AcDbEntity
  8
1
  100
AcDbLine
  10
47.6
  20
-0.488669
  30
0
  11
47.5
  21
-0.497592
  31
0
  0
LINE
  5
55
  100
AcDbEntity
  8
1
  100
AcDbLine
  10
47.5
  20
-0.497592
  30
0
  11
47.4
  21
-0.507232
  31
0
  0
LINE
  5
56
  100
AcDbEntity
  8
1
  100
AcDbLine
  10
47.4
  20
-0.507232
  30
0
  11
47.3
  21
-0.517553
  31
0
  0
LINE
  5
57
  100
AcDbEntity
  8
1
  100
AcDbLine
  10
47.3
  20
-0.517553
  30
0
  11
47.2
  21
-0.528515
  31
0
  0
LINE
  5
58
  100
AcDbEntity
  8
1
  100
AcDbLine
  10
47.2
  20
-0.528515
  30
0
  11
47.1
  21
-0.540077
  31
0
  0
LINE
  5
59
  100
AcDbEntity
  8
1
  100
AcDbLine
  10
47.1
  20
-0.540077
  30
0
  11
47
  21
-0.552194
  31
0
  0
LINE
  5
5a
  100
AcDbEntity
  8
1
  100
AcDbLine
  10
47
  20
-0.552194
  30
0
  11
46.9
  21
-0.564818
  31
0
  0
LINE
  5
5b
  100
AcDbEntity
  8
1
  100
AcDbLine
  10
46.9
  20
-0.564818
  30
0
  11
46.8
  21
-0.577899
  31
0
  0
LINE
  5
5c
  100
AcDbEntity
  8
1
  100
AcDbLine
  10
46.8
  20
-0.577899
  30
0
  11
46.7
  21
-0.591384
  31
0
  0
LINE
  5
5d
  100
AcDbEntity
  8
1
  100
AcDbLine
  10
46.7
  20
-0.591384
  30
0
  11
46.6
  21
-0.605219
  31
0
  0
LINE
  5
5e
  100
AcDbEntity
  8
1
  100
AcDbLine
  10
46.6
  20
-0.605219
  30
0
  11
46.5
  21
-0.619346
  31
0
  0
LINE
  5
5f
  100
AcDbEntity
  8
1
  100
AcDbLine
  10
46.5
  20
-0.619346
  30
0
  11
46.4
  21
-0.633708
  31
0
  0
LINE
  5
60
  100
AcDbEntity
  8
1
  100
AcDbLine
  10
46.4
  20
-0.633708
  30
0
  11
46.3
  21
-0.648244
  31
0
  0
LINE
  5
61
  100
AcDbEntity
  8
1
  100
AcDbLine
  10
46.3
  20
-0.648244
  30
0
  11
46.2
  21
-0.662893
  31
0
  0
LINE
  5
62
  100
AcDbEntity
  8
1
  100
AcDbLine
  10
46.2
  20
-0.662893
  30
0
  11
46.1
  21
-0.677593
  31
0
  0
LINE
  5
63
  100
AcDbEntity
  8
1
  100
AcDbLine
  10
46.1
  20
-0.677593
  30
0
  11
46
  21
-0.692282
  31
0
  0
LINE
  5
64
  100
AcDbEntity
  8
1
  100
AcDbLine
  10
46
  20
-0.692282
  30
0
  11
45.9
  21
-0.706897
  31
0
  0
LINE
  5
65
  100
AcDbEntity
  8
1
  100
AcDbLine
  10
45.9
  20
-0.706897
  30
0
  11
45.8
  21
-0.721376
  31
0
  0
LINE
  5
66
  100
AcDbEntity
  8
1
  100
AcDbLine
  10
45.8
  20
-0.721376
  30
0
  11
45.7
  21
-0.735657
  31
0
  0
LINE
  5
67
  100
AcDbEntity
  8
1
  100
AcDbLine
  10
45.7
  20
-0.735657
  30
0
  11
45.6
  21
-0.749681
  31
0
  0
LINE
  5
68
  100
AcDbEntity
  8
1
  100
AcDbLine
  10
45.6
  20
-0.749681
  30
0
  11
45.5
  21
-0.763389
  31
0
  0
LINE
  5
69
  100
AcDbEntity
  8
1
  100
AcDbLine
  10
45.5
  20
-0.763389
  30
0
  11
45.4
  21
-0.776723
  31
0
  0
LINE
  5
6a
  100
AcDbEntity
  8
1
  100
AcDbLine
  10
45.4
  20
-0.776723
  30
0
  11
45.3
  21
-0.789629
  31
0
  0
LINE
  5
6b
  100
AcDbEntity
  8
1
  100
AcDbLine
  10
45.3
  20
-0.789629
  30
0
  11
45.2
  21
-0.802056
  31
0
  0
LINE
  5
6c
  100
AcDbEntity
  8
1
  100
AcDbLine
  10
45.2
  20
-0.802056
  30
0
  11
45.1
  21
-0.813954
  31
0
  0
LINE
  5
6d
  100
AcDbEntity
  8
1
  100
AcDbLine
  10
45.1
  20
-0.813954
  30
0
  11
45
  21
-0.825281
  31
0
  0
LINE
  5
6e
  100
AcDbEntity
  8
1
  100
AcDbLine
  10
45
  20
-0.825281
  30
0
  11
44.9
  21
-0.835993
  31
0
  0
LINE
  5
6f
  100
AcDbEntity
  8
1
  100
AcDbLine
  10
44.9
  20
-0.835993
  30
0
  11
44.8
  21
-0.846056
  31
0
  0
LINE
  5
70
  100
AcDbEntity
  8
1
  100
AcDbLine
  10
44.8
  20
-0.846056
  30
0
  11
44.7
  21
-0.855436
  31
0
  0
LINE
  5
71
  100
AcDbEntity
  8
1
  100
AcDbLine
  10
44.7
  20
-0.855436
  30
0
  11
44.6
  21
-0.864107
  31
0
  0
LINE
  5
72
  100
AcDbEntity
  8
1
  100
AcDbLine
  10
44.6
  20
-0.864107
  30
0
  11
44.6
  21
-0.821319
  31
0
  0
LINE
  5
73
  100
AcDbEntity
  8
1
  100
AcDbLine
  10
44.6
  20
-0.821319
  30
0
  11
44.7
  21
-0.828706
  31
0
  0
LINE
  5
74
  100
AcDbEntity
  8
1
  100
AcDbLine
  10
44.7
  20
-0.828706
  30
0
  11
44.8
  21
-0.835775
  31
0
  0
LINE
  5
75
  100
AcDbEntity
  8
1
  100
AcDbLine
  10
44.8
  20
-0.835775
  30
0
  11
44.9
  21
-0.842516
  31
0
  0
LINE
  5
76
  100
AcDbEntity
  8
1
  100
AcDbLine
  10
44.9
  20
-0.842516
  30
0
  11
45
  21
-0.848918
  31
0
  0
LINE
  5
77
  100
AcDbEntity
  8
1
  100
AcDbLine
  10
45
  20
-0.848918
  30
0
  11
45.1
  21
-0.854975
  31
0
  0
LINE
  5
78
  100
AcDbEntity
  8
1
  100
AcDbLine
  10
45.1
  20
-0.854975
  30
0
  11
45.2
  21
-0.860682
  31
0
  0
LINE
  5
79
  100
AcDbEntity
  8
1
  100
AcDbLine
  10
45.2
  20
-0.860682
  30
0
  11
45.3
  21
-0.866035
  31
0
  0
LINE
  5
7a
  100
AcDbEntity
  8
1
  100
AcDbLine
  10
45.3
  20
-0.866035
  30
0
  11
45.4
  21
-0.871034
  31
0
  0
LINE
  5
7b
  100
AcDbEntity
  8
1
  100
AcDbLine
  10
45.4
  20
-0.871034
  30
0
  11
45.5
  21
-0.875679
  31
0
  0
LINE
  5
7c
  100
AcDbEntity
  8
1
  100
AcDbLine
  10
45.5
  20
-0.875679
  30
0
  11
45.6
  21
-0.879975
  31
0
  0
LINE
  5
7d
  100
AcDbEntity
  8
1
  100
AcDbLine
  10
45.6
  20
-0.879975
  30
0
  11
45.7
  21
-0.883925
  31
0
  0
LINE
  5
7e
  100
AcDbEntity
  8
1
  100
AcDbLine
  10
45.7
  20
-0.883925
  30
0
  11
45.8
  21
-0.887538
  31
0
  0
LINE
  5
7f
  100
AcDbEntity
  8
1
  100
AcDbLine
  10
45.8
  20
-0.887538
  30
0
  11
45.9
  21
-0.89082
  31
0
  0
LINE
  5
80
  100
AcDbEntity
  8
1
  100
AcDbLine
  10
45.9
  20
-0.89082
  30
0
  11
46
  21
-0.893783
  31
0
  0
LINE
  5
81
  100
AcDbEntity
  8
1
  100
AcDbLine
  10
46
  20
-0.893783
  30
0
  11
46.1
  21
-0.896437
  31
0
  0
LINE
  5
82
  100
AcDbEntity
  8
1
  100
AcDbLine
  10
46.1
  20
-0.896437
  30
0
  11
46.2
  21
-0.898797
  31
0
  0
LINE
  5
83
  100
AcDbEntity
  8
1
  100
AcDbLine
  10
46.2
  20
-0.898797
  30
0
  11
46.3
  21
-0.900875
  31
0
  0
LINE
  5
84
  100
AcDbEntity
  8
1
  100
AcDbLine
  10
46.3
  20
-0.900875
  30
0
  11
46.4
  21
-0.902688
  31
0
  0
LINE
  5
85
  100
AcDbEntity
  8
1
  100
AcDbLine
  10
46.4
  20
-0.902688
  30
0
  11
46.5
  21
-0.90425
  31
0
  0
LINE
  5
86
  100
AcDbEntity
  8
1
  100
AcDbLine
  10
46.5
  20
-0.90425
  30
0
  11
46.6
  21
-0.90558
  31
0
  0
LINE
  5
87
  100
AcDbEntity
  8
1
  100
AcDbLine
  10
46.6
  20
-0.90558
  30
0
  11
46.7
  21
-0.906694
  31
0
  0
LINE
  5
88
  100
AcDbEntity
  8
1
  100
AcDbLine
  10
46.7
  20
-0.906694
  30
0
  11
46.8
  21
-0.907611
  31
0
  0
LINE
  5
89
  100
AcDbEntity
  8
1
  100
AcDbLine
  10
46.8
  20
-0.907611
  30
0
  11
46.9
  21
-0.908348
  31
0
  0
LINE
  5
8a
  100
AcDbEntity
  8
1
  100
AcDbLine
  10
46.9
  20
-0.908348
  30
0
  11
47
  21
-0.908923
  31
0
  0
LINE
  5
8b
  100
AcDbEntity
  8
1
  100
AcDbLine
  10
47
  20
-0.908923
  30
0
  11
47.1
  21
-0.909355
  31
0
  0
LINE
  5
8c
  100
AcDbEntity
  8
1
  100
AcDbLine
  10
47.1
  20
-0.909355
  30
0
  11
47.2
  21
-0.909662
  31
0
  0
LINE
  5
8d
  100
AcDbEntity
  8
1
  100
AcDbLine
  10
47.2
  20
-0.909662
  30
0
  11
47.3
  21
-0.90986
  31
0
  0
LINE
  5
8e
  100
AcDbEntity
  8
1
  100
AcDbLine
  10
47.3
  20
-0.90986
  30
0
  11
47.4
  21
-0.909967
  31
0
  0
LINE
  5
8f
  100
AcDbEntity
  8
1
  100
AcDbLine
  10
47.4
  20
-0.909967
  30
0
  11
47.5
  21
-0.91
  31
0
  0
LINE
  5
90
  100
AcDbEntity
  8
1
  100
AcDbLine
  10
47.5
  20
-0.91
  30
0
  11
47.500949
  21
-0.91
  31
0
  0
LINE
  5
91
  100
AcDbEntity
  8
1
  100
AcDbLine
  10
48.6
  20
-0.91
  30
0
  11
48.6
  21
0.91
  31
0
  0
LINE
  5
92
  100
AcDbEntity
  8
1
  100
AcDbLine
  10
47.500949
  20
0.91
  30
0
  11
47.6
  21
0.909973
  31
0
  0
LINE
  5
93
  100
AcDbEntity
  8
1
  100
AcDbLine
  10
47.6
  20
0.909973
  30
0
  11
47.7
  21
0.909902
  31
0
  0
LINE
  5
94
  100
AcDbEntity
  8
1
  100
AcDbLine
  10
47.7
  20
0.909902
  30
0
  11
47.8
  21
0.9098
  31
0
  0
LINE
  5
95
  100
AcDbEntity
  8
1
  100
AcDbLine
  10
47.8
  20
0.9098
  30
0
  11
47.9
  21
0.909679
  31
0
  0
LINE
  5
96
  100
AcDbEntity
  8
1
  100
AcDbLine
  10
47.9
  20
0.909679
  30
0
  11
48
  21
0.909551
  31
0
  0
LINE
  5
97
  100
AcDbEntity
  8
1
  100
AcDbLine
  10
48
  20
0.909551
  30
0
  11
48.1
  21
0.909426
  31
0
  0
LINE
  5
98
  100
AcDbEntity
  8
1
  100
AcDbLine
  10
48.1
  20
0.909426
  30
0
  11
48.2
  21
0.909311
  31
0
  0
LINE
  5
99
  100
AcDbEntity
  8
1
  100
AcDbLine
  10
48.2
  20
0.909311
  30
0
  11
48.3
  21
0.909215
  31
0
  0
LINE
  5
9a
  100
AcDbEntity
  8
1
  100
AcDbLine
  10
48.3
  20
0.909215
  30
0
  11
48.4
  21
0.909142
  31
0
  0
LINE
  5
9b
  100
AcDbEntity
  8
1
  100
AcDbLine
  10
48.4
  20
0.909142
  30
0
  11
48.5
  21
0.909096
  31
0
  0
LINE
  5
9c
  100
AcDbEntity
  8
1
  100
AcDbLine
  10
48.5
  20
0.909096
  30
0
  11
48.6
  21
0.909081
  31
0
  0
LINE
  5
9d
  100
AcDbEntity
  8
1
  100
AcDbLine
  10
48.6
  20
0.909081
  30
0
  11
48.6
  21
1.2
  31
0
  0
LINE
  5
9e
  100
AcDbEntity
  8
1
  100
AcDbLine
  10
48.6
  20
1.2
  30
0
  11
48.7
  21
1.2
  31
0
  0
LINE
  5
9f
  100
AcDbEntity
  8
1
  100
AcDbLine
  10
48.7
  20
1.2
  30
0
  11
48.8
  21
1.2
  31
0
  0
LINE
  5
a0
  100
AcDbEntity
  8
1
  100
AcDbLine
  10
48.8
  20
1.2
  30
0
  11
48.9
  21
1.2
  31
0
  0
LINE
  5
a1
  100
AcDbEntity
  8
1
  100
AcDbLine
  10
48.9
  20
1.2
  30
0
  11
49
  21
1.2
  31
0
  0
LINE
  5
a2
  100
AcDbEntity
  8
1
  100
AcDbLine
  10
49
  20
1.2
  30
0
  11
49.1
  21
1.2
  31
0
  0
LINE
  5
a3
  100
AcDbEntity
  8
1
  100
AcDbLine
  10
49.1
  20
1.2
  30
0
  11
49.2
  21
1.2
  31
0
  0
LINE
  5
a4
  100
AcDbEntity
  8
1
  100
AcDbLine
  10
49.2
  20
1.2
  30
0
  11
49.3
  21
1.2
  31
0
  0
LINE
  5
a5
  100
AcDbEntity
  8
1
  100
AcDbLine
  10
49.3
  20
1.2
  30
0
  11
49.4
  21
1.2
  31
0
  0
LINE
  5
a6
  100
AcDbEntity
  8
1
  100
AcDbLine
  10
49.4
  20
1.2
  30
0
  11
49.5
  21
1.2
  31
0
  0
LINE
  5
a7
  100
AcDbEntity
  8
1
  100
AcDbLine
  10
49.5
  20
1.2
  30
0
  11
49.6
  21
1.2
  31
0
  0
LINE
  5
a8
  100
AcDbEntity
  8
1
  100
AcDbLine
  10
49.6
  20
1.2
  30
0
  11
49.7
  21
1.2
  31
0
  0
LINE
  5
a9
  100
AcDbEntity
  8
1
  100
AcDbLine
  10
49.7
  20
1.2
  30
0
  11
49.8
  21
1.2
  31
0
  0
LINE
  5
aa
  100
AcDbEntity
  8
1
  100
AcDbLine
  10
49.8
  20
1.2
  30
0
  11
49.9
  21
1.2
  31
0
  0
LINE
  5
ab
  100
AcDbEntity
  8
1
  100
AcDbLine
  10
49.9
  20
1.2
  30
0
  11
50
  21
1.2
  31
0
  0
LINE
  5
ac
  100
AcDbEntity
  8
1
  100
AcDbLine
  10
50
  20
1.2
  30
0
  11
50
  21
-1.2
  31
0
  0
LINE
  5
ad
  100
AcDbEntity
  8
1
  100
AcDbLine
  10
50
  20
-1.2
  30
0
  11
49.9
  21
-1.2
  31
0
  0
LINE
  5
ae
  100
AcDbEntity
  8
1
  100
AcDbLine
  10
49.9
  20
-1.2
  30
0
  11
49.8
  21
-1.2
  31
0
  0
LINE
  5
af
  100
AcDbEntity
  8
1
  100
AcDbLine
  10
49.8
  20
-1.2
  30
0
  11
49.7
  21
-1.2
  31
0
  0
LINE
  5
b0
  100
AcDbEntity
  8
1
  100
AcDbLine
  10
49.7
  20
-1.2
  30
0
  11
49.6
  21
-1.2
  31
0
  0
LINE
  5
b1
  100
AcDbEntity
  8
1
  100
AcDbLine
  10
49.6
  20
-1.2
  30
0
  11
49.5
  21
-1.2
  31
0
  0
LINE
  5
b2
  100
AcDbEntity
  8
1
  100
AcDbLine
  10
49.5
  20
-1.2
  30
0
  11
49.4
  21
-1.2
  31
0
  0
LINE
  5
b3
  100
AcDbEntity
  8
1
  100
AcDbLine
  10
49.4
  20
-1.2
  30
0
  11
49.3
  21
-1.2
  31
0
  0
LINE
  5
b4
  100
AcDbEntity
  8
1
  100
AcDbLine
  10
49.3
  20
-1.2
  30
0
  11
49.2
  21
-1.2
  31
0
  0
LINE
  5
b5
  100
AcDbEntity
  8
1
  100
AcDbLine
  10
49.2
  20
-1.2
  30
0
  11
49.1
  21
-1.2
  31
0
  0
LINE
  5
b6
  100
AcDbEntity
  8
1
  100
AcDbLine
  10
49.1
  20
-1.2
  30
0
  11
49
  21
-1.2
  31
0
  0
LINE
  5
b7
  100
AcDbEntity
  8
1
  100
AcDbLine
  10
49
  20
-1.2
  30
0
  11
48.9
  21
-1.2
  31
0
  0
LINE
  5
b8
  100
AcDbEntity
  8
1
  100
AcDbLine
  10
48.9
  20
-1.2
  30
0
  11
48.8
  21
-1.2
  31
0
  0
LINE
  5
b9
  100
AcDbEntity
  8
1
  100
AcDbLine
  10
48.8
  20
-1.2
  30
0
  11
48.7
  21
-1.2
  31
0
  0
LINE
  5
ba
  100
AcDbEntity
  8
1
  100
AcDbLine
  10
48.7
  20
-1.2
  30
0
  11
48.6
  21
-1.2
  31
0
  0
LINE
  5
bb
  100
AcDbEntity
  8
1
  100
AcDbLine
  10
48.6
  20
-1.2
  30
0
  11
50
  21
-1.2
  31
0
  0
LINE
  5
bc
  100
AcDbEntity
  8
1
  100
AcDbLine
  10
50
  20
-1.2
  30
0
  11
50
  21
0
  31
0
  0
LINE
  5
bd
  100
AcDbEntity
  8
1
  100
AcDbLine
  10
50
  20
1.141268
  30
0
  11
49.9
  21
1.141268
  31
0
  0
LINE
  5
be
  100
AcDbEntity
  8
1
  100
AcDbLine
  10
49.9
  20
1.141268
  30
0
  11
49.8
  21
1.141268
  31
0
  0
LINE
  5
bf
  100
AcDbEntity
  8
1
  100
AcDbLine
  10
49.8
  20
1.141268
  30
0
  11
49.7
  21
1.141268
  31
0
  0
LINE
  5
c0
  100
AcDbEntity
  8
1
  100
AcDbLine
  10
49.7
  20
1.141268
  30
0
  11
49.6
  21
1.141268
  31
0
  0
LINE
  5
c1
  100
AcDbEntity
  8
1
  100
AcDbLine
  10
49.6
  20
1.141268
  30
0
  11
49.5
  21
1.141268
  31
0
  0
LINE
  5
c2
  100
AcDbEntity
  8
1
  100
AcDbLine
  10
49.5
  20
1.141268
  30
0
  11
49.4
  21
1.141268
  31
0
  0
LINE
  5
c3
  100
AcDbEntity
  8
1
  100
AcDbLine
  10
49.4
  20
1.141268
  30
0
  11
49.3
  21
1.141268
  31
0
  0
LINE
  5
c4
  100
AcDbEntity
  8
1
  100
AcDbLine
  10
49.3
  20
1.141268
  30
0
  11
49.2
  21
1.141268
  31
0
  0
LINE
  5
c5
  100
AcDbEntity
  8
1
  100
AcDbLine
  10
49.2
  20
1.141268
  30
0
  11
49.1
  21
1.141268
  31
0
  0
LINE
  5
c6
  100
AcDbEntity
  8
1
  100
AcDbLine
  10
49.1
  20
1.141268
  30
0
  11
49
  21
1.141268
  31
0
  0
LINE
  5
c7
  100
AcDbEntity
  8
1
  100
AcDbLine
  10
49
  20
1.141268
  30
0
  11
48.9
  21
1.141268
  31
0
  0
LINE
  5
c8
  100
AcDbEntity
  8
1
  100
AcDbLine
  10
48.9
  20
1.141268
  30
0
  11
48.8
  21
1.141268
  31
0
  0
LINE
  5
c9
  100
AcDbEntity
  8
1
  100
AcDbLine
  10
48.8
  20
1.141268
  30
0
  11
48.7
  21
1.141268
  31
0
  0
LINE
  5
ca
  100
AcDbEntity
  8
1
  100
AcDbLine
  10
48.7
  20
1.141268
  30
0
  11
48.6
  21
1.141268
  31
0
  0
LINE
  5
cb
  100
AcDbEntity
  8
1
  100
AcDbLine
  10
48.6
  20
1.141268
  30
0
  11
48.6
  21
0.794002
  31
0
  0
LINE
  5
cc
  100
AcDbEntity
  8
1
  100
AcDbLine
  10
48.6
  20
0.794002
  30
0
  11
48.5
  21
0.793748
  31
0
  0
LINE
  5
cd
  100
AcDbEntity
  8
1
  100
AcDbLine
  10
48.5
  20
0.793748
  30
0
  11
48.4
  21
0.792984
  31
0
  0
LINE
  5
ce
  100
AcDbEntity
  8
1
  100
AcDbLine
  10
48.4
  20
0.792984
  30
0
  11
48.3
  21
0.791707
  31
0
  0
LINE
  5
cf
  100
AcDbEntity
  8
1
  100
AcDbLine
  10
48.3
  20
0.791707
  30
0
  11
48.2
  21
0.789911
  31
0
  0
LINE
  5
d0
  100
AcDbEntity
  8
1
  100
AcDbLine
  10
48.2
  20
0.789911
  30
0
  11
48.1
  21
0.787588
  31
0
  0
LINE
  5
d1
  100
AcDbEntity
  8
1
  100
AcDbLine
  10
48.1
  20
0.787588
  30
0
  11
48
  21
0.784729
  31
0
  0
LINE
  5
d2
  100
AcDbEntity
  8
1
  100
AcDbLine
  10
48
  20
0.784729
  30
0
  11
47.9
  21
0.781321
  31
0
  0
LINE
  5
d3
  100
AcDbEntity
  8
1
  100
AcDbLine
  10
47.9
  20
0.781321
  30
0
  11
47.8
  21
0.77735
  31
0
  0
LINE
  5
d4
  100
AcDbEntity
  8
1
  100
AcDbLine
  10
47.8
  20
0.77735
  30
0
  11
47.7
  21
0.772802
  31
0
  0
LINE
  5
d5
  100
AcDbEntity
  8
1
  100
AcDbLine
  10
47.7
  20
0.772802
  30
0
  11
47.6
  21
0.76766
  31
0
  0
LINE
  5
d6
  100
AcDbEntity
  8
1
  100
AcDbLine
  10
47.6
  20
0.76766
  30
0
  11
47.5
  21
0.761907
  31
0
  0
LINE
  5
d7
  100
AcDbEntity
  8
1
  100
AcDbLine
  10
47.5
  20
0.761907
  30
0
  11
47.4
  21
0.755523
  31
0
  0
LINE
  5
d8
  100
AcDbEntity
  8
1
  100
AcDbLine
  10
47.4
  20
0.755523
  30
0
  11
47.3
  21
0.748491
  31
0
  0
LINE
  5
d9
  100
AcDbEntity
  8
1
  100
AcDbLine
  10
47.3
  20
0.748491
  30
0
  11
47.2
  21
0.740791
  31
0
  0
LINE
  5
da
  100
AcDbEntity
  8
1
  100
AcDbLine
  10
47.2
  20
0.740791
  30
0
  11
47.1
  21
0.732405
  31
0
  0
LINE
  5
db
  100
AcDbEntity
  8
1
  100
AcDbLine
  10
47.1
  20
0.732405
  30
0
  11
47
  21
0.723313
  31
0
  0
LINE
  5
dc
  100
AcDbEntity
  8
1
  100
AcDbLine
  10
47
  20
0.723313
  30
0
  11
46.9
  21
0.713499
  31
0
  0
LINE
  5
dd
  100
AcDbEntity
  8
1
  100
AcDbLine
  10
46.9
  20
0.713499
  30
0
  11
46.8
  21
0.702946
  31
0
  0
LINE
  5
de
  100
AcDbEntity
  8
1
  100
AcDbLine
  10
46.8
  20
0.702946
  30
0
  11
46.7
  21
0.691639
  31
0
  0
LINE
  5
df
  100
AcDbEntity
  8
1
  100
AcDbLine
  10
46.7
  20
0.691639
  30
0
  11
46.6
  21
0.679566
  31
0
  0
LINE
  5
e0
  100
AcDbEntity
  8
1
  100
AcDbLine
  10
46.6
  20
0.679566
  30
0
  11
46.5
  21
0.666716
  31
0
  0
LINE
  5
e1
  100
AcDbEntity
  8
1
  100
AcDbLine
  10
46.5
  20
0.666716
  30
0
  11
46.4
  21
0.653081
  31
0
  0
LINE
  5
e2
  100
AcDbEntity
  8
1
  100
AcDbLine
  10
46.4
  20
0.653081
  30
0
  11
46.3
  21
0.638655
  31
0
  0
LINE
  5
e3
  100
AcDbEntity
  8
1
  100
AcDbLine
  10
46.3
  20
0.638655
  30
0
  11
46.2
  21
0.623437
  31
0
  0
LINE
  5
e4
  100
AcDbEntity
  8
1
  100
AcDbLine
  10
46.2
  20
0.623437
  30
0
  11
46.1
  21
0.607428
  31
0
  0
LINE
  5
e5
  100
AcDbEntity
  8
1
  100
AcDbLine
  10
46.1
  20
0.607428
  30
0
  11
46
  21
0.590632
  31
0
  0
LINE
  5
e6
  100
AcDbEntity
  8
1
  100
AcDbLine
  10
46
  20
0.590632
  30
0
  11
45.9
  21
0.573059
  31
0
  0
LINE
  5
e7
  100
AcDbEntity
  8
1
  100
AcDbLine
  10
45.9
  20
0.573059
  30
0
  11
45.8
  21
0.554722
  31
0
  0
LINE
  5
e8
  100
AcDbEntity
  8
1
  100
AcDbLine
  10
45.8
  20
0.554722
  30
0
  11
45.7
  21
0.535638
  31
0
  0
LINE
  5
e9
  100
AcDbEntity
  8
1
  100
AcDbLine
  10
45.7
  20
0.535638
  30
0
  11
45.6
  21
0.515827
  31
0
  0
LINE
  5
ea
  100
AcDbEntity
  8
1
  100
AcDbLine
  10
45.6
  20
0.515827
  30
0
  11
45.5
  21
0.495316
  31
0
  0
LINE
  5
eb
  100
AcDbEntity
  8
1
  100
AcDbLine
  10
45.5
  20
0.495316
  30
0
  11
45.4
  21
0.474133
  31
0
  0
LINE
  5
ec
  100
AcDbEntity
  8
1
  100
AcDbLine
  10
45.4
  20
0.474133
  30
0
  11
45.3
  21
0.452312
  31
0
  0
LINE
  5
ed
  100
AcDbEntity
  8
1
  100
AcDbLine
  10
45.3
  20
0.452312
  30
0
  11
45.2
  21
0.429892
  31
0
  0
LINE
  5
ee
  100
AcDbEntity
  8
1
  100
AcDbLine
  10
45.2
  20
0.429892
  30
0
  11
45.1
  21
0.406913
  31
0
  0
LINE
  5
ef
  100
AcDbEntity
  8
1
  100
AcDbLine
  10
45.1
  20
0.406913
  30
0
  11
45
  21
0.383421
  31
0
  0
LINE
  5
f0
  100
AcDbEntity
  8
1
  100
AcDbLine
  10
45
  20
0.383421
  30
0
  11
44.9
  21
0.359465
  31
0
  0
LINE
  5
f1
  100
AcDbEntity
  8
1
  100
AcDbLine
  10
44.9
  20
0.359465
  30
0
  11
44.8
  21
0.335096
  31
0
  0
LINE
  5
f2
  100
AcDbEntity
  8
1
  100
AcDbLine
  10
44.8
  20
0.335096
  30
0
  11
44.7
  21
0.310369
  31
0
  0
LINE
  5
f3
  100
AcDbEntity
  8
1
  100
AcDbLine
  10
44.7
  20
0.310369
  30
0
  11
44.6
  21
0.285341
  31
0
  0
LINE
  5
f4
  100
AcDbEntity
  8
1
  100
AcDbLine
  10
44.6
  20
0.285341
  30
0
  11
44.6
  21
0.391835
  31
0
  0
LINE
  5
f5
  100
AcDbEntity
  8
1
  100
AcDbLine
  10
44.6
  20
0.391835
  30
0
  11
44.7
  21
0.37596
  31
0
  0
LINE
  5
f6
  100
AcDbEntity
  8
1
  100
AcDbLine
  10
44.7
  20
0.37596
  30
0
  11
44.8
  21
0.359972
  31
0
  0
LINE
  5
f7
  100
AcDbEntity
  8
1
  100
AcDbLine
  10
44.8
  20
0.359972
  30
0
  11
44.9
  21
0.3439
  31
0
  0
LINE
  5
f8
  100
AcDbEntity
  8
1
  100
AcDbLine
  10
44.9
  20
0.3439
  30
0
  11
45
  21
0.327777
  31
0
  0
LINE
  5
f9
  100
AcDbEntity
  8
1
  100
AcDbLine
  10
45
  20
0.327777
  30
0
  11
45.1
  21
0.311637
  31
0
  0
LINE
  5
fa
  100
AcDbEntity
  8
1
  100
AcDbLine
  10
45.1
  20
0.311637
  30
0
  11
45.2
  21
0.295512
  31
0
  0
LINE
  5
fb
  100
AcDbEntity
  8
1
  100
AcDbLine
  10
45.2
  20
0.295512
  30
0
  11
45.3
  21
0.279435
  31
0
  0
LINE
  5
fc
  100
AcDbEntity
  8
1
  100
AcDbLine
  10
45.3
  20
0.279435
  30
0
  11
45.4
  21
0.263439
  31
0
  0
LINE
  5
fd
  100
AcDbEntity
  8
1
  100
AcDbLine
  10
45.4
  20
0.263439
  30
0
  11
45.5
  21
0.247559
  31
0
  0
LINE
  5
fe
  100
AcDbEntity
  8
1
  100
AcDbLine
  10
45.5
  20
0.247559
  30
0
  11
45.6
  21
0.231828
  31
0
  0
LINE
  5
ff
  100
AcDbEntity
  8
1
  100
AcDbLine
  10
45.6
  20
0.231828
  30
0
  11
45.7
  21
0.216277
  31
0
  0
LINE
  5
100
  100
AcDbEntity
  8
1
  100
AcDbLine
  10
45.7
  20
0.216277
  30
0
  11
45.8
  21
0.20094
  31
0
  0
LINE
  5
101
  100
AcDbEntity
  8
1
  100
AcDbLine
  10
45.8
  20
0.20094
  30
0
  11
45.9
  21
0.185848
  31
0
  0
LINE
  5
102
  100
AcDbEntity
  8
1
  100
AcDbLine
  10
45.9
  20
0.185848
  30
0
  11
46
  21
0.171033
  31
0
  0
LINE
  5
103
  100
AcDbEntity
  8
1
  100
AcDbLine
  10
46
  20
0.171033
  30
0
  11
46.1
  21
0.156525
  31
0
  0
LINE
  5
104
  100
AcDbEntity
  8
1
  100
AcDbLine
  10
46.1
  20
0.156525
  30
0
  11
46.2
  21
0.142353
  31
0
  0
LINE
  5
105
  100
AcDbEntity
  8
1
  100
AcDbLine
  10
46.2
  20
0.142353
  30
0
  11
46.3
  21
0.128546
  31
0
  0
LINE
  5
106
  100
AcDbEntity
  8
1
  100
AcDbLine
  10
46.3
  20
0.128546
  30
0
  11
46.4
  21
0.11513
  31
0
  0
LINE
  5
107
  100
AcDbEntity
  8
1
  100
AcDbLine
  10
46.4
  20
0.11513
  30
0
  11
46.5
  21
0.102133
  31
0
  0
LINE
  5
108
  100
AcDbEntity
  8
1
  100
AcDbLine
  10
46.5
  20
0.102133
  30
0
  11
46.6
  21
0.08958
  31
0
  0
LINE
  5
109
  100
AcDbEntity
  8
1
  100
AcDbLine
  10
46.6
  20
0.08958
  30
0
  11
46.7
  21
0.077493
  31
0
  0
LINE
  5
10a
  100
AcDbEntity
  8
1
  100
AcDbLine
  10
46.7
  20
0.077493
  30
0
  11
46.8
  21
0.065897
  31
0
  0
LINE
  5
10b
  100
AcDbEntity
  8
1
  100
AcDbLine
  10
46.8
  20
0.065897
  30
0
  11
46.9
  21
0.054812
  31
0
  0
LINE
  5
10c
  100
AcDbEntity
  8
1
  100
AcDbLine
  10
46.9
  20
0.054812
  30
0
  11
47
  21
0.044257
  31
0
  0
LINE
  5
10d
  100
AcDbEntity
  8
1
  100
AcDbLine
  10
47
  20
0.044257
  30
0
  11
47.1
  21
0.034253
  31
0
  0
LINE
  5
10e
  100
AcDbEntity
  8
1
  100
AcDbLine
  10
47.1
  20
0.034253
  30
0
  11
47.2
  21
0.024817
  31
0
  0
LINE
  5
10f
  100
AcDbEntity
  8
1
  100
AcDbLine
  10
47.2
  20
0.024817
  30
0
  11
47.3
  21
0.015964
  31
0
  0
LINE
  5
110
  100
AcDbEntity
  8
1
  100
AcDbLine
  10
47.3
  20
0.015964
  30
0
  11
47.4
  21
0.007709
  31
0
  0
LINE
  5
111
  100
AcDbEntity
  8
1
  100
AcDbLine
  10
47.4
  20
0.007709
  30
0
  11
47.5
  21
0.000067
  31
0
  0
LINE
  5
112
  100
AcDbEntity
  8
1
  100
AcDbLine
  10
47.5
  20
0.000067
  30
0
  11
47.6
  21
-0.006951
  31
0
  0
LINE
  5
113
  100
AcDbEntity
  8
1
  100
AcDbLine
  10
47.6
  20
-0.006951
  30
0
  11
47.7
  21
-0.013334
  31
0
  0
LINE
  5
114
  100
AcDbEntity
  8
1
  100
AcDbLine
  10
47.7
  20
-0.013334
  30
0
  11
47.8
  21
-0.019071
  31
0
  0
LINE
  5
115
  100
AcDbEntity
  8
1
  100
AcDbLine
  10
47.8
  20
-0.019071
  30
0
  11
47.9
  21
-0.024153
  31
0
  0
LINE
  5
116
  100
AcDbEntity
  8
1
  100
AcDbLine
  10
47.9
  20
-0.024153
  30
0
  11
48
  21
-0.028573
  31
0
  0
LINE
  5
117
  100
AcDbEntity
  8
1
  100
AcDbLine
  10
48
  20
-0.028573
  30
0
  11
48.1
  21
-0.032324
  31
0
  0
LINE
  5
118
  100
AcDbEntity
  8
1
  100
AcDbLine
  10
48.1
  20
-0.032324
  30
0
  11
48.2
  21
-0.0354
  31
0
  0
LINE
  5
119
  100
AcDbEntity
  8
1
  100
AcDbLine
  10
48.2
  20
-0.0354
  30
0
  11
48.3
  21
-0.037798
  31
0
  0
LINE
  5
11a
  100
AcDbEntity
  8
1
  100
AcDbLine
  10
48.3
  20
-0.037798
  30
0
  11
48.4
  21
-0.039513
  31
0
  0
LINE
  5
11b
  100
AcDbEntity
  8
1
  100
AcDbLine
  10
48.4
  20
-0.039513
  30
0
  11
48.5
  21
-0.040543
  31
0
  0
LINE
  5
11c
  100
AcDbEntity
  8
1
  100
AcDbLine
  10
48.5
  20
-0.040543
  30
0
  11
48.6
  21
-0.040886
  31
0
  0
LINE
  5
11d
  100
AcDbEntity
  8
1
  100
AcDbLine
  10
48.6
  20
-0.040886
  30
0
  11
48.6
  21
0
  31
0
  0
LINE
  5
11e
  100
AcDbEntity
  8
1
  100
AcDbLine
  10
48.6
  20
0
  30
0
  11
48.7
  21
0
  31
0
  0
LINE
  5
11f
  100
AcDbEntity
  8
1
  100
AcDbLine
  10
48.7
  20
0
  30
0
  11
48.8
  21
0
  31
0
  0
LINE
  5
120
  100
AcDbEntity
  8
1
  100
AcDbLine
  10
48.8
  20
0
  30
0
  11
48.9
  21
0
  31
0
  0
LINE
  5
121
  100
AcDbEntity
  8
1
  100
AcDbLine
  10
48.9
  20
0
  30
0
  11
49
  21
0
  31
0
  0
LINE
  5
122
  100
AcDbEntity
  8
1
  100
AcDbLine
  10
49
  20
0
  30
0
  11
49.1
  21
0
  31
0
  0
LINE
  5
123
  100
AcDbEntity
  8
1
  100
AcDbLine
  10
49.1
  20
0
  30
0
  11
49.2
  21
0
  31
0
  0
LINE
  5
124
  100
AcDbEntity
  8
1
  100
AcDbLine
  10
49.2
  20
0
  30
0
  11
49.3
  21
0
  31
0
  0
LINE
  5
125
  100
AcDbEntity
  8
1
  100
AcDbLine
  10
49.3
  20
0
  30
0
  11
49.4
  21
0
  31
0
  0
LINE
  5
126
  100
AcDbEntity
  8
1
  100
AcDbLine
  10
49.4
  20
0
  30
0
  11
49.5
  21
0
  31
0
  0
LINE
  5
127
  100
AcDbEntity
  8
1
  100
AcDbLine
  10
49.5
  20
0
  30
0
  11
49.6
  21
0
  31
0
  0
LINE
  5
128
  100
AcDbEntity
  8
1
  100
AcDbLine
  10
49.6
  20
0
  30
0
  11
49.7
  21
0
  31
0
  0
LINE
  5
129
  100
AcDbEntity
  8
1
  100
AcDbLine
  10
49.7
  20
0
  30
0
  11
49.8
  21
0
  31
0
  0
LINE
  5
12a
  100
AcDbEntity
  8
1
  100
AcDbLine
  10
49.8
  20
0
  30
0
  11
49.9
  21
0
  31
0
  0
LINE
  5
12b
  100
AcDbEntity
  8
1
  100
AcDbLine
  10
49.9
  20
0
  30
0
  11
50
  21
0
  31
0
  0
LINE
  5
12c
  100
AcDbEntity
  8
1
  100
AcDbLine
  10
50
  20
0
  30
0
  11
50
  21
1.2
  31
0
  0
LINE
  5
12d
  100
AcDbEntity
  8
1
  100
AcDbLine
  10
50
  20
1.2
  30
0
  11
48.6
  21
1.2
  31
0
  0
LINE
  5
12e
  100
AcDbEntity
  8
1
  100
AcDbLine
  10
48.6
  20
1.2
  30
0
  11
48.6
  21
0.91
  31
0
  0
LINE
  5
12f
  100
AcDbEntity
  8
1
  100
AcDbLine
  10
48.6
  20
0.91
  30
0
  11
41.25
  21
0.91
  31
0
  0
ARC
  5
130
  100
AcDbEntity
  8
1
  100
AcDbCircle
  10
41.25
  20
11.91
  30
0
  40
11
  100
AcDbArc
  50
239
  51
270
  0
LINE
  5
131
  100
AcDbEntity
  8
1
  100
AcDbLine
  10
35.584581
  20
2.48116
  30
0
  11
34.721086
  21
3
  31
0
  0
LINE
  5
132
  100
AcDbEntity
  8
1
  100
AcDbLine
  10
34.721086
  20
3
  30
0
  11
33.72
  21
3
  31
0
  0
LINE
  5
133
  100
AcDbEntity
  8
1
  100
AcDbLine
  10
33.72
  20
3
  30
0
  11
33.72
  21
-3
  31
0
  0
LINE
  5
134
  100
AcDbEntity
  8
1
  100
AcDbLine
  10
33.72
  20
-3
  30
0
  11
34.721086
  21
-3
  31
0
  0
LINE
  5
135
  100
AcDbEntity
  8
1
  100
AcDbLine
  10
34.721086
  20
-3
  30
0
  11
35.584581
  21
-2.48116
  31
0
  0
LINE
  5
136
  100
AcDbEntity
  8
1
  100
AcDbLine
  10
35.584581
  20
-2.48116
  30
0
  11
35.584581
  21
2.48116
  31
0
  0
LINE
  5
137
  100
AcDbEntity
  8
1
  100
AcDbLine
  10
34.721086
  20
3
  30
0
  11
34.721086
  21
-3
  31
0
  0
LINE
  5
138
  100
AcDbEntity
  8
1
  100
AcDbLine
  10
34.721086
  20
-3
  30
0
  11
34.721086
  21
3
  31
0
  0
LINE
  5
139
  100
AcDbEntity
  8
SK1
  100
AcDbLine
  10
33.72
  20
3
  30
0
  11
0.4
  21
3
  31
0
  0
LINE
  5
13a
  100
AcDbEntity
  8
SK1
  100
AcDbLine
  10
0.4
  20
3
  30
0
  11
0
  21
2.6
  31
0
  0
LINE
  5
13b
  100
AcDbEntity
  8
SK1
  100
AcDbLine
  10
33.72
  20
-3
  30
0
  11
0.4
  21
-3
  31
0
  0
LINE
  5
13c
  100
AcDbEntity
  8
SK1
  100
AcDbLine
  10
0.4
  20
-3
  30
0
  11
0
  21
-2.6
  31
0
  0
LINE
  5
13d
  100
AcDbEntity
  8
SK1
  100
AcDbLine
  10
0.4
  20
3
  30
0
  11
0.4
  21
-3
  31
0
  0
LINE
  5
13e
  100
AcDbEntity
  8
SK1
  100
AcDbLine
  10
0
  20
2.6
  30
0
  11
0
  21
-2.6
  31
0
  0
LINE
  5
13f
  100
AcDbEntity
  8
SK1
  100
AcDbLine
  10
34.7601
  20
1.40688
  30
0
  11
35.1269
  21
1.0401
  31
0
  0
LINE
  5
140
  100
AcDbEntity
  8
SK1
  100
AcDbLine
  10
34.2528
  20
1.66666
  30
0
  11
35.3867
  21
0.532833
  31
0
  0
LINE
  5
141
  100
AcDbEntity
  8
SK1
  100
AcDbLine
  10
33.9354
  20
1.73657
  30
0
  11
35.4566
  21
0.215434
  31
0
  0
LINE
  5
142
  100
AcDbEntity
  8
SK1
  100
AcDbLine
  10
33.72
  20
1.70452
  30
0
  11
35.4245
  21
0
  31
0
  0
LINE
  5
143
  100
AcDbEntity
  8
SK1
  100
AcDbLine
  10
33.72
  20
1.45703
  30
0
  11
35.177
  21
0
  31
0
  0
LINE
  5
144
  100
AcDbEntity
  8
SK1
  100
AcDbLine
  10
33.72
  20
1.20954
  30
0
  11
34.9295
  21
0
  31
0
  0
LINE
  5
145
  100
AcDbEntity
  8
SK1
  100
AcDbLine
  10
33.72
  20
0.962054
  30
0
  11
34.6821
  21
0
  31
0
  0
LINE
  5
146
  100
AcDbEntity
  8
SK1
  100
AcDbLine
  10
33.72
  20
0.714566
  30
0
  11
34.4346
  21
0
  31
0
  0
LINE
  5
147
  100
AcDbEntity
  8
SK1
  100
AcDbLine
  10
33.72
  20
0.467079
  30
0
  11
34.1871
  21
0
  31
0
  0
LINE
  5
148
  100
AcDbEntity
  8
SK1
  100
AcDbLine
  10
33.72
  20
0.219592
  30
0
  11
33.9396
  21
0
  31
0
  0
LINE
  5
149
  100
AcDbEntity
  8
SK1
  100
AcDbLine
  10
33.72
  20
1.70452
  30
0
  11
33.7641
  21
1.74861
  31
0
  0
LINE
  5
14a
  100
AcDbEntity
  8
SK1
  100
AcDbLine
  10
33.72
  20
1.45703
  30
0
  11
33.991
  21
1.72802
  31
0
  0
LINE
  5
14b
  100
AcDbEntity
  8
SK1
  100
AcDbLine
  10
33.72
  20
1.20954
  30
0
  11
34.1942
  21
1.6837
  31
0
  0
LINE
  5
14c
  100
AcDbEntity
  8
SK1
  100
AcDbLine
  10
33.72
  20
0.962054
  30
0
  11
34.3788
  21
1.62082
  31
0
  0
LINE
  5
14d
  100
AcDbEntity
  8
SK1
  100
AcDbLine
  10
33.72
  20
0.714566
  30
0
  11
34.5471
  21
1.54167
  31
0
  0
LINE
  5
14e
  100
AcDbEntity
  8
SK1
  100
AcDbLine
  10
33.72
  20
0.467079
  30
0
  11
34.701
  21
1.44812
  31
0
  0
LINE
  5
14f
  100
AcDbEntity
  8
SK1
  100
AcDbLine
  10
33.72
  20
0.219592
  30
0
  11
34.8426
  21
1.34216
  31
0
  0
LINE
  5
150
  100
AcDbEntity
  8
SK1
  100
AcDbLine
  10
33.7479
  20
0
  30
0
  11
34.9708
  21
1.22288
  31
0
  0
LINE
  5
151
  100
AcDbEntity
  8
SK1
  100
AcDbLine
  10
33.9954
  20
0
  30
0
  11
35.087
  21
1.09157
  31
0
  0
LINE
  5
152
  100
AcDbEntity
  8
SK1
  100
AcDbLine
  10
34.2429
  20
0
  30
0
  11
35.1907
  21
0.947822
  31
0
  0
LINE
  5
153
  100
AcDbEntity
  8
SK1
  100
AcDbLine
  10
34.4904
  20
0
  30
0
  11
35.2805
  21
0.790145
  31
0
  0
LINE
  5
154
  100
AcDbEntity
  8
SK1
  100
AcDbLine
  10
34.7378
  20
0
  30
0
  11
35.3564
  21
0.618517
  31
0
  0
LINE
  5
155
  100
AcDbEntity
  8
SK1
  100
AcDbLine
  10
34.9853
  20
0
  30
0
  11
35.416
  21
0.430696
  31
0
  0
LINE
  5
156
  100
AcDbEntity
  8
SK1
  100
AcDbLine
  10
35.2328
  20
0
  30
0
  11
35.4556
  21
0.222827
  31
0
  0
LINE
  5
157
  100
AcDbEntity
  8
SK1
  100
AcDbLine
  10
33.72
  20
0
  30
0
  11
33.72
  21
1.75
  31
0
  0
LINE
  5
158
  100
AcDbEntity
  8
SK1
  100
AcDbLine
  10
33.72
  20
0
  30
0
  11
35.47
  21
0
  31
0
  0
ARC
  5
159
  100
AcDbEntity
  8
SK1
  100
AcDbCircle
  10
33.72
  20
0
  30
0
  40
1.75
  100
AcDbArc
  50
0
  51
90
  0
ARC
  5
15a
  100
AcDbEntity
  8
SK1
  100
AcDbCircle
  10
33.72
  20
0
  30
0
  40
1.75
  100
AcDbArc
  50
90
  51
180
  0
LINE
  5
15b
  100
AcDbEntity
  8
SK1
  100
AcDbLine
  10
33.6921
  20
0
  30
0
  11
33.72
  21
-0.027896
  31
0
  0
LINE
  5
15c
  100
AcDbEntity
  8
SK1
  100
AcDbLine
  10
33.4446
  20
0
  30
0
  11
33.72
  21
-0.275383
  31
0
  0
LINE
  5
15d
  100
AcDbEntity
  8
SK1
  100
AcDbLine
  10
33.1971
  20
0
  30
0
  11
33.72
  21
-0.522871
  31
0
  0
LINE
  5
15e
  100
AcDbEntity
  8
SK1
  100
AcDbLine
  10
32.9496
  20
0
  30
0
  11
33.72
  21
-0.770358
  31
0
  0
LINE
  5
15f
  100
AcDbEntity
  8
SK1
  100
AcDbLine
  10
32.7022
  20
0
  30
0
  11
33.72
  21
-1.01785
  31
0
  0
LINE
  5
160
  100
AcDbEntity
  8
SK1
  100
AcDbLine
  10
32.4547
  20
0
  30
0
  11
33.72
  21
-1.26533
  31
0
  0
LINE
  5
161
  100
AcDbEntity
  8
SK1
  100
AcDbLine
  10
32.2072
  20
0
  30
0
  11
33.72
  21
-1.51282
  31
0
  0
LINE
  5
162
  100
AcDbEntity
  8
SK1
  100
AcDbLine
  10
31.9703
  20
-0.010642
  30
0
  11
33.7094
  21
-1.74967
  31
0
  0
LINE
  5
163
  100
AcDbEntity
  8
SK1
  100
AcDbLine
  10
31.9936
  20
-0.281429
  30
0
  11
33.4386
  21
-1.72637
  31
0
  0
LINE
  5
164
  100
AcDbEntity
  8
SK1
  100
AcDbLine
  10
32.0839
  20
-0.619147
  30
0
  11
33.1009
  21
-1.63613
  31
0
  0
LINE
  5
165
  100
AcDbEntity
  8
SK1
  100
AcDbLine
  10
31.9714
  20
-0.044098
  30
0
  11
32.0155
  21
0
  31
0
  0
LINE
  5
166
  100
AcDbEntity
  8
SK1
  100
AcDbLine
  10
31.992
  20
-0.270991
  30
0
  11
32.263
  21
0
  31
0
  0
LINE
  5
167
  100
AcDbEntity
  8
SK1
  100
AcDbLine
  10
32.0363
  20
-0.474162
  30
0
  11
32.5105
  21
0
  31
0
  0
LINE
  5
168
  100
AcDbEntity
  8
SK1
  100
AcDbLine
  10
32.0992
  20
-0.658762
  30
0
  11
32.7579
  21
0
  31
0
  0
LINE
  5
169
  100
AcDbEntity
  8
SK1
  100
AcDbLine
  10
32.1783
  20
-0.827105
  30
0
  11
33.0054
  21
0
  31
0
  0
LINE
  5
16a
  100
AcDbEntity
  8
SK1
  100
AcDbLine
  10
32.2719
  20
-0.981039
  30
0
  11
33.2529
  21
0
  31
0
  0
LINE
  5
16b
  100
AcDbEntity
  8
SK1
  100
AcDbLine
  10
32.3778
  20
-1.12257
  30
0
  11
33.5004
  21
0
  31
0
  0
LINE
  5
16c
  100
AcDbEntity
  8
SK1
  100
AcDbLine
  10
32.4971
  20
-1.25077
  30
0
  11
33.72
  21
-0.027896
  31
0
  0
LINE
  5
16d
  100
AcDbEntity
  8
SK1
  100
AcDbLine
  10
32.6284
  20
-1.36695
  30
0
  11
33.72
  21
-0.275383
  31
0
  0
LINE
  5
16e
  100
AcDbEntity
  8
SK1
  100
AcDbLine
  10
32.7722
  20
-1.47069
  30
0
  11
33.72
  21
-0.522871
  31
0
  0
LINE
  5
16f
  100
AcDbEntity
  8
SK1
  100
AcDbLine
  10
32.9299
  20
-1.5605
  30
0
  11
33.72
  21
-0.770358
  31
0
  0
LINE
  5
170
  100
AcDbEntity
  8
SK1
  100
AcDbLine
  10
33.1015
  20
-1.63636
  30
0
  11
33.72
  21
-1.01785
  31
0
  0
LINE
  5
171
  100
AcDbEntity
  8
SK1
  100
AcDbLine
  10
33.2893
  20
-1.69603
  30
0
  11
33.72
  21
-1.26533
  31
0
  0
LINE
  5
172
  100
AcDbEntity
  8
SK1
  100
AcDbLine
  10
33.4972
  20
-1.73565
  30
0
  11
33.72
  21
-1.51282
  31
0
  0
LINE
  5
173
  100
AcDbEntity
  8
SK1
  100
AcDbLine
  10
33.72
  20
0
  30
0
  11
31.97
  21
0
  31
0
  0
LINE
  5
174
  100
AcDbEntity
  8
SK1
  100
AcDbLine
  10
33.72
  20
-1.75
  30
0
  11
33.72
  21
0
  31
0
  0
ARC
  5
175
  100
AcDbEntity
  8
SK1
  100
AcDbCircle
  10
33.72
  20
0
  30
0
  40
1.75
  100
AcDbArc
  50
180
  51
270
  0
ARC
  5
176
  100
AcDbEntity
  8
SK1
  100
AcDbCircle
  10
33.72
  20
0
  30
0
  40
1.75
  100
AcDbArc
  50
270
  51
0
  0
LINE
  5
1e7
  100
AcDbEntity
  8
NOCUT
  100
AcDbLine
  10
48.6
  20
0
  30
0
  11
48.6
  21
0.91
  31
0
  0
LINE
  5
1e8
  100
AcDbEntity
  8
NOCUT
  100
AcDbLine
  10
48.6
  20
0.91
  30
0
  11
41.25
  21
0.91
  31
0
  0
ARC
  5
1e9
  100
AcDbEntity
  8
NOCUT
  100
AcDbCircle
  10
41.25
  20
11.91
  30
0
  40
11
  100
AcDbArc
  50
239
  51
270
  0
LINE
  5
1ea
  100
AcDbEntity
  8
NOCUT
  100
AcDbLine
  10
35.584581
  20
2.48116
  30
0
  11
34.721086
  21
3
  31
0
  0
LINE
  5
1eb
  100
AcDbEntity
  8
NOCUT
  100
AcDbLine
  10
34.721086
  20
3
  30
0
  11
33.72
  21
3
  31
0
  0
LINE
  5
1ec
  100
AcDbEntity
  8
NOCUT
  100
AcDbLine
  10
33.72
  20
3
  30
0
  11
33.72
  21
0
  31
0
  0
LINE
  5
1ed
  100
AcDbEntity
  8
NOCUT
  100
AcDbLine
  10
33.72
  20
0
  30
0
  11
48.6
  21
0
  31
0
  0
LINE
  5
1ee
  100
AcDbEntity
  8
CUT
  100
AcDbLine
  10
50
  20
0
  30
0
  11
50
  21
1.2
  31
0
  0
LINE
  5
1ef
  100
AcDbEntity
  8
CUT
  100
AcDbLine
  10
50
  20
1.2
  30
0
  11
48.6
  21
1.2
  31
0
  0
LINE
  5
1f0
  100
AcDbEntity
  8
CUT
  100
AcDbLine
  10
48.6
  20
1.2
  30
0
  11
48.6
  21
0
  31
0
  0
LINE
  5
1f1
  100
AcDbEntity
  8
CUT
  100
AcDbLine
  10
48.6
  20
0
  30
0
  11
50
  21
0
  31
0
  0
LINE
  5
1f2
  100
AcDbEntity
  8
4
  100
AcDbLine
  10
33.72
  20
0
  30
0
  11
50
  21
0
  31
0
  0
LINE
  5
1f3
  100
AcDbEntity
  8
SK4
  100
AcDbLine
  10
-1
  20
0
  30
0
  11
51
  21
0
  31
0
  0
LINE
  5
1f4
  100
AcDbEntity
  8
INFTOTAL
  100
AcDbLine
  10
-15.7
  20
23.583274
  30
0
  11
65.7
  21
23.583274
  31
0
  0
LINE
  5
1f5
  100
AcDbEntity
  8
INFTOTAL
  100
AcDbLine
  10
65.7
  20
23.583274
  30
0
  11
65.7
  21
-47.29485
  31
0
  0
LINE
  5
1f6
  100
AcDbEntity
  8
INFTOTAL
  100
AcDbLine
  10
65.7
  20
-47.29485
  30
0
  11
-15.7
  21
-47.29485
  31
0
  0
LINE
  5
1f7
  100
AcDbEntity
  8
INFTOTAL
  100
AcDbLine
  10
-15.7
  20
-47.29485
  30
0
  11
-15.7
  21
23.583274
  31
0
  0
ENDSEC
  0
SECTION
  2
OBJECTS
  0
DICTIONARY
  5
1f8
  330
0
100
AcDbDictionary
281
    1
  3
ACAD_GROUP
  350
1f9
  0
DICTIONARY
  5
1f9
102
{ACAD_REACTORS
  330
1f8
102
}
  330
1f8
100
AcDbDictionary
281
    1
  0
ENDSEC
  0
EOF
