  0
SECTION
  2
HEADER
  9
$ACADVER
  1
AC1015
  9
$DWGCODEPAGE
  3
ANSI_932
  9
$HANDSEED
  5
106AB90
  0
ENDSEC
  0
SECTION
  2
CLASSES
  0
CLASS
  1
IMAGEDEF
  2
AcDbRasterImageDef
  3
ISM
  90
0
  91
4
  280
0
  281
0
  0
CLASS
  1
IMAGE
  2
AcDbRasterImage
  3
ISM
  90
127
  91
5
  280
0
  281
1
  0
CLASS
  1
IMAGEDEF_REACTOR
  2
AcDbRasterImageDefReactor
  3
ISM
  90
1
  91
4
  280
0
  281
0
  0
ENDSEC
  0
SECTION
  2
TABLES
  0
TABLE
  2
VPORT
  5
2
  330
0
  100
AcDbSymbolTable
  70
    0
  0
ENDTAB
  0
TABLE
  2
LTYPE
  5
3
  330
0
  100
AcDbSymbolTable
  70
    4
  0
LTYPE
  5
4
  330
3
  100
AcDbSymbolTableRecord
  100
AcDbLinetypeTableRecord
  2
ByBlock
  70
    0
  3

  72
65
  73
    0
  40
0
  0
LTYPE
  5
5
  330
3
  100
AcDbSymbolTableRecord
  100
AcDbLinetypeTableRecord
  2
ByLayer
  70
    0
  3

  72
65
  73
    0
  40
0
  0
LTYPE
  5
6
  330
3
  100
AcDbSymbolTableRecord
  100
AcDbLinetypeTableRecord
  2
CONTINUOUS
  70
    0
  3
Solid Line
  72
65
  73
    0
  40
0
  0
LTYPE
  5
7
  330
3
  100
AcDbSymbolTableRecord
  100
AcDbLinetypeTableRecord
  2
DASH
  70
    0
  3
Hidden
  72
65
  73
2
  40
2.5
  49
1.5
  74
0
  49
-1
  74
0
  0
LTYPE
  5
8
  330
3
  100
AcDbSymbolTableRecord
  100
AcDbLinetypeTableRecord
  2
LONGDASHDASH
  70
    0
  3
__ . __
  72
65
  73
    4
  40
7
  49
4
  74
    0
  49
-1
  74
    0
  49
1
  74
    0
  49
-1
  74
    0
  0
ENDTAB
  0
TABLE
  2
LAYER
  5
9
  330
0
  100
AcDbSymbolTable
  70
    40
  0
LAYER
  5
a
  330
9
  100
AcDbSymbolTableRecord
  100
AcDbLayerTableRecord
  2
0
  70
    0
  62
    0
  6
CONTINUOUS
  390
0
  0
LAYER
  5
c
  330
9
  100
AcDbSymbolTableRecord
  100
AcDbLayerTableRecord
  2
1
  70
    0
  62
    4
  6
CONTINUOUS
  370
50
  390
0
  0
LAYER
  5
d
  330
9
  100
AcDbSymbolTableRecord
  100
AcDbLayerTableRecord
  2
2
  70
    0
  62
    7
  6
CONTINUOUS
  370
25
  390
0
  0
LAYER
  5
f
  330
9
  100
AcDbSymbolTableRecord
  100
AcDbLayerTableRecord
  2
4
  70
    0
  62
    2
  6
LONGDASHDASH
  370
25
  390
0
  0
LAYER
  5
13
  330
9
  100
AcDbSymbolTableRecord
  100
AcDbLayerTableRecord
  2
SK1
  70
    0
  62
    4
  6
CONTINUOUS
  370
50
  390
0
  0
LAYER
  5
14
  330
9
  100
AcDbSymbolTableRecord
  100
AcDbLayerTableRecord
  2
SK2
  70
    0
  62
    7
  6
CONTINUOUS
  370
25
  390
0
  0
LAYER
  5
16
  330
9
  100
AcDbSymbolTableRecord
  100
AcDbLayerTableRecord
  2
SK4
  70
    0
  62
    2
  6
LONGDASHDASH
  370
25
  390
0
  0
LAYER
  5
21
  330
9
  100
AcDbSymbolTableRecord
  100
AcDbLayerTableRecord
  2
NOCUT
  70
    0
  62
    7
  6
CONTINUOUS
  370
25
  390
0
  0
LAYER
  5
22
  330
9
  100
AcDbSymbolTableRecord
  100
AcDbLayerTableRecord
  2
CUT
  70
    0
  62
    1
  6
CONTINUOUS
  370
25
  390
0
  0
LAYER
  5
26
  330
9
  100
AcDbSymbolTableRecord
  100
AcDbLayerTableRecord
  2
INFTOTAL
  70
    0
  62
    9
  6
CONTINUOUS
  370
18
  390
0
  0
ENDTAB
  0
TABLE
  2
STYLE
  5
27
  330
0
  100
AcDbSymbolTable
  70
    1
  0
STYLE
  5
28
  330
27
  100
AcDbSymbolTableRecord
  100
AcDbTextStyleTableRecord
  2
Monospac821 BT
  70
    0
  40
    3.5
  41
1
  50
0
  71
0
  42
3
  3

  4

  1001
ACAD
  1000
Monospac821 BT
  1071
256
  0
ENDTAB
  0
TABLE
  2
VIEW
  5
29
  330
0
  100
AcDbSymbolTable
  70
    0
  0
ENDTAB
  0
TABLE
  2
UCS
  5
2a
  330
0
  100
AcDbSymbolTable
  70
    0
  0
ENDTAB
  0
TABLE
  2
APPID
  5
2b
  330
0
  100
AcDbSymbolTable
  70
    1
  0
APPID
  5
2c
  330
2b
  100
AcDbSymbolTableRecord
  100
AcDbRegAppTableRecord
  2
ACAD
  70
    0
  0
ENDTAB
  0
TABLE
  2
DIMSTYLE
  5
2d
  330
0
  100
AcDbSymbolTable
  70
    1
  100
AcDbDimStyleTable
  0
DIMSTYLE
  105
2e
  330
2d
  100
AcDbSymbolTableRecord
  100
AcDbDimStyleTableRecord
  2
STANDARD
  70
    0
  41
    3
  42
0.5
  44
1
  73
0
  77
1
  78
1
  140
3.5
  141
2.5
  143
0.03937
  147
0.8
  172
1
  174
1
  178
0
  179
1
  271
2
  279
1
  284
1
  340
28
  0
ENDTAB
  0
TABLE
  2
BLOCK_RECORD
  5
2f
  330
0
  100
AcDbSymbolTable
  70
    2
  0
BLOCK_RECORD
  5
30
  330
2f
  100
AcDbSymbolTableRecord
  100
AcDbBlockTableRecord
  2
*Model_Space
  0
BLOCK_RECORD
  5
31
  330
2f
  100
AcDbSymbolTableRecord
  100
AcDbBlockTableRecord
  2
*Paper_Space
  0
BLOCK_RECORD
  5
1fa
  330
2f
  100
AcDbSymbolTableRecord
  100
AcDbBlockTableRecord
  2
*D1f9
  340
0
  0
BLOCK_RECORD
  5
208
  330
2f
  100
AcDbSymbolTableRecord
  100
AcDbBlockTableRecord
  2
*D207
  340
0
  0
BLOCK_RECORD
  5
216
  330
2f
  100
AcDbSymbolTableRecord
  100
AcDbBlockTableRecord
  2
*D215
  340
0
  0
BLOCK_RECORD
  5
224
  330
2f
  100
AcDbSymbolTableRecord
  100
AcDbBlockTableRecord
  2
*D223
  340
0
  0
BLOCK_RECORD
  5
232
  330
2f
  100
AcDbSymbolTableRecord
  100
AcDbBlockTableRecord
  2
*D231
  340
0
  0
BLOCK_RECORD
  5
240
  330
2f
  100
AcDbSymbolTableRecord
  100
AcDbBlockTableRecord
  2
*D23f
  340
0
  0
BLOCK_RECORD
  5
24e
  330
2f
  100
AcDbSymbolTableRecord
  100
AcDbBlockTableRecord
  2
*D24d
  340
0
  0
BLOCK_RECORD
  5
25c
  330
2f
  100
AcDbSymbolTableRecord
  100
AcDbBlockTableRecord
  2
*D25b
  340
0
  0
ENDTAB
  0
ENDSEC
  0
SECTION
  2
BLOCKS
  0
BLOCK
  5
32
  330
30
  100
AcDbEntity
  8
0
  100
AcDbBlockBegin
  2
*Model_Space
  70
    0
  10
0
  20
0
  30
0
  3
*Model_Space
  1

  0
ENDBLK
  5
33
  330
30
  100
AcDbEntity
  8
0
  100
AcDbBlockEnd
  0
BLOCK
  5
34
  330
31
  100
AcDbEntity
  8
0
  100
AcDbBlockBegin
  2
*Paper_Space
  70
    0
  10
0
  20
0
  30
0
  3
*Paper_Space
  1

  0
ENDBLK
  5
35
  330
31
  100
AcDbEntity
  8
0
  100
AcDbBlockEnd
  0
BLOCK
  5
1f8
  330
1fa
  100
AcDbEntity
  8
SK2
  100
AcDbBlockBegin
  2
*D1f9
  70
1
  10
0
  20
0
  30
0
  3
*D1f9
  1

  0
LINE
  5
1fb
  330
1fa
  100
AcDbEntity
  8
SK2
  100
AcDbLine
  10
-0
  20
-43.59485
  30
0
  11
-0
  21
2.6
  31
0
  0
LINE
  5
1fc
  330
1fa
  100
AcDbEntity
  8
SK2
  100
AcDbLine
  10
50
  20
-43.59485
  30
0
  11
50
  21
19.883274
  31
0
  0
LINE
  5
1fd
  330
1fa
  100
AcDbEntity
  8
SK2
  100
AcDbLine
  10
-0
  20
-41.59485
  30
0
  11
50
  21
-41.59485
  31
0
  0
SOLID
  5
1fe
  330
1fa
  100
AcDbEntity
  8
SK2
  100
AcDbTrace
  10
-0
  20
-41.59485
  30
0
  11
2.478612
  21
-41.268534
  31
0
  12
2.478612
  22
-41.921165
  32
0
  13
2.478612
  23
-41.921165
  33
0
  0
SOLID
  5
1ff
  330
1fa
  100
AcDbEntity
  8
SK2
  100
AcDbTrace
  10
50
  20
-41.59485
  30
0
  11
47.521388
  21
-41.921165
  31
0
  12
47.521388
  22
-41.268534
  32
0
  13
47.521388
  23
-41.268534
  33
0
  0
MTEXT
  5
200
  330
1fa
  100
AcDbEntity
  8
SK2
  100
AcDbMText
  10
25
  20
-41.59485
  30
0
  11
1
  21
-0
  31
0
  40
2
  41
0
  71
8
  72
1
  1
50
  0
POINT
  5
201
  330
1fa
  100
AcDbEntity
  8
SK2
  62
0
  100
AcDbPoint
  10
-0
  20
2.6
  30
0
  0
POINT
  5
202
  330
1fa
  100
AcDbEntity
  8
SK2
  62
0
  100
AcDbPoint
  10
50
  20
19.883274
  30
0
  0
POINT
  5
203
  330
1fa
  100
AcDbEntity
  8
SK2
  62
0
  100
AcDbPoint
  10
50
  20
-41.59485
  30
0
  0
ENDBLK
  5
204
  330
1fa
  100
AcDbEntity
  8
SK2
  100
AcDbBlockEnd
  0
BLOCK
  5
206
  330
208
  100
AcDbEntity
  8
SK2
  100
AcDbBlockBegin
  2
*D207
  70
1
  10
0
  20
0
  30
0
  3
*D207
  1

  0
LINE
  5
209
  330
208
  100
AcDbEntity
  8
SK2
  100
AcDbLine
  10
32.710312
  20
-33.817496
  30
0
  11
32.710312
  21
3
  31
0
  0
LINE
  5
20a
  330
208
  100
AcDbEntity
  8
SK2
  100
AcDbLine
  10
-0
  20
-43.59485
  30
0
  11
-0
  21
2.6
  31
0
  0
LINE
  5
20b
  330
208
  100
AcDbEntity
  8
SK2
  100
AcDbLine
  10
32.710312
  20
-31.817496
  30
0
  11
-0
  21
-31.817496
  31
0
  0
SOLID
  5
20c
  330
208
  100
AcDbEntity
  8
SK2
  100
AcDbTrace
  10
32.710312
  20
-31.817496
  30
0
  11
35.188924
  21
-31.49118
  31
0
  12
35.188924
  22
-32.143811
  32
0
  13
35.188924
  23
-32.143811
  33
0
  0
SOLID
  5
20d
  330
208
  100
AcDbEntity
  8
SK2
  100
AcDbTrace
  10
-0
  20
-31.817496
  30
0
  11
-2.478612
  21
-32.143811
  31
0
  12
-2.478612
  22
-31.49118
  32
0
  13
-2.478612
  23
-31.49118
  33
0
  0
MTEXT
  5
20e
  330
208
  100
AcDbEntity
  8
SK2
  100
AcDbMText
  10
16.355156
  20
-31.817496
  30
0
  11
1
  21
-0
  31
0
  40
2
  41
0
  71
8
  72
1
  1
32.71
  0
POINT
  5
20f
  330
208
  100
AcDbEntity
  8
SK2
  62
0
  100
AcDbPoint
  10
32.710312
  20
3
  30
0
  0
POINT
  5
210
  330
208
  100
AcDbEntity
  8
SK2
  62
0
  100
AcDbPoint
  10
-0
  20
2.6
  30
0
  0
POINT
  5
211
  330
208
  100
AcDbEntity
  8
SK2
  62
0
  100
AcDbPoint
  10
-0
  20
-31.817496
  30
0
  0
ENDBLK
  5
212
  330
208
  100
AcDbEntity
  8
SK2
  100
AcDbBlockEnd
  0
BLOCK
  5
214
  330
216
  100
AcDbEntity
  8
SK2
  100
AcDbBlockBegin
  2
*D215
  70
1
  10
0
  20
0
  30
0
  3
*D215
  1

  0
LINE
  5
217
  330
216
  100
AcDbEntity
  8
SK2
  100
AcDbLine
  10
0.4
  20
-3
  30
0
  11
-12
  21
-3
  31
0
  0
LINE
  5
218
  330
216
  100
AcDbEntity
  8
SK2
  100
AcDbLine
  10
0.4
  20
3
  30
0
  11
-12
  21
3
  31
0
  0
LINE
  5
219
  330
216
  100
AcDbEntity
  8
SK2
  100
AcDbLine
  10
-10
  20
-3
  30
0
  11
-10
  21
3
  31
0
  0
SOLID
  5
21a
  330
216
  100
AcDbEntity
  8
SK2
  100
AcDbTrace
  10
-10
  20
-3
  30
0
  11
-10.326315
  21
-0.521388
  31
0
  12
-9.673685
  22
-0.521388
  32
0
  13
-9.673685
  23
-0.521388
  33
0
  0
SOLID
  5
21b
  330
216
  100
AcDbEntity
  8
SK2
  100
AcDbTrace
  10
-10
  20
3
  30
0
  11
-9.673685
  21
0.521388
  31
0
  12
-10.326315
  22
0.521388
  32
0
  13
-10.326315
  23
0.521388
  33
0
  0
MTEXT
  5
21c
  330
216
  100
AcDbEntity
  8
SK2
  100
AcDbMText
  10
-10
  20
-0.064076
  30
0
  11
0
  21
1
  31
0
  40
2
  41
0
  71
8
  72
1
  1
Ø6
  0
POINT
  5
21d
  330
216
  100
AcDbEntity
  8
SK2
  62
0
  100
AcDbPoint
  10
0.4
  20
-3
  30
0
  0
POINT
  5
21e
  330
216
  100
AcDbEntity
  8
SK2
  62
0
  100
AcDbPoint
  10
0.4
  20
3
  30
0
  0
POINT
  5
21f
  330
216
  100
AcDbEntity
  8
SK2
  62
0
  100
AcDbPoint
  10
-10
  20
3
  30
0
  0
ENDBLK
  5
220
  330
216
  100
AcDbEntity
  8
SK2
  100
AcDbBlockEnd
  0
BLOCK
  5
222
  330
224
  100
AcDbEntity
  8
2
  100
AcDbBlockBegin
  2
*D223
  70
1
  10
0
  20
0
  30
0
  3
*D223
  1

  0
LINE
  5
225
  330
224
  100
AcDbEntity
  8
2
  100
AcDbLine
  10
50
  20
-2
  30
0
  11
62
  21
-2
  31
0
  0
LINE
  5
226
  330
224
  100
AcDbEntity
  8
2
  100
AcDbLine
  10
50
  20
2
  30
0
  11
62
  21
2
  31
0
  0
LINE
  5
227
  330
224
  100
AcDbEntity
  8
2
  100
AcDbLine
  10
60
  20
-2
  30
0
  11
60
  21
7.612198
  31
0
  0
SOLID
  5
228
  330
224
  100
AcDbEntity
  8
2
  100
AcDbTrace
  10
60
  20
-2
  30
0
  11
59.673685
  21
0.478612
  31
0
  12
60.326315
  22
0.478612
  32
0
  13
60.326315
  23
0.478612
  33
0
  0
SOLID
  5
229
  330
224
  100
AcDbEntity
  8
2
  100
AcDbTrace
  10
60
  20
2
  30
0
  11
60.326315
  21
-0.478612
  31
0
  12
59.673685
  22
-0.478612
  32
0
  13
59.673685
  23
-0.478612
  33
0
  0
MTEXT
  5
22a
  330
224
  100
AcDbEntity
  8
2
  100
AcDbMText
  10
60
  20
7.645512
  30
0
  11
0
  21
1
  31
0
  40
2
  41
0
  71
8
  72
1
  1
Ø4
  0
POINT
  5
22b
  330
224
  100
AcDbEntity
  8
2
  62
0
  100
AcDbPoint
  10
50
  20
-2
  30
0
  0
POINT
  5
22c
  330
224
  100
AcDbEntity
  8
2
  62
0
  100
AcDbPoint
  10
50
  20
2
  30
0
  0
POINT
  5
22d
  330
224
  100
AcDbEntity
  8
2
  62
0
  100
AcDbPoint
  10
60
  20
7.612198
  30
0
  0
ENDBLK
  5
22e
  330
224
  100
AcDbEntity
  8
2
  100
AcDbBlockEnd
  0
BLOCK
  5
230
  330
232
  100
AcDbEntity
  8
2
  100
AcDbBlockBegin
  2
*D231
  70
1
  10
0
  20
0
  30
0
  3
*D231
  1

  0
LINE
  5
233
  330
232
  100
AcDbEntity
  8
2
  100
AcDbLine
  10
47.7
  20
-1.55
  30
0
  11
41.206644
  21
-1.55
  31
0
  0
LINE
  5
234
  330
232
  100
AcDbEntity
  8
2
  100
AcDbLine
  10
47.7
  20
1.55
  30
0
  11
41.206644
  21
1.55
  31
0
  0
LINE
  5
235
  330
232
  100
AcDbEntity
  8
2
  100
AcDbLine
  10
43.206644
  20
-1.55
  30
0
  11
43.206644
  21
11.478711
  31
0
  0
SOLID
  5
236
  330
232
  100
AcDbEntity
  8
2
  100
AcDbTrace
  10
43.206644
  20
-1.55
  30
0
  11
42.880328
  21
0.928612
  31
0
  12
43.532959
  22
0.928612
  32
0
  13
43.532959
  23
0.928612
  33
0
  0
SOLID
  5
237
  330
232
  100
AcDbEntity
  8
2
  100
AcDbTrace
  10
43.206644
  20
1.55
  30
0
  11
43.532959
  21
-0.928612
  31
0
  12
42.880328
  22
-0.928612
  32
0
  13
42.880328
  23
-0.928612
  33
0
  0
MTEXT
  5
238
  330
232
  100
AcDbEntity
  8
2
  100
AcDbMText
  10
43.206644
  20
3.839444
  30
0
  11
0
  21
1
  31
0
  40
2
  41
0
  71
8
  72
1
  1
Ø3.1
  0
POINT
  5
239
  330
232
  100
AcDbEntity
  8
2
  62
0
  100
AcDbPoint
  10
47.7
  20
-1.55
  30
0
  0
POINT
  5
23a
  330
232
  100
AcDbEntity
  8
2
  62
0
  100
AcDbPoint
  10
47.7
  20
1.55
  30
0
  0
POINT
  5
23b
  330
232
  100
AcDbEntity
  8
2
  62
0
  100
AcDbPoint
  10
43.206644
  20
11.478711
  30
0
  0
ENDBLK
  5
23c
  330
232
  100
AcDbEntity
  8
2
  100
AcDbBlockEnd
  0
BLOCK
  5
23e
  330
240
  100
AcDbEntity
  8
2
  100
AcDbBlockBegin
  2
*D23f
  70
1
  10
0
  20
0
  30
0
  3
*D23f
  1

  0
LINE
  5
241
  330
240
  100
AcDbEntity
  8
2
  100
AcDbLine
  10
47.7
  20
-25.322624
  30
0
  11
47.7
  21
1.55
  31
0
  0
LINE
  5
242
  330
240
  100
AcDbEntity
  8
2
  100
AcDbLine
  10
35.5
  20
-25.322624
  30
0
  11
35.5
  21
1.55
  31
0
  0
LINE
  5
243
  330
240
  100
AcDbEntity
  8
2
  100
AcDbLine
  10
47.7
  20
-23.322624
  30
0
  11
35.5
  21
-23.322624
  31
0
  0
SOLID
  5
244
  330
240
  100
AcDbEntity
  8
2
  100
AcDbTrace
  10
47.7
  20
-23.322624
  30
0
  11
50.178612
  21
-22.996309
  31
0
  12
50.178612
  22
-23.64894
  32
0
  13
50.178612
  23
-23.64894
  33
0
  0
SOLID
  5
245
  330
240
  100
AcDbEntity
  8
2
  100
AcDbTrace
  10
35.5
  20
-23.322624
  30
0
  11
33.021388
  21
-23.64894
  31
0
  12
33.021388
  22
-22.996309
  32
0
  13
33.021388
  23
-22.996309
  33
0
  0
MTEXT
  5
246
  330
240
  100
AcDbEntity
  8
2
  100
AcDbMText
  10
44.073585
  20
-23.322624
  30
0
  11
1
  21
-0
  31
0
  40
2
  41
0
  71
8
  72
1
  1
12.2
  0
POINT
  5
247
  330
240
  100
AcDbEntity
  8
2
  62
0
  100
AcDbPoint
  10
47.7
  20
1.55
  30
0
  0
POINT
  5
248
  330
240
  100
AcDbEntity
  8
2
  62
0
  100
AcDbPoint
  10
35.5
  20
1.55
  30
0
  0
POINT
  5
249
  330
240
  100
AcDbEntity
  8
2
  62
0
  100
AcDbPoint
  10
35.5
  20
-23.322624
  30
0
  0
ENDBLK
  5
24a
  330
240
  100
AcDbEntity
  8
2
  100
AcDbBlockEnd
  0
BLOCK
  5
24c
  330
24e
  100
AcDbEntity
  8
2
  100
AcDbBlockBegin
  2
*D24d
  70
1
  10
0
  20
0
  30
0
  3
*D24d
  1

  0
LINE
  5
24f
  330
24e
  100
AcDbEntity
  8
2
  100
AcDbLine
  10
47.7
  20
-1.55
  30
0
  11
47.7
  21
-25.273643
  31
0
  0
LINE
  5
250
  330
24e
  100
AcDbEntity
  8
2
  100
AcDbLine
  10
50
  20
-43.59485
  30
0
  11
50
  21
19.883274
  31
0
  0
LINE
  5
251
  330
24e
  100
AcDbEntity
  8
2
  100
AcDbLine
  10
47.7
  20
-23.273643
  30
0
  11
53.164557
  21
-23.273643
  31
0
  0
SOLID
  5
252
  330
24e
  100
AcDbEntity
  8
2
  100
AcDbTrace
  10
47.7
  20
-23.273643
  30
0
  11
50.178612
  21
-22.947327
  31
0
  12
50.178612
  22
-23.599958
  32
0
  13
50.178612
  23
-23.599958
  33
0
  0
SOLID
  5
253
  330
24e
  100
AcDbEntity
  8
2
  100
AcDbTrace
  10
50
  20
-23.273643
  30
0
  11
47.521388
  21
-23.599958
  31
0
  12
47.521388
  22
-22.947327
  32
0
  13
47.521388
  23
-22.947327
  33
0
  0
MTEXT
  5
254
  330
24e
  100
AcDbEntity
  8
2
  100
AcDbMText
  10
53.325719
  20
-23.273643
  30
0
  11
1
  21
0
  31
0
  40
2
  41
0
  71
8
  72
1
  1
2.3
  0
POINT
  5
255
  330
24e
  100
AcDbEntity
  8
2
  62
0
  100
AcDbPoint
  10
47.7
  20
-1.55
  30
0
  0
POINT
  5
256
  330
24e
  100
AcDbEntity
  8
2
  62
0
  100
AcDbPoint
  10
50
  20
19.883274
  30
0
  0
POINT
  5
257
  330
24e
  100
AcDbEntity
  8
2
  62
0
  100
AcDbPoint
  10
53.164557
  20
-23.273643
  30
0
  0
ENDBLK
  5
258
  330
24e
  100
AcDbEntity
  8
2
  100
AcDbBlockEnd
  0
BLOCK
  5
25a
  330
25c
  100
AcDbEntity
  8
2
  100
AcDbBlockBegin
  2
*D25b
  70
1
  10
0
  20
0
  30
0
  3
*D25b
  1

  0
LINE
  5
25d
  330
25c
  100
AcDbEntity
  8
2
  100
AcDbLine
  10
31.71
  20
19.883274
  30
0
  11
31.71
  21
-3
  31
0
  0
LINE
  5
25e
  330
25c
  100
AcDbEntity
  8
2
  100
AcDbLine
  10
50
  20
-43.59485
  30
0
  11
50
  21
19.883274
  31
0
  0
LINE
  5
25f
  330
25c
  100
AcDbEntity
  8
2
  100
AcDbLine
  10
31.71
  20
17.883274
  30
0
  11
50
  21
17.883274
  31
0
  0
SOLID
  5
260
  330
25c
  100
AcDbEntity
  8
2
  100
AcDbTrace
  10
31.71
  20
17.883274
  30
0
  11
34.188612
  21
18.209589
  31
0
  12
34.188612
  22
17.556958
  32
0
  13
34.188612
  23
17.556958
  33
0
  0
SOLID
  5
261
  330
25c
  100
AcDbEntity
  8
2
  100
AcDbTrace
  10
50
  20
17.883274
  30
0
  11
47.521388
  21
17.556958
  31
0
  12
47.521388
  22
18.209589
  32
0
  13
47.521388
  23
18.209589
  33
0
  0
MTEXT
  5
262
  330
25c
  100
AcDbEntity
  8
2
  100
AcDbMText
  10
39.061307
  20
17.883274
  30
0
  11
1
  21
0
  31
0
  40
2
  41
0
  71
8
  72
1
  1
18.29
  0
POINT
  5
263
  330
25c
  100
AcDbEntity
  8
2
  62
0
  100
AcDbPoint
  10
31.71
  20
-3
  30
0
  0
POINT
  5
264
  330
25c
  100
AcDbEntity
  8
2
  62
0
  100
AcDbPoint
  10
50
  20
-43.59485
  30
0
  0
POINT
  5
265
  330
25c
  100
AcDbEntity
  8
2
  62
0
  100
AcDbPoint
  10
50
  20
17.883274
  30
0
  0
ENDBLK
  5
266
  330
25c
  100
AcDbEntity
  8
2
  100
AcDbBlockEnd
  0
ENDSEC
  0
SECTION
  2
ENTITIES
  0
DIMENSION
  5
205
  100
AcDbEntity
  8
SK2
  100
AcDbDimension
  2
*D1f9
  10
50
  20
-41.59485
  30
0
  11
25
  21
-41.59485
  31
0
  70
160
  1
<>
  71
5
  3
STANDARD
  42
50
  100
AcDbAlignedDimension
  13
-0
  23
2.6
  33
0
  14
50
  24
19.883274
  34
0
  50
0
  100
AcDbRotatedDimension
  0
DIMENSION
  5
213
  100
AcDbEntity
  8
SK2
  100
AcDbDimension
  2
*D207
  10
-0
  20
-31.817496
  30
0
  11
16.355156
  21
-31.817496
  31
0
  70
160
  1
<>
  71
5
  3
STANDARD
  42
32.710312
  100
AcDbAlignedDimension
  13
32.710312
  23
3
  33
0
  14
-0
  24
2.6
  34
0
  50
0
  100
AcDbRotatedDimension
  0
DIMENSION
  5
221
  100
AcDbEntity
  8
SK2
  100
AcDbDimension
  2
*D215
  10
-10
  20
3
  30
0
  11
-10
  21
-0.064076
  31
0
  70
160
  1
%%c<>
  71
5
  3
STANDARD
  42
6
  100
AcDbAlignedDimension
  13
0.4
  23
-3
  33
0
  14
0.4
  24
3
  34
0
  50
-90
  100
AcDbRotatedDimension
  0
DIMENSION
  5
22f
  100
AcDbEntity
  8
2
  100
AcDbDimension
  2
*D223
  10
60
  20
7.612198
  30
0
  11
60
  21
7.645512
  31
0
  70
160
  1
%%c<>
  71
5
  3
STANDARD
  42
4
  100
AcDbAlignedDimension
  13
50
  23
-2
  33
0
  14
50
  24
2
  34
0
  50
-90
  100
AcDbRotatedDimension
  0
DIMENSION
  5
23d
  100
AcDbEntity
  8
2
  100
AcDbDimension
  2
*D231
  10
43.206644
  20
11.478711
  30
0
  11
43.206644
  21
3.839444
  31
0
  70
160
  1
%%c<>
  71
5
  3
STANDARD
  42
3.1
  100
AcDbAlignedDimension
  13
47.7
  23
-1.55
  33
0
  14
47.7
  24
1.55
  34
0
  50
-90
  100
AcDbRotatedDimension
  0
DIMENSION
  5
24b
  100
AcDbEntity
  8
2
  100
AcDbDimension
  2
*D23f
  10
35.5
  20
-23.322624
  30
0
  11
44.073585
  21
-23.322624
  31
0
  70
160
  1
<>
  71
5
  3
STANDARD
  42
12.2
  100
AcDbAlignedDimension
  13
47.7
  23
1.55
  33
0
  14
35.5
  24
1.55
  34
0
  50
0
  100
AcDbRotatedDimension
  0
DIMENSION
  5
259
  100
AcDbEntity
  8
2
  100
AcDbDimension
  2
*D24d
  10
53.164557
  20
-23.273643
  30
0
  11
53.325719
  21
-23.273643
  31
0
  70
160
  1
<>
  71
5
  3
STANDARD
  42
2.3
  100
AcDbAlignedDimension
  13
47.7
  23
-1.55
  33
0
  14
50
  24
19.883274
  34
0
  50
0
  100
AcDbRotatedDimension
  0
DIMENSION
  5
267
  100
AcDbEntity
  8
2
  100
AcDbDimension
  2
*D25b
  10
50
  20
17.883274
  30
0
  11
39.061307
  21
17.883274
  31
0
  70
160
  1
<>
  71
5
  3
STANDARD
  42
18.29
  100
AcDbAlignedDimension
  13
31.71
  23
-3
  33
0
  14
50
  24
-43.59485
  34
0
  50
0
  100
AcDbRotatedDimension
  0
LINE
  5
36
  100
AcDbEntity
  8
1
  100
AcDbLine
  10
50
  20
-0.618034
  30
0
  11
49.9
  21
-0.618034
  31
0
  0
LINE
  5
37
  100
AcDbEntity
  8
1
  100
AcDbLine
  10
49.9
  20
-0.618034
  30
0
  11
49.8
  21
-0.618034
  31
0
  0
LINE
  5
38
  100
AcDbEntity
  8
1
  100
AcDbLine
  10
49.8
  20
-0.618034
  30
0
  11
49.7
  21
-0.618034
  31
0
  0
LINE
  5
39
  100
AcDbEntity
  8
1
  100
AcDbLine
  10
49.7
  20
-0.618034
  30
0
  11
49.6
  21
-0.618034
  31
0
  0
LINE
  5
3a
  100
AcDbEntity
  8
1
  100
AcDbLine
  10
49.6
  20
-0.618034
  30
0
  11
49.5
  21
-0.618034
  31
0
  0
LINE
  5
3b
  100
AcDbEntity
  8
1
  100
AcDbLine
  10
49.5
  20
-0.618034
  30
0
  11
49.4
  21
-0.618034
  31
0
  0
LINE
  5
3c
  100
AcDbEntity
  8
1
  100
AcDbLine
  10
49.4
  20
-0.618034
  30
0
  11
49.3
  21
-0.618034
  31
0
  0
LINE
  5
3d
  100
AcDbEntity
  8
1
  100
AcDbLine
  10
49.3
  20
-0.618034
  30
0
  11
49.2
  21
-0.618034
  31
0
  0
LINE
  5
3e
  100
AcDbEntity
  8
1
  100
AcDbLine
  10
49.2
  20
-0.618034
  30
0
  11
49.1
  21
-0.618034
  31
0
  0
LINE
  5
3f
  100
AcDbEntity
  8
1
  100
AcDbLine
  10
49.1
  20
-0.618034
  30
0
  11
49
  21
-0.618034
  31
0
  0
LINE
  5
40
  100
AcDbEntity
  8
1
  100
AcDbLine
  10
49
  20
-0.618034
  30
0
  11
48.9
  21
-0.618034
  31
0
  0
LINE
  5
41
  100
AcDbEntity
  8
1
  100
AcDbLine
  10
48.9
  20
-0.618034
  30
0
  11
48.8
  21
-0.618034
  31
0
  0
LINE
  5
42
  100
AcDbEntity
  8
1
  100
AcDbLine
  10
48.8
  20
-0.618034
  30
0
  11
48.7
  21
-0.618034
  31
0
  0
LINE
  5
43
  100
AcDbEntity
  8
1
  100
AcDbLine
  10
48.7
  20
-0.618034
  30
0
  11
48.6
  21
-0.618034
  31
0
  0
LINE
  5
44
  100
AcDbEntity
  8
1
  100
AcDbLine
  10
48.6
  20
-0.618034
  30
0
  11
48.5
  21
-0.618034
  31
0
  0
LINE
  5
45
  100
AcDbEntity
  8
1
  100
AcDbLine
  10
48.5
  20
-0.618034
  30
0
  11
48.4
  21
-0.618034
  31
0
  0
LINE
  5
46
  100
AcDbEntity
  8
1
  100
AcDbLine
  10
48.4
  20
-0.618034
  30
0
  11
48.3
  21
-0.618034
  31
0
  0
LINE
  5
47
  100
AcDbEntity
  8
1
  100
AcDbLine
  10
48.3
  20
-0.618034
  30
0
  11
48.2
  21
-0.618034
  31
0
  0
LINE
  5
48
  100
AcDbEntity
  8
1
  100
AcDbLine
  10
48.2
  20
-0.618034
  30
0
  11
48.1
  21
-0.618034
  31
0
  0
LINE
  5
49
  100
AcDbEntity
  8
1
  100
AcDbLine
  10
48.1
  20
-0.618034
  30
0
  11
48
  21
-0.618034
  31
0
  0
LINE
  5
4a
  100
AcDbEntity
  8
1
  100
AcDbLine
  10
48
  20
-0.618034
  30
0
  11
47.9
  21
-0.618034
  31
0
  0
LINE
  5
4b
  100
AcDbEntity
  8
1
  100
AcDbLine
  10
47.9
  20
-0.618034
  30
0
  11
47.8
  21
-0.618034
  31
0
  0
LINE
  5
4c
  100
AcDbEntity
  8
1
  100
AcDbLine
  10
47.8
  20
-0.618034
  30
0
  11
47.7
  21
-0.618034
  31
0
  0
LINE
  5
4d
  100
AcDbEntity
  8
1
  100
AcDbLine
  10
47.7
  20
-0.618034
  30
0
  11
47.7
  21
-0.731847
  31
0
  0
LINE
  5
4e
  100
AcDbEntity
  8
1
  100
AcDbLine
  10
47.7
  20
-0.731847
  30
0
  11
47.6
  21
-0.732183
  31
0
  0
LINE
  5
4f
  100
AcDbEntity
  8
1
  100
AcDbLine
  10
47.6
  20
-0.732183
  30
0
  11
47.5
  21
-0.73319
  31
0
  0
LINE
  5
50
  100
AcDbEntity
  8
1
  100
AcDbLine
  10
47.5
  20
-0.73319
  30
0
  11
47.4
  21
-0.734867
  31
0
  0
LINE
  5
51
  100
AcDbEntity
  8
1
  100
AcDbLine
  10
47.4
  20
-0.734867
  30
0
  11
47.3
  21
-0.737211
  31
0
  0
LINE
  5
52
  100
AcDbEntity
  8
1
  100
AcDbLine
  10
47.3
  20
-0.737211
  30
0
  11
47.2
  21
-0.740218
  31
0
  0
LINE
  5
53
  100
AcDbEntity
  8
1
  100
AcDbLine
  10
47.2
  20
-0.740218
  30
0
  11
47.1
  21
-0.743886
  31
0
  0
LINE
  5
54
  100
AcDbEntity
  8
1
  100
AcDbLine
  10
47.1
  20
-0.743886
  30
0
  11
47
  21
-0.748207
  31
0
  0
LINE
  5
55
  100
AcDbEntity
  8
1
  100
AcDbLine
  10
47
  20
-0.748207
  30
0
  11
46.9
  21
-0.753176
  31
0
  0
LINE
  5
56
  100
AcDbEntity
  8
1
  100
AcDbLine
  10
46.9
  20
-0.753176
  30
0
  11
46.8
  21
-0.758786
  31
0
  0
LINE
  5
57
  100
AcDbEntity
  8
1
  100
AcDbLine
  10
46.8
  20
-0.758786
  30
0
  11
46.7
  21
-0.765027
  31
0
  0
LINE
  5
58
  100
AcDbEntity
  8
1
  100
AcDbLine
  10
46.7
  20
-0.765027
  30
0
  11
46.6
  21
-0.771891
  31
0
  0
LINE
  5
59
  100
AcDbEntity
  8
1
  100
AcDbLine
  10
46.6
  20
-0.771891
  30
0
  11
46.5
  21
-0.779368
  31
0
  0
LINE
  5
5a
  100
AcDbEntity
  8
1
  100
AcDbLine
  10
46.5
  20
-0.779368
  30
0
  11
46.4
  21
-0.787446
  31
0
  0
LINE
  5
5b
  100
AcDbEntity
  8
1
  100
AcDbLine
  10
46.4
  20
-0.787446
  30
0
  11
46.3
  21
-0.796112
  31
0
  0
LINE
  5
5c
  100
AcDbEntity
  8
1
  100
AcDbLine
  10
46.3
  20
-0.796112
  30
0
  11
46.2
  21
-0.805354
  31
0
  0
LINE
  5
5d
  100
AcDbEntity
  8
1
  100
AcDbLine
  10
46.2
  20
-0.805354
  30
0
  11
46.1
  21
-0.815158
  31
0
  0
LINE
  5
5e
  100
AcDbEntity
  8
1
  100
AcDbLine
  10
46.1
  20
-0.815158
  30
0
  11
46
  21
-0.825508
  31
0
  0
LINE
  5
5f
  100
AcDbEntity
  8
1
  100
AcDbLine
  10
46
  20
-0.825508
  30
0
  11
45.9
  21
-0.836388
  31
0
  0
LINE
  5
60
  100
AcDbEntity
  8
1
  100
AcDbLine
  10
45.9
  20
-0.836388
  30
0
  11
45.8
  21
-0.84778
  31
0
  0
LINE
  5
61
  100
AcDbEntity
  8
1
  100
AcDbLine
  10
45.8
  20
-0.84778
  30
0
  11
45.7
  21
-0.859668
  31
0
  0
LINE
  5
62
  100
AcDbEntity
  8
1
  100
AcDbLine
  10
45.7
  20
-0.859668
  30
0
  11
45.6
  21
-0.872031
  31
0
  0
LINE
  5
63
  100
AcDbEntity
  8
1
  100
AcDbLine
  10
45.6
  20
-0.872031
  30
0
  11
45.5
  21
-0.88485
  31
0
  0
LINE
  5
64
  100
AcDbEntity
  8
1
  100
AcDbLine
  10
45.5
  20
-0.88485
  30
0
  11
45.4
  21
-0.898104
  31
0
  0
LINE
  5
65
  100
AcDbEntity
  8
1
  100
AcDbLine
  10
45.4
  20
-0.898104
  30
0
  11
45.3
  21
-0.911771
  31
0
  0
LINE
  5
66
  100
AcDbEntity
  8
1
  100
AcDbLine
  10
45.3
  20
-0.911771
  30
0
  11
45.2
  21
-0.925828
  31
0
  0
LINE
  5
67
  100
AcDbEntity
  8
1
  100
AcDbLine
  10
45.2
  20
-0.925828
  30
0
  11
45.1
  21
-0.940253
  31
0
  0
LINE
  5
68
  100
AcDbEntity
  8
1
  100
AcDbLine
  10
45.1
  20
-0.940253
  30
0
  11
45
  21
-0.955021
  31
0
  0
LINE
  5
69
  100
AcDbEntity
  8
1
  100
AcDbLine
  10
45
  20
-0.955021
  30
0
  11
44.9
  21
-0.970107
  31
0
  0
LINE
  5
6a
  100
AcDbEntity
  8
1
  100
AcDbLine
  10
44.9
  20
-0.970107
  30
0
  11
44.8
  21
-0.985485
  31
0
  0
LINE
  5
6b
  100
AcDbEntity
  8
1
  100
AcDbLine
  10
44.8
  20
-0.985485
  30
0
  11
44.7
  21
-1.001129
  31
0
  0
LINE
  5
6c
  100
AcDbEntity
  8
1
  100
AcDbLine
  10
44.7
  20
-1.001129
  30
0
  11
44.6
  21
-1.017012
  31
0
  0
LINE
  5
6d
  100
AcDbEntity
  8
1
  100
AcDbLine
  10
44.6
  20
-1.017012
  30
0
  11
44.5
  21
-1.033106
  31
0
  0
LINE
  5
6e
  100
AcDbEntity
  8
1
  100
AcDbLine
  10
44.5
  20
-1.033106
  30
0
  11
44.4
  21
-1.049383
  31
0
  0
LINE
  5
6f
  100
AcDbEntity
  8
1
  100
AcDbLine
  10
44.4
  20
-1.049383
  30
0
  11
44.3
  21
-1.065814
  31
0
  0
LINE
  5
70
  100
AcDbEntity
  8
1
  100
AcDbLine
  10
44.3
  20
-1.065814
  30
0
  11
44.2
  21
-1.082371
  31
0
  0
LINE
  5
71
  100
AcDbEntity
  8
1
  100
AcDbLine
  10
44.2
  20
-1.082371
  30
0
  11
44.1
  21
-1.099023
  31
0
  0
LINE
  5
72
  100
AcDbEntity
  8
1
  100
AcDbLine
  10
44.1
  20
-1.099023
  30
0
  11
44
  21
-1.115742
  31
0
  0
LINE
  5
73
  100
AcDbEntity
  8
1
  100
AcDbLine
  10
44
  20
-1.115742
  30
0
  11
43.9
  21
-1.132497
  31
0
  0
LINE
  5
74
  100
AcDbEntity
  8
1
  100
AcDbLine
  10
43.9
  20
-1.132497
  30
0
  11
43.8
  21
-1.149259
  31
0
  0
LINE
  5
75
  100
AcDbEntity
  8
1
  100
AcDbLine
  10
43.8
  20
-1.149259
  30
0
  11
43.7
  21
-1.165996
  31
0
  0
LINE
  5
76
  100
AcDbEntity
  8
1
  100
AcDbLine
  10
43.7
  20
-1.165996
  30
0
  11
43.6
  21
-1.18268
  31
0
  0
LINE
  5
77
  100
AcDbEntity
  8
1
  100
AcDbLine
  10
43.6
  20
-1.18268
  30
0
  11
43.5
  21
-1.19928
  31
0
  0
LINE
  5
78
  100
AcDbEntity
  8
1
  100
AcDbLine
  10
43.5
  20
-1.19928
  30
0
  11
43.4
  21
-1.215766
  31
0
  0
LINE
  5
79
  100
AcDbEntity
  8
1
  100
AcDbLine
  10
43.4
  20
-1.215766
  30
0
  11
43.3
  21
-1.232109
  31
0
  0
LINE
  5
7a
  100
AcDbEntity
  8
1
  100
AcDbLine
  10
43.3
  20
-1.232109
  30
0
  11
43.2
  21
-1.24828
  31
0
  0
LINE
  5
7b
  100
AcDbEntity
  8
1
  100
AcDbLine
  10
43.2
  20
-1.24828
  30
0
  11
43.1
  21
-1.264249
  31
0
  0
LINE
  5
7c
  100
AcDbEntity
  8
1
  100
AcDbLine
  10
43.1
  20
-1.264249
  30
0
  11
43
  21
-1.27999
  31
0
  0
LINE
  5
7d
  100
AcDbEntity
  8
1
  100
AcDbLine
  10
43
  20
-1.27999
  30
0
  11
42.9
  21
-1.295473
  31
0
  0
LINE
  5
7e
  100
AcDbEntity
  8
1
  100
AcDbLine
  10
42.9
  20
-1.295473
  30
0
  11
42.8
  21
-1.310673
  31
0
  0
LINE
  5
7f
  100
AcDbEntity
  8
1
  100
AcDbLine
  10
42.8
  20
-1.310673
  30
0
  11
42.7
  21
-1.325562
  31
0
  0
LINE
  5
80
  100
AcDbEntity
  8
1
  100
AcDbLine
  10
42.7
  20
-1.325562
  30
0
  11
42.6
  21
-1.340117
  31
0
  0
LINE
  5
81
  100
AcDbEntity
  8
1
  100
AcDbLine
  10
42.6
  20
-1.340117
  30
0
  11
42.5
  21
-1.354313
  31
0
  0
LINE
  5
82
  100
AcDbEntity
  8
1
  100
AcDbLine
  10
42.5
  20
-1.354313
  30
0
  11
42.4
  21
-1.368126
  31
0
  0
LINE
  5
83
  100
AcDbEntity
  8
1
  100
AcDbLine
  10
42.4
  20
-1.368126
  30
0
  11
42.3
  21
-1.381535
  31
0
  0
LINE
  5
84
  100
AcDbEntity
  8
1
  100
AcDbLine
  10
42.3
  20
-1.381535
  30
0
  11
42.2
  21
-1.394519
  31
0
  0
LINE
  5
85
  100
AcDbEntity
  8
1
  100
AcDbLine
  10
42.2
  20
-1.394519
  30
0
  11
42.1
  21
-1.407057
  31
0
  0
LINE
  5
86
  100
AcDbEntity
  8
1
  100
AcDbLine
  10
42.1
  20
-1.407057
  30
0
  11
42
  21
-1.419133
  31
0
  0
LINE
  5
87
  100
AcDbEntity
  8
1
  100
AcDbLine
  10
42
  20
-1.419133
  30
0
  11
41.9
  21
-1.430728
  31
0
  0
LINE
  5
88
  100
AcDbEntity
  8
1
  100
AcDbLine
  10
41.9
  20
-1.430728
  30
0
  11
41.8
  21
-1.441827
  31
0
  0
LINE
  5
89
  100
AcDbEntity
  8
1
  100
AcDbLine
  10
41.8
  20
-1.441827
  30
0
  11
41.7
  21
-1.452417
  31
0
  0
LINE
  5
8a
  100
AcDbEntity
  8
1
  100
AcDbLine
  10
41.7
  20
-1.452417
  30
0
  11
41.6
  21
-1.462485
  31
0
  0
LINE
  5
8b
  100
AcDbEntity
  8
1
  100
AcDbLine
  10
41.6
  20
-1.462485
  30
0
  11
41.6
  21
-1.396261
  31
0
  0
LINE
  5
8c
  100
AcDbEntity
  8
1
  100
AcDbLine
  10
41.6
  20
-1.396261
  30
0
  11
41.7
  21
-1.404642
  31
0
  0
LINE
  5
8d
  100
AcDbEntity
  8
1
  100
AcDbLine
  10
41.7
  20
-1.404642
  30
0
  11
41.8
  21
-1.412794
  31
0
  0
LINE
  5
8e
  100
AcDbEntity
  8
1
  100
AcDbLine
  10
41.8
  20
-1.412794
  30
0
  11
41.9
  21
-1.420712
  31
0
  0
LINE
  5
8f
  100
AcDbEntity
  8
1
  100
AcDbLine
  10
41.9
  20
-1.420712
  30
0
  11
42
  21
-1.428388
  31
0
  0
LINE
  5
90
  100
AcDbEntity
  8
1
  100
AcDbLine
  10
42
  20
-1.428388
  30
0
  11
42.1
  21
-1.43582
  31
0
  0
LINE
  5
91
  100
AcDbEntity
  8
1
  100
AcDbLine
  10
42.1
  20
-1.43582
  30
0
  11
42.2
  21
-1.443003
  31
0
  0
LINE
  5
92
  100
AcDbEntity
  8
1
  100
AcDbLine
  10
42.2
  20
-1.443003
  30
0
  11
42.3
  21
-1.449932
  31
0
  0
LINE
  5
93
  100
AcDbEntity
  8
1
  100
AcDbLine
  10
42.3
  20
-1.449932
  30
0
  11
42.4
  21
-1.456607
  31
0
  0
LINE
  5
94
  100
AcDbEntity
  8
1
  100
AcDbLine
  10
42.4
  20
-1.456607
  30
0
  11
42.5
  21
-1.463024
  31
0
  0
LINE
  5
95
  100
AcDbEntity
  8
1
  100
AcDbLine
  10
42.5
  20
-1.463024
  30
0
  11
42.6
  21
-1.469182
  31
0
  0
LINE
  5
96
  100
AcDbEntity
  8
1
  100
AcDbLine
  10
42.6
  20
-1.469182
  30
0
  11
42.7
  21
-1.475081
  31
0
  0
LINE
  5
97
  100
AcDbEntity
  8
1
  100
AcDbLine
  10
42.7
  20
-1.475081
  30
0
  11
42.8
  21
-1.480719
  31
0
  0
LINE
  5
98
  100
AcDbEntity
  8
1
  100
AcDbLine
  10
42.8
  20
-1.480719
  30
0
  11
42.9
  21
-1.486099
  31
0
  0
LINE
  5
99
  100
AcDbEntity
  8
1
  100
AcDbLine
  10
42.9
  20
-1.486099
  30
0
  11
43
  21
-1.49122
  31
0
  0
LINE
  5
9a
  100
AcDbEntity
  8
1
  100
AcDbLine
  10
43
  20
-1.49122
  30
0
  11
43.1
  21
-1.496085
  31
0
  0
LINE
  5
9b
  100
AcDbEntity
  8
1
  100
AcDbLine
  10
43.1
  20
-1.496085
  30
0
  11
43.2
  21
-1.500696
  31
0
  0
LINE
  5
9c
  100
AcDbEntity
  8
1
  100
AcDbLine
  10
43.2
  20
-1.500696
  30
0
  11
43.3
  21
-1.505056
  31
0
  0
LINE
  5
9d
  100
AcDbEntity
  8
1
  100
AcDbLine
  10
43.3
  20
-1.505056
  30
0
  11
43.4
  21
-1.509168
  31
0
  0
LINE
  5
9e
  100
AcDbEntity
  8
1
  100
AcDbLine
  10
43.4
  20
-1.509168
  30
0
  11
43.5
  21
-1.513037
  31
0
  0
LINE
  5
9f
  100
AcDbEntity
  8
1
  100
AcDbLine
  10
43.5
  20
-1.513037
  30
0
  11
43.6
  21
-1.516666
  31
0
  0
LINE
  5
a0
  100
AcDbEntity
  8
1
  100
AcDbLine
  10
43.6
  20
-1.516666
  30
0
  11
43.7
  21
-1.520062
  31
0
  0
LINE
  5
a1
  100
AcDbEntity
  8
1
  100
AcDbLine
  10
43.7
  20
-1.520062
  30
0
  11
43.8
  21
-1.523228
  31
0
  0
LINE
  5
a2
  100
AcDbEntity
  8
1
  100
AcDbLine
  10
43.8
  20
-1.523228
  30
0
  11
43.9
  21
-1.526173
  31
0
  0
LINE
  5
a3
  100
AcDbEntity
  8
1
  100
AcDbLine
  10
43.9
  20
-1.526173
  30
0
  11
44
  21
-1.5289
  31
0
  0
LINE
  5
a4
  100
AcDbEntity
  8
1
  100
AcDbLine
  10
44
  20
-1.5289
  30
0
  11
44.1
  21
-1.531418
  31
0
  0
LINE
  5
a5
  100
AcDbEntity
  8
1
  100
AcDbLine
  10
44.1
  20
-1.531418
  30
0
  11
44.2
  21
-1.533733
  31
0
  0
LINE
  5
a6
  100
AcDbEntity
  8
1
  100
AcDbLine
  10
44.2
  20
-1.533733
  30
0
  11
44.3
  21
-1.535853
  31
0
  0
LINE
  5
a7
  100
AcDbEntity
  8
1
  100
AcDbLine
  10
44.3
  20
-1.535853
  30
0
  11
44.4
  21
-1.537785
  31
0
  0
LINE
  5
a8
  100
AcDbEntity
  8
1
  100
AcDbLine
  10
44.4
  20
-1.537785
  30
0
  11
44.5
  21
-1.539538
  31
0
  0
LINE
  5
a9
  100
AcDbEntity
  8
1
  100
AcDbLine
  10
44.5
  20
-1.539538
  30
0
  11
44.6
  21
-1.541118
  31
0
  0
LINE
  5
aa
  100
AcDbEntity
  8
1
  100
AcDbLine
  10
44.6
  20
-1.541118
  30
0
  11
44.7
  21
-1.542536
  31
0
  0
LINE
  5
ab
  100
AcDbEntity
  8
1
  100
AcDbLine
  10
44.7
  20
-1.542536
  30
0
  11
44.8
  21
-1.543798
  31
0
  0
LINE
  5
ac
  100
AcDbEntity
  8
1
  100
AcDbLine
  10
44.8
  20
-1.543798
  30
0
  11
44.9
  21
-1.544913
  31
0
  0
LINE
  5
ad
  100
AcDbEntity
  8
1
  100
AcDbLine
  10
44.9
  20
-1.544913
  30
0
  11
45
  21
-1.545891
  31
0
  0
LINE
  5
ae
  100
AcDbEntity
  8
1
  100
AcDbLine
  10
45
  20
-1.545891
  30
0
  11
45.1
  21
-1.54674
  31
0
  0
LINE
  5
af
  100
AcDbEntity
  8
1
  100
AcDbLine
  10
45.1
  20
-1.54674
  30
0
  11
45.2
  21
-1.547468
  31
0
  0
LINE
  5
b0
  100
AcDbEntity
  8
1
  100
AcDbLine
  10
45.2
  20
-1.547468
  30
0
  11
45.3
  21
-1.548084
  31
0
  0
LINE
  5
b1
  100
AcDbEntity
  8
1
  100
AcDbLine
  10
45.3
  20
-1.548084
  30
0
  11
45.4
  21
-1.548598
  31
0
  0
LINE
  5
b2
  100
AcDbEntity
  8
1
  100
AcDbLine
  10
45.4
  20
-1.548598
  30
0
  11
45.5
  21
-1.549016
  31
0
  0
LINE
  5
b3
  100
AcDbEntity
  8
1
  100
AcDbLine
  10
45.5
  20
-1.549016
  30
0
  11
45.6
  21
-1.549348
  31
0
  0
LINE
  5
b4
  100
AcDbEntity
  8
1
  100
AcDbLine
  10
45.6
  20
-1.549348
  30
0
  11
45.7
  21
-1.549603
  31
0
  0
LINE
  5
b5
  100
AcDbEntity
  8
1
  100
AcDbLine
  10
45.7
  20
-1.549603
  30
0
  11
45.8
  21
-1.549787
  31
0
  0
LINE
  5
b6
  100
AcDbEntity
  8
1
  100
AcDbLine
  10
45.8
  20
-1.549787
  30
0
  11
45.9
  21
-1.54991
  31
0
  0
LINE
  5
b7
  100
AcDbEntity
  8
1
  100
AcDbLine
  10
45.9
  20
-1.54991
  30
0
  11
46
  21
-1.549978
  31
0
  0
LINE
  5
b8
  100
AcDbEntity
  8
1
  100
AcDbLine
  10
46
  20
-1.549978
  30
0
  11
46.1
  21
-1.55
  31
0
  0
LINE
  5
b9
  100
AcDbEntity
  8
1
  100
AcDbLine
  10
46.1
  20
-1.55
  30
0
  11
46.101648
  21
-1.55
  31
0
  0
LINE
  5
ba
  100
AcDbEntity
  8
1
  100
AcDbLine
  10
47.7
  20
-1.55
  30
0
  11
47.7
  21
1.55
  31
0
  0
LINE
  5
bb
  100
AcDbEntity
  8
1
  100
AcDbLine
  10
46.101648
  20
1.55
  30
0
  11
46.2
  21
1.549982
  31
0
  0
LINE
  5
bc
  100
AcDbEntity
  8
1
  100
AcDbLine
  10
46.2
  20
1.549982
  30
0
  11
46.3
  21
1.549931
  31
0
  0
LINE
  5
bd
  100
AcDbEntity
  8
1
  100
AcDbLine
  10
46.3
  20
1.549931
  30
0
  11
46.4
  21
1.549854
  31
0
  0
LINE
  5
be
  100
AcDbEntity
  8
1
  100
AcDbLine
  10
46.4
  20
1.549854
  30
0
  11
46.5
  21
1.549757
  31
0
  0
LINE
  5
bf
  100
AcDbEntity
  8
1
  100
AcDbLine
  10
46.5
  20
1.549757
  30
0
  11
46.6
  21
1.549645
  31
0
  0
LINE
  5
c0
  100
AcDbEntity
  8
1
  100
AcDbLine
  10
46.6
  20
1.549645
  30
0
  11
46.7
  21
1.549524
  31
0
  0
LINE
  5
c1
  100
AcDbEntity
  8
1
  100
AcDbLine
  10
46.7
  20
1.549524
  30
0
  11
46.8
  21
1.5494
  31
0
  0
LINE
  5
c2
  100
AcDbEntity
  8
1
  100
AcDbLine
  10
46.8
  20
1.5494
  30
0
  11
46.9
  21
1.549276
  31
0
  0
LINE
  5
c3
  100
AcDbEntity
  8
1
  100
AcDbLine
  10
46.9
  20
1.549276
  30
0
  11
47
  21
1.549157
  31
0
  0
LINE
  5
c4
  100
AcDbEntity
  8
1
  100
AcDbLine
  10
47
  20
1.549157
  30
0
  11
47.1
  21
1.549046
  31
0
  0
LINE
  5
c5
  100
AcDbEntity
  8
1
  100
AcDbLine
  10
47.1
  20
1.549046
  30
0
  11
47.2
  21
1.548946
  31
0
  0
LINE
  5
c6
  100
AcDbEntity
  8
1
  100
AcDbLine
  10
47.2
  20
1.548946
  30
0
  11
47.3
  21
1.548861
  31
0
  0
LINE
  5
c7
  100
AcDbEntity
  8
1
  100
AcDbLine
  10
47.3
  20
1.548861
  30
0
  11
47.4
  21
1.548793
  31
0
  0
LINE
  5
c8
  100
AcDbEntity
  8
1
  100
AcDbLine
  10
47.4
  20
1.548793
  30
0
  11
47.5
  21
1.548743
  31
0
  0
LINE
  5
c9
  100
AcDbEntity
  8
1
  100
AcDbLine
  10
47.5
  20
1.548743
  30
0
  11
47.6
  21
1.548712
  31
0
  0
LINE
  5
ca
  100
AcDbEntity
  8
1
  100
AcDbLine
  10
47.6
  20
1.548712
  30
0
  11
47.7
  21
1.548702
  31
0
  0
LINE
  5
cb
  100
AcDbEntity
  8
1
  100
AcDbLine
  10
47.7
  20
1.548702
  30
0
  11
47.7
  21
2
  31
0
  0
LINE
  5
cc
  100
AcDbEntity
  8
1
  100
AcDbLine
  10
47.7
  20
2
  30
0
  11
47.8
  21
2
  31
0
  0
LINE
  5
cd
  100
AcDbEntity
  8
1
  100
AcDbLine
  10
47.8
  20
2
  30
0
  11
47.9
  21
2
  31
0
  0
LINE
  5
ce
  100
AcDbEntity
  8
1
  100
AcDbLine
  10
47.9
  20
2
  30
0
  11
48
  21
2
  31
0
  0
LINE
  5
cf
  100
AcDbEntity
  8
1
  100
AcDbLine
  10
48
  20
2
  30
0
  11
48.1
  21
2
  31
0
  0
LINE
  5
d0
  100
AcDbEntity
  8
1
  100
AcDbLine
  10
48.1
  20
2
  30
0
  11
48.2
  21
2
  31
0
  0
LINE
  5
d1
  100
AcDbEntity
  8
1
  100
AcDbLine
  10
48.2
  20
2
  30
0
  11
48.3
  21
2
  31
0
  0
LINE
  5
d2
  100
AcDbEntity
  8
1
  100
AcDbLine
  10
48.3
  20
2
  30
0
  11
48.4
  21
2
  31
0
  0
LINE
  5
d3
  100
AcDbEntity
  8
1
  100
AcDbLine
  10
48.4
  20
2
  30
0
  11
48.5
  21
2
  31
0
  0
LINE
  5
d4
  100
AcDbEntity
  8
1
  100
AcDbLine
  10
48.5
  20
2
  30
0
  11
48.6
  21
2
  31
0
  0
LINE
  5
d5
  100
AcDbEntity
  8
1
  100
AcDbLine
  10
48.6
  20
2
  30
0
  11
48.7
  21
2
  31
0
  0
LINE
  5
d6
  100
AcDbEntity
  8
1
  100
AcDbLine
  10
48.7
  20
2
  30
0
  11
48.8
  21
2
  31
0
  0
LINE
  5
d7
  100
AcDbEntity
  8
1
  100
AcDbLine
  10
48.8
  20
2
  30
0
  11
48.9
  21
2
  31
0
  0
LINE
  5
d8
  100
AcDbEntity
  8
1
  100
AcDbLine
  10
48.9
  20
2
  30
0
  11
49
  21
2
  31
0
  0
LINE
  5
d9
  100
AcDbEntity
  8
1
  100
AcDbLine
  10
49
  20
2
  30
0
  11
49.1
  21
2
  31
0
  0
LINE
  5
da
  100
AcDbEntity
  8
1
  100
AcDbLine
  10
49.1
  20
2
  30
0
  11
49.2
  21
2
  31
0
  0
LINE
  5
db
  100
AcDbEntity
  8
1
  100
AcDbLine
  10
49.2
  20
2
  30
0
  11
49.3
  21
2
  31
0
  0
LINE
  5
dc
  100
AcDbEntity
  8
1
  100
AcDbLine
  10
49.3
  20
2
  30
0
  11
49.4
  21
2
  31
0
  0
LINE
  5
dd
  100
AcDbEntity
  8
1
  100
AcDbLine
  10
49.4
  20
2
  30
0
  11
49.5
  21
2
  31
0
  0
LINE
  5
de
  100
AcDbEntity
  8
1
  100
AcDbLine
  10
49.5
  20
2
  30
0
  11
49.6
  21
2
  31
0
  0
LINE
  5
df
  100
AcDbEntity
  8
1
  100
AcDbLine
  10
49.6
  20
2
  30
0
  11
49.7
  21
2
  31
0
  0
LINE
  5
e0
  100
AcDbEntity
  8
1
  100
AcDbLine
  10
49.7
  20
2
  30
0
  11
49.8
  21
2
  31
0
  0
LINE
  5
e1
  100
AcDbEntity
  8
1
  100
AcDbLine
  10
49.8
  20
2
  30
0
  11
49.9
  21
2
  31
0
  0
LINE
  5
e2
  100
AcDbEntity
  8
1
  100
AcDbLine
  10
49.9
  20
2
  30
0
  11
50
  21
2
  31
0
  0
LINE
  5
e3
  100
AcDbEntity
  8
1
  100
AcDbLine
  10
50
  20
2
  30
0
  11
50
  21
-2
  31
0
  0
LINE
  5
e4
  100
AcDbEntity
  8
1
  100
AcDbLine
  10
50
  20
-2
  30
0
  11
49.9
  21
-2
  31
0
  0
LINE
  5
e5
  100
AcDbEntity
  8
1
  100
AcDbLine
  10
49.9
  20
-2
  30
0
  11
49.8
  21
-2
  31
0
  0
LINE
  5
e6
  100
AcDbEntity
  8
1
  100
AcDbLine
  10
49.8
  20
-2
  30
0
  11
49.7
  21
-2
  31
0
  0
LINE
  5
e7
  100
AcDbEntity
  8
1
  100
AcDbLine
  10
49.7
  20
-2
  30
0
  11
49.6
  21
-2
  31
0
  0
LINE
  5
e8
  100
AcDbEntity
  8
1
  100
AcDbLine
  10
49.6
  20
-2
  30
0
  11
49.5
  21
-2
  31
0
  0
LINE
  5
e9
  100
AcDbEntity
  8
1
  100
AcDbLine
  10
49.5
  20
-2
  30
0
  11
49.4
  21
-2
  31
0
  0
LINE
  5
ea
  100
AcDbEntity
  8
1
  100
AcDbLine
  10
49.4
  20
-2
  30
0
  11
49.3
  21
-2
  31
0
  0
LINE
  5
eb
  100
AcDbEntity
  8
1
  100
AcDbLine
  10
49.3
  20
-2
  30
0
  11
49.2
  21
-2
  31
0
  0
LINE
  5
ec
  100
AcDbEntity
  8
1
  100
AcDbLine
  10
49.2
  20
-2
  30
0
  11
49.1
  21
-2
  31
0
  0
LINE
  5
ed
  100
AcDbEntity
  8
1
  100
AcDbLine
  10
49.1
  20
-2
  30
0
  11
49
  21
-2
  31
0
  0
LINE
  5
ee
  100
AcDbEntity
  8
1
  100
AcDbLine
  10
49
  20
-2
  30
0
  11
48.9
  21
-2
  31
0
  0
LINE
  5
ef
  100
AcDbEntity
  8
1
  100
AcDbLine
  10
48.9
  20
-2
  30
0
  11
48.8
  21
-2
  31
0
  0
LINE
  5
f0
  100
AcDbEntity
  8
1
  100
AcDbLine
  10
48.8
  20
-2
  30
0
  11
48.7
  21
-2
  31
0
  0
LINE
  5
f1
  100
AcDbEntity
  8
1
  100
AcDbLine
  10
48.7
  20
-2
  30
0
  11
48.6
  21
-2
  31
0
  0
LINE
  5
f2
  100
AcDbEntity
  8
1
  100
AcDbLine
  10
48.6
  20
-2
  30
0
  11
48.5
  21
-2
  31
0
  0
LINE
  5
f3
  100
AcDbEntity
  8
1
  100
AcDbLine
  10
48.5
  20
-2
  30
0
  11
48.4
  21
-2
  31
0
  0
LINE
  5
f4
  100
AcDbEntity
  8
1
  100
AcDbLine
  10
48.4
  20
-2
  30
0
  11
48.3
  21
-2
  31
0
  0
LINE
  5
f5
  100
AcDbEntity
  8
1
  100
AcDbLine
  10
48.3
  20
-2
  30
0
  11
48.2
  21
-2
  31
0
  0
LINE
  5
f6
  100
AcDbEntity
  8
1
  100
AcDbLine
  10
48.2
  20
-2
  30
0
  11
48.1
  21
-2
  31
0
  0
LINE
  5
f7
  100
AcDbEntity
  8
1
  100
AcDbLine
  10
48.1
  20
-2
  30
0
  11
48
  21
-2
  31
0
  0
LINE
  5
f8
  100
AcDbEntity
  8
1
  100
AcDbLine
  10
48
  20
-2
  30
0
  11
47.9
  21
-2
  31
0
  0
LINE
  5
f9
  100
AcDbEntity
  8
1
  100
AcDbLine
  10
47.9
  20
-2
  30
0
  11
47.8
  21
-2
  31
0
  0
LINE
  5
fa
  100
AcDbEntity
  8
1
  100
AcDbLine
  10
47.8
  20
-2
  30
0
  11
47.7
  21
-2
  31
0
  0
LINE
  5
fb
  100
AcDbEntity
  8
1
  100
AcDbLine
  10
47.7
  20
-2
  30
0
  11
50
  21
-2
  31
0
  0
LINE
  5
fc
  100
AcDbEntity
  8
1
  100
AcDbLine
  10
50
  20
-2
  30
0
  11
50
  21
0
  31
0
  0
LINE
  5
fd
  100
AcDbEntity
  8
1
  100
AcDbLine
  10
50
  20
1.902113
  30
0
  11
49.9
  21
1.902113
  31
0
  0
LINE
  5
fe
  100
AcDbEntity
  8
1
  100
AcDbLine
  10
49.9
  20
1.902113
  30
0
  11
49.8
  21
1.902113
  31
0
  0
LINE
  5
ff
  100
AcDbEntity
  8
1
  100
AcDbLine
  10
49.8
  20
1.902113
  30
0
  11
49.7
  21
1.902113
  31
0
  0
LINE
  5
100
  100
AcDbEntity
  8
1
  100
AcDbLine
  10
49.7
  20
1.902113
  30
0
  11
49.6
  21
1.902113
  31
0
  0
LINE
  5
101
  100
AcDbEntity
  8
1
  100
AcDbLine
  10
49.6
  20
1.902113
  30
0
  11
49.5
  21
1.902113
  31
0
  0
LINE
  5
102
  100
AcDbEntity
  8
1
  100
AcDbLine
  10
49.5
  20
1.902113
  30
0
  11
49.4
  21
1.902113
  31
0
  0
LINE
  5
103
  100
AcDbEntity
  8
1
  100
AcDbLine
  10
49.4
  20
1.902113
  30
0
  11
49.3
  21
1.902113
  31
0
  0
LINE
  5
104
  100
AcDbEntity
  8
1
  100
AcDbLine
  10
49.3
  20
1.902113
  30
0
  11
49.2
  21
1.902113
  31
0
  0
LINE
  5
105
  100
AcDbEntity
  8
1
  100
AcDbLine
  10
49.2
  20
1.902113
  30
0
  11
49.1
  21
1.902113
  31
0
  0
LINE
  5
106
  100
AcDbEntity
  8
1
  100
AcDbLine
  10
49.1
  20
1.902113
  30
0
  11
49
  21
1.902113
  31
0
  0
LINE
  5
107
  100
AcDbEntity
  8
1
  100
AcDbLine
  10
49
  20
1.902113
  30
0
  11
48.9
  21
1.902113
  31
0
  0
LINE
  5
108
  100
AcDbEntity
  8
1
  100
AcDbLine
  10
48.9
  20
1.902113
  30
0
  11
48.8
  21
1.902113
  31
0
  0
LINE
  5
109
  100
AcDbEntity
  8
1
  100
AcDbLine
  10
48.8
  20
1.902113
  30
0
  11
48.7
  21
1.902113
  31
0
  0
LINE
  5
10a
  100
AcDbEntity
  8
1
  100
AcDbLine
  10
48.7
  20
1.902113
  30
0
  11
48.6
  21
1.902113
  31
0
  0
LINE
  5
10b
  100
AcDbEntity
  8
1
  100
AcDbLine
  10
48.6
  20
1.902113
  30
0
  11
48.5
  21
1.902113
  31
0
  0
LINE
  5
10c
  100
AcDbEntity
  8
1
  100
AcDbLine
  10
48.5
  20
1.902113
  30
0
  11
48.4
  21
1.902113
  31
0
  0
LINE
  5
10d
  100
AcDbEntity
  8
1
  100
AcDbLine
  10
48.4
  20
1.902113
  30
0
  11
48.3
  21
1.902113
  31
0
  0
LINE
  5
10e
  100
AcDbEntity
  8
1
  100
AcDbLine
  10
48.3
  20
1.902113
  30
0
  11
48.2
  21
1.902113
  31
0
  0
LINE
  5
10f
  100
AcDbEntity
  8
1
  100
AcDbLine
  10
48.2
  20
1.902113
  30
0
  11
48.1
  21
1.902113
  31
0
  0
LINE
  5
110
  100
AcDbEntity
  8
1
  100
AcDbLine
  10
48.1
  20
1.902113
  30
0
  11
48
  21
1.902113
  31
0
  0
LINE
  5
111
  100
AcDbEntity
  8
1
  100
AcDbLine
  10
48
  20
1.902113
  30
0
  11
47.9
  21
1.902113
  31
0
  0
LINE
  5
112
  100
AcDbEntity
  8
1
  100
AcDbLine
  10
47.9
  20
1.902113
  30
0
  11
47.8
  21
1.902113
  31
0
  0
LINE
  5
113
  100
AcDbEntity
  8
1
  100
AcDbLine
  10
47.8
  20
1.902113
  30
0
  11
47.7
  21
1.902113
  31
0
  0
LINE
  5
114
  100
AcDbEntity
  8
1
  100
AcDbLine
  10
47.7
  20
1.902113
  30
0
  11
47.7
  21
1.366345
  31
0
  0
LINE
  5
115
  100
AcDbEntity
  8
1
  100
AcDbLine
  10
47.7
  20
1.366345
  30
0
  11
47.6
  21
1.366166
  31
0
  0
LINE
  5
116
  100
AcDbEntity
  8
1
  100
AcDbLine
  10
47.6
  20
1.366166
  30
0
  11
47.5
  21
1.365625
  31
0
  0
LINE
  5
117
  100
AcDbEntity
  8
1
  100
AcDbLine
  10
47.5
  20
1.365625
  30
0
  11
47.4
  21
1.364724
  31
0
  0
LINE
  5
118
  100
AcDbEntity
  8
1
  100
AcDbLine
  10
47.4
  20
1.364724
  30
0
  11
47.3
  21
1.363459
  31
0
  0
LINE
  5
119
  100
AcDbEntity
  8
1
  100
AcDbLine
  10
47.3
  20
1.363459
  30
0
  11
47.2
  21
1.361828
  31
0
  0
LINE
  5
11a
  100
AcDbEntity
  8
1
  100
AcDbLine
  10
47.2
  20
1.361828
  30
0
  11
47.1
  21
1.359829
  31
0
  0
LINE
  5
11b
  100
AcDbEntity
  8
1
  100
AcDbLine
  10
47.1
  20
1.359829
  30
0
  11
47
  21
1.357456
  31
0
  0
LINE
  5
11c
  100
AcDbEntity
  8
1
  100
AcDbLine
  10
47
  20
1.357456
  30
0
  11
46.9
  21
1.354705
  31
0
  0
LINE
  5
11d
  100
AcDbEntity
  8
1
  100
AcDbLine
  10
46.9
  20
1.354705
  30
0
  11
46.8
  21
1.351571
  31
0
  0
LINE
  5
11e
  100
AcDbEntity
  8
1
  100
AcDbLine
  10
46.8
  20
1.351571
  30
0
  11
46.7
  21
1.348048
  31
0
  0
LINE
  5
11f
  100
AcDbEntity
  8
1
  100
AcDbLine
  10
46.7
  20
1.348048
  30
0
  11
46.6
  21
1.344129
  31
0
  0
LINE
  5
120
  100
AcDbEntity
  8
1
  100
AcDbLine
  10
46.6
  20
1.344129
  30
0
  11
46.5
  21
1.339808
  31
0
  0
LINE
  5
121
  100
AcDbEntity
  8
1
  100
AcDbLine
  10
46.5
  20
1.339808
  30
0
  11
46.4
  21
1.335077
  31
0
  0
LINE
  5
122
  100
AcDbEntity
  8
1
  100
AcDbLine
  10
46.4
  20
1.335077
  30
0
  11
46.3
  21
1.329927
  31
0
  0
LINE
  5
123
  100
AcDbEntity
  8
1
  100
AcDbLine
  10
46.3
  20
1.329927
  30
0
  11
46.2
  21
1.324351
  31
0
  0
LINE
  5
124
  100
AcDbEntity
  8
1
  100
AcDbLine
  10
46.2
  20
1.324351
  30
0
  11
46.1
  21
1.318339
  31
0
  0
LINE
  5
125
  100
AcDbEntity
  8
1
  100
AcDbLine
  10
46.1
  20
1.318339
  30
0
  11
46
  21
1.311883
  31
0
  0
LINE
  5
126
  100
AcDbEntity
  8
1
  100
AcDbLine
  10
46
  20
1.311883
  30
0
  11
45.9
  21
1.304973
  31
0
  0
LINE
  5
127
  100
AcDbEntity
  8
1
  100
AcDbLine
  10
45.9
  20
1.304973
  30
0
  11
45.8
  21
1.297601
  31
0
  0
LINE
  5
128
  100
AcDbEntity
  8
1
  100
AcDbLine
  10
45.8
  20
1.297601
  30
0
  11
45.7
  21
1.289756
  31
0
  0
LINE
  5
129
  100
AcDbEntity
  8
1
  100
AcDbLine
  10
45.7
  20
1.289756
  30
0
  11
45.6
  21
1.28143
  31
0
  0
LINE
  5
12a
  100
AcDbEntity
  8
1
  100
AcDbLine
  10
45.6
  20
1.28143
  30
0
  11
45.5
  21
1.272612
  31
0
  0
LINE
  5
12b
  100
AcDbEntity
  8
1
  100
AcDbLine
  10
45.5
  20
1.272612
  30
0
  11
45.4
  21
1.263293
  31
0
  0
LINE
  5
12c
  100
AcDbEntity
  8
1
  100
AcDbLine
  10
45.4
  20
1.263293
  30
0
  11
45.3
  21
1.253465
  31
0
  0
LINE
  5
12d
  100
AcDbEntity
  8
1
  100
AcDbLine
  10
45.3
  20
1.253465
  30
0
  11
45.2
  21
1.243118
  31
0
  0
LINE
  5
12e
  100
AcDbEntity
  8
1
  100
AcDbLine
  10
45.2
  20
1.243118
  30
0
  11
45.1
  21
1.232243
  31
0
  0
LINE
  5
12f
  100
AcDbEntity
  8
1
  100
AcDbLine
  10
45.1
  20
1.232243
  30
0
  11
45
  21
1.220834
  31
0
  0
LINE
  5
130
  100
AcDbEntity
  8
1
  100
AcDbLine
  10
45
  20
1.220834
  30
0
  11
44.9
  21
1.208881
  31
0
  0
LINE
  5
131
  100
AcDbEntity
  8
1
  100
AcDbLine
  10
44.9
  20
1.208881
  30
0
  11
44.8
  21
1.196378
  31
0
  0
LINE
  5
132
  100
AcDbEntity
  8
1
  100
AcDbLine
  10
44.8
  20
1.196378
  30
0
  11
44.7
  21
1.183318
  31
0
  0
LINE
  5
133
  100
AcDbEntity
  8
1
  100
AcDbLine
  10
44.7
  20
1.183318
  30
0
  11
44.6
  21
1.169695
  31
0
  0
LINE
  5
134
  100
AcDbEntity
  8
1
  100
AcDbLine
  10
44.6
  20
1.169695
  30
0
  11
44.5
  21
1.155505
  31
0
  0
LINE
  5
135
  100
AcDbEntity
  8
1
  100
AcDbLine
  10
44.5
  20
1.155505
  30
0
  11
44.4
  21
1.140744
  31
0
  0
LINE
  5
136
  100
AcDbEntity
  8
1
  100
AcDbLine
  10
44.4
  20
1.140744
  30
0
  11
44.3
  21
1.125407
  31
0
  0
LINE
  5
137
  100
AcDbEntity
  8
1
  100
AcDbLine
  10
44.3
  20
1.125407
  30
0
  11
44.2
  21
1.109492
  31
0
  0
LINE
  5
138
  100
AcDbEntity
  8
1
  100
AcDbLine
  10
44.2
  20
1.109492
  30
0
  11
44.1
  21
1.092999
  31
0
  0
LINE
  5
139
  100
AcDbEntity
  8
1
  100
AcDbLine
  10
44.1
  20
1.092999
  30
0
  11
44
  21
1.075927
  31
0
  0
LINE
  5
13a
  100
AcDbEntity
  8
1
  100
AcDbLine
  10
44
  20
1.075927
  30
0
  11
43.9
  21
1.058277
  31
0
  0
LINE
  5
13b
  100
AcDbEntity
  8
1
  100
AcDbLine
  10
43.9
  20
1.058277
  30
0
  11
43.8
  21
1.04005
  31
0
  0
LINE
  5
13c
  100
AcDbEntity
  8
1
  100
AcDbLine
  10
43.8
  20
1.04005
  30
0
  11
43.7
  21
1.02125
  31
0
  0
LINE
  5
13d
  100
AcDbEntity
  8
1
  100
AcDbLine
  10
43.7
  20
1.02125
  30
0
  11
43.6
  21
1.001882
  31
0
  0
LINE
  5
13e
  100
AcDbEntity
  8
1
  100
AcDbLine
  10
43.6
  20
1.001882
  30
0
  11
43.5
  21
0.981951
  31
0
  0
LINE
  5
13f
  100
AcDbEntity
  8
1
  100
AcDbLine
  10
43.5
  20
0.981951
  30
0
  11
43.4
  21
0.961464
  31
0
  0
LINE
  5
140
  100
AcDbEntity
  8
1
  100
AcDbLine
  10
43.4
  20
0.961464
  30
0
  11
43.3
  21
0.940429
  31
0
  0
LINE
  5
141
  100
AcDbEntity
  8
1
  100
AcDbLine
  10
43.3
  20
0.940429
  30
0
  11
43.2
  21
0.918857
  31
0
  0
LINE
  5
142
  100
AcDbEntity
  8
1
  100
AcDbLine
  10
43.2
  20
0.918857
  30
0
  11
43.1
  21
0.896757
  31
0
  0
LINE
  5
143
  100
AcDbEntity
  8
1
  100
AcDbLine
  10
43.1
  20
0.896757
  30
0
  11
43
  21
0.874143
  31
0
  0
LINE
  5
144
  100
AcDbEntity
  8
1
  100
AcDbLine
  10
43
  20
0.874143
  30
0
  11
42.9
  21
0.851029
  31
0
  0
LINE
  5
145
  100
AcDbEntity
  8
1
  100
AcDbLine
  10
42.9
  20
0.851029
  30
0
  11
42.8
  21
0.827428
  31
0
  0
LINE
  5
146
  100
AcDbEntity
  8
1
  100
AcDbLine
  10
42.8
  20
0.827428
  30
0
  11
42.7
  21
0.803358
  31
0
  0
LINE
  5
147
  100
AcDbEntity
  8
1
  100
AcDbLine
  10
42.7
  20
0.803358
  30
0
  11
42.6
  21
0.778836
  31
0
  0
LINE
  5
148
  100
AcDbEntity
  8
1
  100
AcDbLine
  10
42.6
  20
0.778836
  30
0
  11
42.5
  21
0.753881
  31
0
  0
LINE
  5
149
  100
AcDbEntity
  8
1
  100
AcDbLine
  10
42.5
  20
0.753881
  30
0
  11
42.4
  21
0.728512
  31
0
  0
LINE
  5
14a
  100
AcDbEntity
  8
1
  100
AcDbLine
  10
42.4
  20
0.728512
  30
0
  11
42.3
  21
0.702752
  31
0
  0
LINE
  5
14b
  100
AcDbEntity
  8
1
  100
AcDbLine
  10
42.3
  20
0.702752
  30
0
  11
42.2
  21
0.676622
  31
0
  0
LINE
  5
14c
  100
AcDbEntity
  8
1
  100
AcDbLine
  10
42.2
  20
0.676622
  30
0
  11
42.1
  21
0.650146
  31
0
  0
LINE
  5
14d
  100
AcDbEntity
  8
1
  100
AcDbLine
  10
42.1
  20
0.650146
  30
0
  11
42
  21
0.623348
  31
0
  0
LINE
  5
14e
  100
AcDbEntity
  8
1
  100
AcDbLine
  10
42
  20
0.623348
  30
0
  11
41.9
  21
0.596253
  31
0
  0
LINE
  5
14f
  100
AcDbEntity
  8
1
  100
AcDbLine
  10
41.9
  20
0.596253
  30
0
  11
41.8
  21
0.568889
  31
0
  0
LINE
  5
150
  100
AcDbEntity
  8
1
  100
AcDbLine
  10
41.8
  20
0.568889
  30
0
  11
41.7
  21
0.541281
  31
0
  0
LINE
  5
151
  100
AcDbEntity
  8
1
  100
AcDbLine
  10
41.7
  20
0.541281
  30
0
  11
41.6
  21
0.513457
  31
0
  0
LINE
  5
152
  100
AcDbEntity
  8
1
  100
AcDbLine
  10
41.6
  20
0.513457
  30
0
  11
41.6
  21
0.67302
  31
0
  0
LINE
  5
153
  100
AcDbEntity
  8
1
  100
AcDbLine
  10
41.6
  20
0.67302
  30
0
  11
41.7
  21
0.655348
  31
0
  0
LINE
  5
154
  100
AcDbEntity
  8
1
  100
AcDbLine
  10
41.7
  20
0.655348
  30
0
  11
41.8
  21
0.637583
  31
0
  0
LINE
  5
155
  100
AcDbEntity
  8
1
  100
AcDbLine
  10
41.8
  20
0.637583
  30
0
  11
41.9
  21
0.619741
  31
0
  0
LINE
  5
156
  100
AcDbEntity
  8
1
  100
AcDbLine
  10
41.9
  20
0.619741
  30
0
  11
42
  21
0.601836
  31
0
  0
LINE
  5
157
  100
AcDbEntity
  8
1
  100
AcDbLine
  10
42
  20
0.601836
  30
0
  11
42.1
  21
0.583884
  31
0
  0
LINE
  5
158
  100
AcDbEntity
  8
1
  100
AcDbLine
  10
42.1
  20
0.583884
  30
0
  11
42.2
  21
0.565901
  31
0
  0
LINE
  5
159
  100
AcDbEntity
  8
1
  100
AcDbLine
  10
42.2
  20
0.565901
  30
0
  11
42.3
  21
0.547901
  31
0
  0
LINE
  5
15a
  100
AcDbEntity
  8
1
  100
AcDbLine
  10
42.3
  20
0.547901
  30
0
  11
42.4
  21
0.529902
  31
0
  0
LINE
  5
15b
  100
AcDbEntity
  8
1
  100
AcDbLine
  10
42.4
  20
0.529902
  30
0
  11
42.5
  21
0.511919
  31
0
  0
LINE
  5
15c
  100
AcDbEntity
  8
1
  100
AcDbLine
  10
42.5
  20
0.511919
  30
0
  11
42.6
  21
0.493968
  31
0
  0
LINE
  5
15d
  100
AcDbEntity
  8
1
  100
AcDbLine
  10
42.6
  20
0.493968
  30
0
  11
42.7
  21
0.476064
  31
0
  0
LINE
  5
15e
  100
AcDbEntity
  8
1
  100
AcDbLine
  10
42.7
  20
0.476064
  30
0
  11
42.8
  21
0.458225
  31
0
  0
LINE
  5
15f
  100
AcDbEntity
  8
1
  100
AcDbLine
  10
42.8
  20
0.458225
  30
0
  11
42.9
  21
0.440466
  31
0
  0
LINE
  5
160
  100
AcDbEntity
  8
1
  100
AcDbLine
  10
42.9
  20
0.440466
  30
0
  11
43
  21
0.422803
  31
0
  0
LINE
  5
161
  100
AcDbEntity
  8
1
  100
AcDbLine
  10
43
  20
0.422803
  30
0
  11
43.1
  21
0.405252
  31
0
  0
LINE
  5
162
  100
AcDbEntity
  8
1
  100
AcDbLine
  10
43.1
  20
0.405252
  30
0
  11
43.2
  21
0.387829
  31
0
  0
LINE
  5
163
  100
AcDbEntity
  8
1
  100
AcDbLine
  10
43.2
  20
0.387829
  30
0
  11
43.3
  21
0.370549
  31
0
  0
LINE
  5
164
  100
AcDbEntity
  8
1
  100
AcDbLine
  10
43.3
  20
0.370549
  30
0
  11
43.4
  21
0.353428
  31
0
  0
LINE
  5
165
  100
AcDbEntity
  8
1
  100
AcDbLine
  10
43.4
  20
0.353428
  30
0
  11
43.5
  21
0.336481
  31
0
  0
LINE
  5
166
  100
AcDbEntity
  8
1
  100
AcDbLine
  10
43.5
  20
0.336481
  30
0
  11
43.6
  21
0.319724
  31
0
  0
LINE
  5
167
  100
AcDbEntity
  8
1
  100
AcDbLine
  10
43.6
  20
0.319724
  30
0
  11
43.7
  21
0.303171
  31
0
  0
LINE
  5
168
  100
AcDbEntity
  8
1
  100
AcDbLine
  10
43.7
  20
0.303171
  30
0
  11
43.8
  21
0.286836
  31
0
  0
LINE
  5
169
  100
AcDbEntity
  8
1
  100
AcDbLine
  10
43.8
  20
0.286836
  30
0
  11
43.9
  21
0.270735
  31
0
  0
LINE
  5
16a
  100
AcDbEntity
  8
1
  100
AcDbLine
  10
43.9
  20
0.270735
  30
0
  11
44
  21
0.254881
  31
0
  0
LINE
  5
16b
  100
AcDbEntity
  8
1
  100
AcDbLine
  10
44
  20
0.254881
  30
0
  11
44.1
  21
0.239288
  31
0
  0
LINE
  5
16c
  100
AcDbEntity
  8
1
  100
AcDbLine
  10
44.1
  20
0.239288
  30
0
  11
44.2
  21
0.223969
  31
0
  0
LINE
  5
16d
  100
AcDbEntity
  8
1
  100
AcDbLine
  10
44.2
  20
0.223969
  30
0
  11
44.3
  21
0.208937
  31
0
  0
LINE
  5
16e
  100
AcDbEntity
  8
1
  100
AcDbLine
  10
44.3
  20
0.208937
  30
0
  11
44.4
  21
0.194206
  31
0
  0
LINE
  5
16f
  100
AcDbEntity
  8
1
  100
AcDbLine
  10
44.4
  20
0.194206
  30
0
  11
44.5
  21
0.179787
  31
0
  0
LINE
  5
170
  100
AcDbEntity
  8
1
  100
AcDbLine
  10
44.5
  20
0.179787
  30
0
  11
44.6
  21
0.165692
  31
0
  0
LINE
  5
171
  100
AcDbEntity
  8
1
  100
AcDbLine
  10
44.6
  20
0.165692
  30
0
  11
44.7
  21
0.151933
  31
0
  0
LINE
  5
172
  100
AcDbEntity
  8
1
  100
AcDbLine
  10
44.7
  20
0.151933
  30
0
  11
44.8
  21
0.138522
  31
0
  0
LINE
  5
173
  100
AcDbEntity
  8
1
  100
AcDbLine
  10
44.8
  20
0.138522
  30
0
  11
44.9
  21
0.125468
  31
0
  0
LINE
  5
174
  100
AcDbEntity
  8
1
  100
AcDbLine
  10
44.9
  20
0.125468
  30
0
  11
45
  21
0.112783
  31
0
  0
LINE
  5
175
  100
AcDbEntity
  8
1
  100
AcDbLine
  10
45
  20
0.112783
  30
0
  11
45.1
  21
0.100477
  31
0
  0
LINE
  5
176
  100
AcDbEntity
  8
1
  100
AcDbLine
  10
45.1
  20
0.100477
  30
0
  11
45.2
  21
0.088558
  31
0
  0
LINE
  5
177
  100
AcDbEntity
  8
1
  100
AcDbLine
  10
45.2
  20
0.088558
  30
0
  11
45.3
  21
0.077036
  31
0
  0
LINE
  5
178
  100
AcDbEntity
  8
1
  100
AcDbLine
  10
45.3
  20
0.077036
  30
0
  11
45.4
  21
0.06592
  31
0
  0
LINE
  5
179
  100
AcDbEntity
  8
1
  100
AcDbLine
  10
45.4
  20
0.06592
  30
0
  11
45.5
  21
0.055219
  31
0
  0
LINE
  5
17a
  100
AcDbEntity
  8
1
  100
AcDbLine
  10
45.5
  20
0.055219
  30
0
  11
45.6
  21
0.044939
  31
0
  0
LINE
  5
17b
  100
AcDbEntity
  8
1
  100
AcDbLine
  10
45.6
  20
0.044939
  30
0
  11
45.7
  21
0.03509
  31
0
  0
LINE
  5
17c
  100
AcDbEntity
  8
1
  100
AcDbLine
  10
45.7
  20
0.03509
  30
0
  11
45.8
  21
0.025677
  31
0
  0
LINE
  5
17d
  100
AcDbEntity
  8
1
  100
AcDbLine
  10
45.8
  20
0.025677
  30
0
  11
45.9
  21
0.016708
  31
0
  0
LINE
  5
17e
  100
AcDbEntity
  8
1
  100
AcDbLine
  10
45.9
  20
0.016708
  30
0
  11
46
  21
0.008188
  31
0
  0
LINE
  5
17f
  100
AcDbEntity
  8
1
  100
AcDbLine
  10
46
  20
0.008188
  30
0
  11
46.1
  21
0.000125
  31
0
  0
LINE
  5
180
  100
AcDbEntity
  8
1
  100
AcDbLine
  10
46.1
  20
0.000125
  30
0
  11
46.2
  21
-0.007476
  31
0
  0
LINE
  5
181
  100
AcDbEntity
  8
1
  100
AcDbLine
  10
46.2
  20
-0.007476
  30
0
  11
46.3
  21
-0.014611
  31
0
  0
LINE
  5
182
  100
AcDbEntity
  8
1
  100
AcDbLine
  10
46.3
  20
-0.014611
  30
0
  11
46.4
  21
-0.021275
  31
0
  0
LINE
  5
183
  100
AcDbEntity
  8
1
  100
AcDbLine
  10
46.4
  20
-0.021275
  30
0
  11
46.5
  21
-0.027462
  31
0
  0
LINE
  5
184
  100
AcDbEntity
  8
1
  100
AcDbLine
  10
46.5
  20
-0.027462
  30
0
  11
46.6
  21
-0.033169
  31
0
  0
LINE
  5
185
  100
AcDbEntity
  8
1
  100
AcDbLine
  10
46.6
  20
-0.033169
  30
0
  11
46.7
  21
-0.038393
  31
0
  0
LINE
  5
186
  100
AcDbEntity
  8
1
  100
AcDbLine
  10
46.7
  20
-0.038393
  30
0
  11
46.8
  21
-0.043129
  31
0
  0
LINE
  5
187
  100
AcDbEntity
  8
1
  100
AcDbLine
  10
46.8
  20
-0.043129
  30
0
  11
46.9
  21
-0.047374
  31
0
  0
LINE
  5
188
  100
AcDbEntity
  8
1
  100
AcDbLine
  10
46.9
  20
-0.047374
  30
0
  11
47
  21
-0.051127
  31
0
  0
LINE
  5
189
  100
AcDbEntity
  8
1
  100
AcDbLine
  10
47
  20
-0.051127
  30
0
  11
47.1
  21
-0.054384
  31
0
  0
LINE
  5
18a
  100
AcDbEntity
  8
1
  100
AcDbLine
  10
47.1
  20
-0.054384
  30
0
  11
47.2
  21
-0.057143
  31
0
  0
LINE
  5
18b
  100
AcDbEntity
  8
1
  100
AcDbLine
  10
47.2
  20
-0.057143
  30
0
  11
47.3
  21
-0.059403
  31
0
  0
LINE
  5
18c
  100
AcDbEntity
  8
1
  100
AcDbLine
  10
47.3
  20
-0.059403
  30
0
  11
47.4
  21
-0.061162
  31
0
  0
LINE
  5
18d
  100
AcDbEntity
  8
1
  100
AcDbLine
  10
47.4
  20
-0.061162
  30
0
  11
47.5
  21
-0.062419
  31
0
  0
LINE
  5
18e
  100
AcDbEntity
  8
1
  100
AcDbLine
  10
47.5
  20
-0.062419
  30
0
  11
47.6
  21
-0.063174
  31
0
  0
LINE
  5
18f
  100
AcDbEntity
  8
1
  100
AcDbLine
  10
47.6
  20
-0.063174
  30
0
  11
47.7
  21
-0.063426
  31
0
  0
LINE
  5
190
  100
AcDbEntity
  8
1
  100
AcDbLine
  10
47.7
  20
-0.063426
  30
0
  11
47.7
  21
0
  31
0
  0
LINE
  5
191
  100
AcDbEntity
  8
1
  100
AcDbLine
  10
47.7
  20
0
  30
0
  11
47.8
  21
0
  31
0
  0
LINE
  5
192
  100
AcDbEntity
  8
1
  100
AcDbLine
  10
47.8
  20
0
  30
0
  11
47.9
  21
0
  31
0
  0
LINE
  5
193
  100
AcDbEntity
  8
1
  100
AcDbLine
  10
47.9
  20
0
  30
0
  11
48
  21
0
  31
0
  0
LINE
  5
194
  100
AcDbEntity
  8
1
  100
AcDbLine
  10
48
  20
0
  30
0
  11
48.1
  21
0
  31
0
  0
LINE
  5
195
  100
AcDbEntity
  8
1
  100
AcDbLine
  10
48.1
  20
0
  30
0
  11
48.2
  21
0
  31
0
  0
LINE
  5
196
  100
AcDbEntity
  8
1
  100
AcDbLine
  10
48.2
  20
0
  30
0
  11
48.3
  21
0
  31
0
  0
LINE
  5
197
  100
AcDbEntity
  8
1
  100
AcDbLine
  10
48.3
  20
0
  30
0
  11
48.4
  21
0
  31
0
  0
LINE
  5
198
  100
AcDbEntity
  8
1
  100
AcDbLine
  10
48.4
  20
0
  30
0
  11
48.5
  21
0
  31
0
  0
LINE
  5
199
  100
AcDbEntity
  8
1
  100
AcDbLine
  10
48.5
  20
0
  30
0
  11
48.6
  21
0
  31
0
  0
LINE
  5
19a
  100
AcDbEntity
  8
1
  100
AcDbLine
  10
48.6
  20
0
  30
0
  11
48.7
  21
0
  31
0
  0
LINE
  5
19b
  100
AcDbEntity
  8
1
  100
AcDbLine
  10
48.7
  20
0
  30
0
  11
48.8
  21
0
  31
0
  0
LINE
  5
19c
  100
AcDbEntity
  8
1
  100
AcDbLine
  10
48.8
  20
0
  30
0
  11
48.9
  21
0
  31
0
  0
LINE
  5
19d
  100
AcDbEntity
  8
1
  100
AcDbLine
  10
48.9
  20
0
  30
0
  11
49
  21
0
  31
0
  0
LINE
  5
19e
  100
AcDbEntity
  8
1
  100
AcDbLine
  10
49
  20
0
  30
0
  11
49.1
  21
0
  31
0
  0
LINE
  5
19f
  100
AcDbEntity
  8
1
  100
AcDbLine
  10
49.1
  20
0
  30
0
  11
49.2
  21
0
  31
0
  0
LINE
  5
1a0
  100
AcDbEntity
  8
1
  100
AcDbLine
  10
49.2
  20
0
  30
0
  11
49.3
  21
0
  31
0
  0
LINE
  5
1a1
  100
AcDbEntity
  8
1
  100
AcDbLine
  10
49.3
  20
0
  30
0
  11
49.4
  21
0
  31
0
  0
LINE
  5
1a2
  100
AcDbEntity
  8
1
  100
AcDbLine
  10
49.4
  20
0
  30
0
  11
49.5
  21
0
  31
0
  0
LINE
  5
1a3
  100
AcDbEntity
  8
1
  100
AcDbLine
  10
49.5
  20
0
  30
0
  11
49.6
  21
0
  31
0
  0
LINE
  5
1a4
  100
AcDbEntity
  8
1
  100
AcDbLine
  10
49.6
  20
0
  30
0
  11
49.7
  21
0
  31
0
  0
LINE
  5
1a5
  100
AcDbEntity
  8
1
  100
AcDbLine
  10
49.7
  20
0
  30
0
  11
49.8
  21
0
  31
0
  0
LINE
  5
1a6
  100
AcDbEntity
  8
1
  100
AcDbLine
  10
49.8
  20
0
  30
0
  11
49.9
  21
0
  31
0
  0
LINE
  5
1a7
  100
AcDbEntity
  8
1
  100
AcDbLine
  10
49.9
  20
0
  30
0
  11
50
  21
0
  31
0
  0
LINE
  5
1a8
  100
AcDbEntity
  8
1
  100
AcDbLine
  10
50
  20
0
  30
0
  11
50
  21
2
  31
0
  0
LINE
  5
1a9
  100
AcDbEntity
  8
1
  100
AcDbLine
  10
50
  20
2
  30
0
  11
47.7
  21
2
  31
0
  0
LINE
  5
1aa
  100
AcDbEntity
  8
1
  100
AcDbLine
  10
47.7
  20
2
  30
0
  11
47.7
  21
1.55
  31
0
  0
LINE
  5
1ab
  100
AcDbEntity
  8
1
  100
AcDbLine
  10
47.7
  20
1.55
  30
0
  11
35.5
  21
1.55
  31
0
  0
ARC
  5
1ac
  100
AcDbEntity
  8
1
  100
AcDbCircle
  10
35.5
  20
4.55
  30
0
  40
3
  100
AcDbArc
  50
229
  51
270
  0
LINE
  5
1ad
  100
AcDbEntity
  8
1
  100
AcDbLine
  10
33.531823
  20
2.285871
  30
0
  11
32.710312
  21
3
  31
0
  0
LINE
  5
1ae
  100
AcDbEntity
  8
1
  100
AcDbLine
  10
32.710312
  20
3
  30
0
  11
31.71
  21
3
  31
0
  0
LINE
  5
1af
  100
AcDbEntity
  8
1
  100
AcDbLine
  10
31.71
  20
3
  30
0
  11
31.71
  21
-3
  31
0
  0
LINE
  5
1b0
  100
AcDbEntity
  8
1
  100
AcDbLine
  10
31.71
  20
-3
  30
0
  11
32.710312
  21
-3
  31
0
  0
LINE
  5
1b1
  100
AcDbEntity
  8
1
  100
AcDbLine
  10
32.710312
  20
-3
  30
0
  11
33.531823
  21
-2.285871
  31
0
  0
LINE
  5
1b2
  100
AcDbEntity
  8
1
  100
AcDbLine
  10
33.531823
  20
-2.285871
  30
0
  11
33.531823
  21
2.285871
  31
0
  0
LINE
  5
1b3
  100
AcDbEntity
  8
1
  100
AcDbLine
  10
32.710312
  20
3
  30
0
  11
32.710312
  21
-3
  31
0
  0
LINE
  5
1b4
  100
AcDbEntity
  8
1
  100
AcDbLine
  10
32.710312
  20
-3
  30
0
  11
32.710312
  21
3
  31
0
  0
LINE
  5
1b5
  100
AcDbEntity
  8
1
  100
AcDbLine
  10
35.5
  20
1.55
  30
0
  11
35.5
  21
-1.55
  31
0
  0
ARC
  5
1b6
  100
AcDbEntity
  8
1
  100
AcDbCircle
  10
35.5
  20
-4.55
  30
0
  40
3
  100
AcDbArc
  50
90
  51
131
  0
LINE
  5
1b7
  100
AcDbEntity
  8
1
  100
AcDbLine
  10
35.5
  20
-1.55
  30
0
  11
47.7
  21
-1.55
  31
0
  0
LINE
  5
1b8
  100
AcDbEntity
  8
1
  100
AcDbLine
  10
47.7
  20
-1.55
  30
0
  11
47.7
  21
-2
  31
0
  0
LINE
  5
1b9
  100
AcDbEntity
  8
1
  100
AcDbLine
  10
47.7
  20
-2
  30
0
  11
47.7
  21
2
  31
0
  0
LINE
  5
1ba
  100
AcDbEntity
  8
SK1
  100
AcDbLine
  10
31.71
  20
3
  30
0
  11
0.4
  21
3
  31
0
  0
LINE
  5
1bb
  100
AcDbEntity
  8
SK1
  100
AcDbLine
  10
0.4
  20
3
  30
0
  11
-0
  21
2.6
  31
0
  0
LINE
  5
1bc
  100
AcDbEntity
  8
SK1
  100
AcDbLine
  10
31.71
  20
-3
  30
0
  11
0.4
  21
-3
  31
0
  0
LINE
  5
1bd
  100
AcDbEntity
  8
SK1
  100
AcDbLine
  10
0.4
  20
-3
  30
0
  11
-0
  21
-2.6
  31
0
  0
LINE
  5
1be
  100
AcDbEntity
  8
SK1
  100
AcDbLine
  10
0.4
  20
3
  30
0
  11
0.4
  21
-3
  31
0
  0
LINE
  5
1bf
  100
AcDbEntity
  8
SK1
  100
AcDbLine
  10
-0
  20
2.6
  30
0
  11
-0
  21
-2.6
  31
0
  0
LINE
  5
1c0
  100
AcDbEntity
  8
SK1
  100
AcDbLine
  10
32.7501
  20
1.40688
  30
0
  11
33.1169
  21
1.0401
  31
0
  0
LINE
  5
1c1
  100
AcDbEntity
  8
SK1
  100
AcDbLine
  10
32.2428
  20
1.66666
  30
0
  11
33.3767
  21
0.532833
  31
0
  0
LINE
  5
1c2
  100
AcDbEntity
  8
SK1
  100
AcDbLine
  10
31.9254
  20
1.73657
  30
0
  11
33.4466
  21
0.215434
  31
0
  0
LINE
  5
1c3
  100
AcDbEntity
  8
SK1
  100
AcDbLine
  10
31.71
  20
1.70452
  30
0
  11
33.4145
  21
0
  31
0
  0
LINE
  5
1c4
  100
AcDbEntity
  8
SK1
  100
AcDbLine
  10
31.71
  20
1.45703
  30
0
  11
33.167
  21
0
  31
0
  0
LINE
  5
1c5
  100
AcDbEntity
  8
SK1
  100
AcDbLine
  10
31.71
  20
1.20954
  30
0
  11
32.9195
  21
0
  31
0
  0
LINE
  5
1c6
  100
AcDbEntity
  8
SK1
  100
AcDbLine
  10
31.71
  20
0.962054
  30
0
  11
32.6721
  21
0
  31
0
  0
LINE
  5
1c7
  100
AcDbEntity
  8
SK1
  100
AcDbLine
  10
31.71
  20
0.714566
  30
0
  11
32.4246
  21
0
  31
0
  0
LINE
  5
1c8
  100
AcDbEntity
  8
SK1
  100
AcDbLine
  10
31.71
  20
0.467079
  30
0
  11
32.1771
  21
0
  31
0
  0
LINE
  5
1c9
  100
AcDbEntity
  8
SK1
  100
AcDbLine
  10
31.71
  20
0.219592
  30
0
  11
31.9296
  21
0
  31
0
  0
LINE
  5
1ca
  100
AcDbEntity
  8
SK1
  100
AcDbLine
  10
31.71
  20
1.70452
  30
0
  11
31.7541
  21
1.74861
  31
0
  0
LINE
  5
1cb
  100
AcDbEntity
  8
SK1
  100
AcDbLine
  10
31.71
  20
1.45703
  30
0
  11
31.981
  21
1.72802
  31
0
  0
LINE
  5
1cc
  100
AcDbEntity
  8
SK1
  100
AcDbLine
  10
31.71
  20
1.20954
  30
0
  11
32.1842
  21
1.6837
  31
0
  0
LINE
  5
1cd
  100
AcDbEntity
  8
SK1
  100
AcDbLine
  10
31.71
  20
0.962054
  30
0
  11
32.3688
  21
1.62082
  31
0
  0
LINE
  5
1ce
  100
AcDbEntity
  8
SK1
  100
AcDbLine
  10
31.71
  20
0.714566
  30
0
  11
32.5371
  21
1.54167
  31
0
  0
LINE
  5
1cf
  100
AcDbEntity
  8
SK1
  100
AcDbLine
  10
31.71
  20
0.467079
  30
0
  11
32.691
  21
1.44812
  31
0
  0
LINE
  5
1d0
  100
AcDbEntity
  8
SK1
  100
AcDbLine
  10
31.71
  20
0.219592
  30
0
  11
32.8326
  21
1.34216
  31
0
  0
LINE
  5
1d1
  100
AcDbEntity
  8
SK1
  100
AcDbLine
  10
31.7379
  20
0
  30
0
  11
32.9608
  21
1.22288
  31
0
  0
LINE
  5
1d2
  100
AcDbEntity
  8
SK1
  100
AcDbLine
  10
31.9854
  20
0
  30
0
  11
33.077
  21
1.09157
  31
0
  0
LINE
  5
1d3
  100
AcDbEntity
  8
SK1
  100
AcDbLine
  10
32.2329
  20
0
  30
0
  11
33.1807
  21
0.947822
  31
0
  0
LINE
  5
1d4
  100
AcDbEntity
  8
SK1
  100
AcDbLine
  10
32.4804
  20
0
  30
0
  11
33.2705
  21
0.790145
  31
0
  0
LINE
  5
1d5
  100
AcDbEntity
  8
SK1
  100
AcDbLine
  10
32.7278
  20
0
  30
0
  11
33.3464
  21
0.618517
  31
0
  0
LINE
  5
1d6
  100
AcDbEntity
  8
SK1
  100
AcDbLine
  10
32.9753
  20
0
  30
0
  11
33.406
  21
0.430696
  31
0
  0
LINE
  5
1d7
  100
AcDbEntity
  8
SK1
  100
AcDbLine
  10
33.2228
  20
0
  30
0
  11
33.4456
  21
0.222827
  31
0
  0
LINE
  5
1d8
  100
AcDbEntity
  8
SK1
  100
AcDbLine
  10
31.71
  20
0
  30
0
  11
31.71
  21
1.75
  31
0
  0
LINE
  5
1d9
  100
AcDbEntity
  8
SK1
  100
AcDbLine
  10
31.71
  20
0
  30
0
  11
33.46
  21
0
  31
0
  0
ARC
  5
1da
  100
AcDbEntity
  8
SK1
  100
AcDbCircle
  10
31.71
  20
0
  30
0
  40
1.75
  100
AcDbArc
  50
0
  51
90
  0
ARC
  5
1db
  100
AcDbEntity
  8
SK1
  100
AcDbCircle
  10
31.71
  20
0
  30
0
  40
1.75
  100
AcDbArc
  50
90
  51
180
  0
LINE
  5
1dc
  100
AcDbEntity
  8
SK1
  100
AcDbLine
  10
31.6821
  20
0
  30
0
  11
31.71
  21
-0.027896
  31
0
  0
LINE
  5
1dd
  100
AcDbEntity
  8
SK1
  100
AcDbLine
  10
31.4346
  20
0
  30
0
  11
31.71
  21
-0.275383
  31
0
  0
LINE
  5
1de
  100
AcDbEntity
  8
SK1
  100
AcDbLine
  10
31.1871
  20
0
  30
0
  11
31.71
  21
-0.522871
  31
0
  0
LINE
  5
1df
  100
AcDbEntity
  8
SK1
  100
AcDbLine
  10
30.9396
  20
0
  30
0
  11
31.71
  21
-0.770358
  31
0
  0
LINE
  5
1e0
  100
AcDbEntity
  8
SK1
  100
AcDbLine
  10
30.6922
  20
0
  30
0
  11
31.71
  21
-1.01785
  31
0
  0
LINE
  5
1e1
  100
AcDbEntity
  8
SK1
  100
AcDbLine
  10
30.4447
  20
0
  30
0
  11
31.71
  21
-1.26533
  31
0
  0
LINE
  5
1e2
  100
AcDbEntity
  8
SK1
  100
AcDbLine
  10
30.1972
  20
0
  30
0
  11
31.71
  21
-1.51282
  31
0
  0
LINE
  5
1e3
  100
AcDbEntity
  8
SK1
  100
AcDbLine
  10
29.9603
  20
-0.010642
  30
0
  11
31.6994
  21
-1.74967
  31
0
  0
LINE
  5
1e4
  100
AcDbEntity
  8
SK1
  100
AcDbLine
  10
29.9836
  20
-0.281429
  30
0
  11
31.4286
  21
-1.72637
  31
0
  0
LINE
  5
1e5
  100
AcDbEntity
  8
SK1
  100
AcDbLine
  10
30.0739
  20
-0.619147
  30
0
  11
31.0909
  21
-1.63613
  31
0
  0
LINE
  5
1e6
  100
AcDbEntity
  8
SK1
  100
AcDbLine
  10
29.9614
  20
-0.044098
  30
0
  11
30.0055
  21
0
  31
0
  0
LINE
  5
1e7
  100
AcDbEntity
  8
SK1
  100
AcDbLine
  10
29.982
  20
-0.270991
  30
0
  11
30.253
  21
0
  31
0
  0
LINE
  5
1e8
  100
AcDbEntity
  8
SK1
  100
AcDbLine
  10
30.0263
  20
-0.474162
  30
0
  11
30.5005
  21
0
  31
0
  0
LINE
  5
1e9
  100
AcDbEntity
  8
SK1
  100
AcDbLine
  10
30.0892
  20
-0.658762
  30
0
  11
30.7479
  21
0
  31
0
  0
LINE
  5
1ea
  100
AcDbEntity
  8
SK1
  100
AcDbLine
  10
30.1683
  20
-0.827105
  30
0
  11
30.9954
  21
0
  31
0
  0
LINE
  5
1eb
  100
AcDbEntity
  8
SK1
  100
AcDbLine
  10
30.2619
  20
-0.981039
  30
0
  11
31.2429
  21
0
  31
0
  0
LINE
  5
1ec
  100
AcDbEntity
  8
SK1
  100
AcDbLine
  10
30.3678
  20
-1.12257
  30
0
  11
31.4904
  21
0
  31
0
  0
LINE
  5
1ed
  100
AcDbEntity
  8
SK1
  100
AcDbLine
  10
30.4871
  20
-1.25077
  30
0
  11
31.71
  21
-0.027896
  31
0
  0
LINE
  5
1ee
  100
AcDbEntity
  8
SK1
  100
AcDbLine
  10
30.6184
  20
-1.36695
  30
0
  11
31.71
  21
-0.275383
  31
0
  0
LINE
  5
1ef
  100
AcDbEntity
  8
SK1
  100
AcDbLine
  10
30.7622
  20
-1.47069
  30
0
  11
31.71
  21
-0.522871
  31
0
  0
LINE
  5
1f0
  100
AcDbEntity
  8
SK1
  100
AcDbLine
  10
30.9199
  20
-1.5605
  30
0
  11
31.71
  21
-0.770358
  31
0
  0
LINE
  5
1f1
  100
AcDbEntity
  8
SK1
  100
AcDbLine
  10
31.0915
  20
-1.63636
  30
0
  11
31.71
  21
-1.01785
  31
0
  0
LINE
  5
1f2
  100
AcDbEntity
  8
SK1
  100
AcDbLine
  10
31.2793
  20
-1.69603
  30
0
  11
31.71
  21
-1.26533
  31
0
  0
LINE
  5
1f3
  100
AcDbEntity
  8
SK1
  100
AcDbLine
  10
31.4872
  20
-1.73565
  30
0
  11
31.71
  21
-1.51282
  31
0
  0
LINE
  5
1f4
  100
AcDbEntity
  8
SK1
  100
AcDbLine
  10
31.71
  20
0
  30
0
  11
29.96
  21
0
  31
0
  0
LINE
  5
1f5
  100
AcDbEntity
  8
SK1
  100
AcDbLine
  10
31.71
  20
-1.75
  30
0
  11
31.71
  21
0
  31
0
  0
ARC
  5
1f6
  100
AcDbEntity
  8
SK1
  100
AcDbCircle
  10
31.71
  20
0
  30
0
  40
1.75
  100
AcDbArc
  50
180
  51
270
  0
ARC
  5
1f7
  100
AcDbEntity
  8
SK1
  100
AcDbCircle
  10
31.71
  20
0
  30
0
  40
1.75
  100
AcDbArc
  50
270
  51
0
  0
LINE
  5
268
  100
AcDbEntity
  8
NOCUT
  100
AcDbLine
  10
47.7
  20
0
  30
0
  11
47.7
  21
1.55
  31
0
  0
LINE
  5
269
  100
AcDbEntity
  8
NOCUT
  100
AcDbLine
  10
47.7
  20
1.55
  30
0
  11
35.5
  21
1.55
  31
0
  0
ARC
  5
26a
  100
AcDbEntity
  8
NOCUT
  100
AcDbCircle
  10
35.5
  20
4.55
  30
0
  40
3
  100
AcDbArc
  50
229
  51
270
  0
LINE
  5
26b
  100
AcDbEntity
  8
NOCUT
  100
AcDbLine
  10
33.531823
  20
2.285871
  30
0
  11
32.710312
  21
3
  31
0
  0
LINE
  5
26c
  100
AcDbEntity
  8
NOCUT
  100
AcDbLine
  10
32.710312
  20
3
  30
0
  11
31.71
  21
3
  31
0
  0
LINE
  5
26d
  100
AcDbEntity
  8
NOCUT
  100
AcDbLine
  10
31.71
  20
3
  30
0
  11
31.71
  21
0
  31
0
  0
LINE
  5
26e
  100
AcDbEntity
  8
NOCUT
  100
AcDbLine
  10
31.71
  20
0
  30
0
  11
47.7
  21
0
  31
0
  0
LINE
  5
26f
  100
AcDbEntity
  8
CUT
  100
AcDbLine
  10
50
  20
0
  30
0
  11
50
  21
2
  31
0
  0
LINE
  5
270
  100
AcDbEntity
  8
CUT
  100
AcDbLine
  10
50
  20
2
  30
0
  11
47.7
  21
2
  31
0
  0
LINE
  5
271
  100
AcDbEntity
  8
CUT
  100
AcDbLine
  10
47.7
  20
2
  30
0
  11
47.7
  21
0
  31
0
  0
LINE
  5
272
  100
AcDbEntity
  8
CUT
  100
AcDbLine
  10
47.7
  20
0
  30
0
  11
50
  21
0
  31
0
  0
LINE
  5
273
  100
AcDbEntity
  8
4
  100
AcDbLine
  10
31.71
  20
0
  30
0
  11
50
  21
0
  31
0
  0
LINE
  5
274
  100
AcDbEntity
  8
SK4
  100
AcDbLine
  10
-1
  20
0
  30
0
  11
51
  21
0
  31
0
  0
LINE
  5
275
  100
AcDbEntity
  8
INFTOTAL
  100
AcDbLine
  10
-15.7
  20
23.583274
  30
0
  11
65.7
  21
23.583274
  31
0
  0
LINE
  5
276
  100
AcDbEntity
  8
INFTOTAL
  100
AcDbLine
  10
65.7
  20
23.583274
  30
0
  11
65.7
  21
-47.29485
  31
0
  0
LINE
  5
277
  100
AcDbEntity
  8
INFTOTAL
  100
AcDbLine
  10
65.7
  20
-47.29485
  30
0
  11
-15.7
  21
-47.29485
  31
0
  0
LINE
  5
278
  100
AcDbEntity
  8
INFTOTAL
  100
AcDbLine
  10
-15.7
  20
-47.29485
  30
0
  11
-15.7
  21
23.583274
  31
0
  0
ENDSEC
  0
SECTION
  2
OBJECTS
  0
DICTIONARY
  5
279
  330
0
100
AcDbDictionary
281
    1
  3
ACAD_GROUP
  350
27a
  0
DICTIONARY
  5
27a
102
{ACAD_REACTORS
  330
279
102
}
  330
279
100
AcDbDictionary
281
    1
  0
ENDSEC
  0
EOF
