  0
SECTION
  2
HEADER
  9
$ACADVER
  1
AC1015
  9
$DWGCODEPAGE
  3
ANSI_932
  9
$HANDSEED
  5
106AB90
  0
ENDSEC
  0
SECTION
  2
CLASSES
  0
CLASS
  1
IMAGEDEF
  2
AcDbRasterImageDef
  3
ISM
  90
0
  91
4
  280
0
  281
0
  0
CLASS
  1
IMAGE
  2
AcDbRasterImage
  3
ISM
  90
127
  91
5
  280
0
  281
1
  0
CLASS
  1
IMAGEDEF_REACTOR
  2
AcDbRasterImageDefReactor
  3
ISM
  90
1
  91
4
  280
0
  281
0
  0
ENDSEC
  0
SECTION
  2
TABLES
  0
TABLE
  2
VPORT
  5
2
  330
0
  100
AcDbSymbolTable
  70
    0
  0
ENDTAB
  0
TABLE
  2
LTYPE
  5
3
  330
0
  100
AcDbSymbolTable
  70
    4
  0
LTYPE
  5
4
  330
3
  100
AcDbSymbolTableRecord
  100
AcDbLinetypeTableRecord
  2
ByBlock
  70
    0
  3

  72
65
  73
    0
  40
0
  0
LTYPE
  5
5
  330
3
  100
AcDbSymbolTableRecord
  100
AcDbLinetypeTableRecord
  2
ByLayer
  70
    0
  3

  72
65
  73
    0
  40
0
  0
LTYPE
  5
6
  330
3
  100
AcDbSymbolTableRecord
  100
AcDbLinetypeTableRecord
  2
CONTINUOUS
  70
    0
  3
Solid Line
  72
65
  73
    0
  40
0
  0
LTYPE
  5
7
  330
3
  100
AcDbSymbolTableRecord
  100
AcDbLinetypeTableRecord
  2
DASH
  70
    0
  3
Hidden
  72
65
  73
2
  40
2.5
  49
1.5
  74
0
  49
-1
  74
0
  0
LTYPE
  5
8
  330
3
  100
AcDbSymbolTableRecord
  100
AcDbLinetypeTableRecord
  2
LONGDASHDASH
  70
    0
  3
__ . __
  72
65
  73
    4
  40
7
  49
4
  74
    0
  49
-1
  74
    0
  49
1
  74
    0
  49
-1
  74
    0
  0
ENDTAB
  0
TABLE
  2
LAYER
  5
9
  330
0
  100
AcDbSymbolTable
  70
    40
  0
LAYER
  5
a
  330
9
  100
AcDbSymbolTableRecord
  100
AcDbLayerTableRecord
  2
0
  70
    0
  62
    0
  6
CONTINUOUS
  390
0
  0
LAYER
  5
c
  330
9
  100
AcDbSymbolTableRecord
  100
AcDbLayerTableRecord
  2
1
  70
    0
  62
    4
  6
CONTINUOUS
  370
50
  390
0
  0
LAYER
  5
d
  330
9
  100
AcDbSymbolTableRecord
  100
AcDbLayerTableRecord
  2
2
  70
    0
  62
    7
  6
CONTINUOUS
  370
25
  390
0
  0
LAYER
  5
f
  330
9
  100
AcDbSymbolTableRecord
  100
AcDbLayerTableRecord
  2
4
  70
    0
  62
    2
  6
LONGDASHDASH
  370
25
  390
0
  0
LAYER
  5
13
  330
9
  100
AcDbSymbolTableRecord
  100
AcDbLayerTableRecord
  2
SK1
  70
    0
  62
    4
  6
CONTINUOUS
  370
50
  390
0
  0
LAYER
  5
14
  330
9
  100
AcDbSymbolTableRecord
  100
AcDbLayerTableRecord
  2
SK2
  70
    0
  62
    7
  6
CONTINUOUS
  370
25
  390
0
  0
LAYER
  5
16
  330
9
  100
AcDbSymbolTableRecord
  100
AcDbLayerTableRecord
  2
SK4
  70
    0
  62
    2
  6
LONGDASHDASH
  370
25
  390
0
  0
LAYER
  5
21
  330
9
  100
AcDbSymbolTableRecord
  100
AcDbLayerTableRecord
  2
NOCUT
  70
    0
  62
    7
  6
CONTINUOUS
  370
25
  390
0
  0
LAYER
  5
22
  330
9
  100
AcDbSymbolTableRecord
  100
AcDbLayerTableRecord
  2
CUT
  70
    0
  62
    1
  6
CONTINUOUS
  370
25
  390
0
  0
LAYER
  5
26
  330
9
  100
AcDbSymbolTableRecord
  100
AcDbLayerTableRecord
  2
INFTOTAL
  70
    0
  62
    9
  6
CONTINUOUS
  370
18
  390
0
  0
ENDTAB
  0
TABLE
  2
STYLE
  5
27
  330
0
  100
AcDbSymbolTable
  70
    1
  0
STYLE
  5
28
  330
27
  100
AcDbSymbolTableRecord
  100
AcDbTextStyleTableRecord
  2
Monospac821 BT
  70
    0
  40
    3.5
  41
1
  50
0
  71
0
  42
3
  3

  4

  1001
ACAD
  1000
Monospac821 BT
  1071
256
  0
ENDTAB
  0
TABLE
  2
VIEW
  5
29
  330
0
  100
AcDbSymbolTable
  70
    0
  0
ENDTAB
  0
TABLE
  2
UCS
  5
2a
  330
0
  100
AcDbSymbolTable
  70
    0
  0
ENDTAB
  0
TABLE
  2
APPID
  5
2b
  330
0
  100
AcDbSymbolTable
  70
    1
  0
APPID
  5
2c
  330
2b
  100
AcDbSymbolTableRecord
  100
AcDbRegAppTableRecord
  2
ACAD
  70
    0
  0
ENDTAB
  0
TABLE
  2
DIMSTYLE
  5
2d
  330
0
  100
AcDbSymbolTable
  70
    1
  100
AcDbDimStyleTable
  0
DIMSTYLE
  105
2e
  330
2d
  100
AcDbSymbolTableRecord
  100
AcDbDimStyleTableRecord
  2
STANDARD
  70
    0
  41
    3
  42
0.5
  44
1
  73
0
  77
1
  78
1
  140
3.5
  141
2.5
  143
0.03937
  147
0.8
  172
1
  174
1
  178
0
  179
1
  271
2
  279
1
  284
1
  340
28
  0
ENDTAB
  0
TABLE
  2
BLOCK_RECORD
  5
2f
  330
0
  100
AcDbSymbolTable
  70
    2
  0
BLOCK_RECORD
  5
30
  330
2f
  100
AcDbSymbolTableRecord
  100
AcDbBlockTableRecord
  2
*Model_Space
  0
BLOCK_RECORD
  5
31
  330
2f
  100
AcDbSymbolTableRecord
  100
AcDbBlockTableRecord
  2
*Paper_Space
  0
BLOCK_RECORD
  5
2ba
  330
2f
  100
AcDbSymbolTableRecord
  100
AcDbBlockTableRecord
  2
*D2b9
  340
0
  0
BLOCK_RECORD
  5
2c8
  330
2f
  100
AcDbSymbolTableRecord
  100
AcDbBlockTableRecord
  2
*D2c7
  340
0
  0
BLOCK_RECORD
  5
2d6
  330
2f
  100
AcDbSymbolTableRecord
  100
AcDbBlockTableRecord
  2
*D2d5
  340
0
  0
BLOCK_RECORD
  5
2e4
  330
2f
  100
AcDbSymbolTableRecord
  100
AcDbBlockTableRecord
  2
*D2e3
  340
0
  0
BLOCK_RECORD
  5
2f2
  330
2f
  100
AcDbSymbolTableRecord
  100
AcDbBlockTableRecord
  2
*D2f1
  340
0
  0
BLOCK_RECORD
  5
300
  330
2f
  100
AcDbSymbolTableRecord
  100
AcDbBlockTableRecord
  2
*D2ff
  340
0
  0
BLOCK_RECORD
  5
30e
  330
2f
  100
AcDbSymbolTableRecord
  100
AcDbBlockTableRecord
  2
*D30d
  340
0
  0
BLOCK_RECORD
  5
31c
  330
2f
  100
AcDbSymbolTableRecord
  100
AcDbBlockTableRecord
  2
*D31b
  340
0
  0
ENDTAB
  0
ENDSEC
  0
SECTION
  2
BLOCKS
  0
BLOCK
  5
32
  330
30
  100
AcDbEntity
  8
0
  100
AcDbBlockBegin
  2
*Model_Space
  70
    0
  10
0
  20
0
  30
0
  3
*Model_Space
  1

  0
ENDBLK
  5
33
  330
30
  100
AcDbEntity
  8
0
  100
AcDbBlockEnd
  0
BLOCK
  5
34
  330
31
  100
AcDbEntity
  8
0
  100
AcDbBlockBegin
  2
*Paper_Space
  70
    0
  10
0
  20
0
  30
0
  3
*Paper_Space
  1

  0
ENDBLK
  5
35
  330
31
  100
AcDbEntity
  8
0
  100
AcDbBlockEnd
  0
BLOCK
  5
2b8
  330
2ba
  100
AcDbEntity
  8
SK2
  100
AcDbBlockBegin
  2
*D2b9
  70
1
  10
0
  20
0
  30
0
  3
*D2b9
  1

  0
LINE
  5
2bb
  330
2ba
  100
AcDbEntity
  8
SK2
  100
AcDbLine
  10
0
  20
-43.59485
  30
0
  11
0
  21
4.2
  31
0
  0
LINE
  5
2bc
  330
2ba
  100
AcDbEntity
  8
SK2
  100
AcDbLine
  10
70
  20
-43.59485
  30
0
  11
70
  21
19.883274
  31
0
  0
LINE
  5
2bd
  330
2ba
  100
AcDbEntity
  8
SK2
  100
AcDbLine
  10
0
  20
-41.59485
  30
0
  11
70
  21
-41.59485
  31
0
  0
SOLID
  5
2be
  330
2ba
  100
AcDbEntity
  8
SK2
  100
AcDbTrace
  10
0
  20
-41.59485
  30
0
  11
2.478612
  21
-41.268534
  31
0
  12
2.478612
  22
-41.921165
  32
0
  13
2.478612
  23
-41.921165
  33
0
  0
SOLID
  5
2bf
  330
2ba
  100
AcDbEntity
  8
SK2
  100
AcDbTrace
  10
70
  20
-41.59485
  30
0
  11
67.521388
  21
-41.921165
  31
0
  12
67.521388
  22
-41.268534
  32
0
  13
67.521388
  23
-41.268534
  33
0
  0
MTEXT
  5
2c0
  330
2ba
  100
AcDbEntity
  8
SK2
  100
AcDbMText
  10
35
  20
-41.59485
  30
0
  11
1
  21
0
  31
0
  40
2
  41
0
  71
8
  72
1
  1
70
  0
POINT
  5
2c1
  330
2ba
  100
AcDbEntity
  8
SK2
  62
0
  100
AcDbPoint
  10
0
  20
4.2
  30
0
  0
POINT
  5
2c2
  330
2ba
  100
AcDbEntity
  8
SK2
  62
0
  100
AcDbPoint
  10
70
  20
19.883274
  30
0
  0
POINT
  5
2c3
  330
2ba
  100
AcDbEntity
  8
SK2
  62
0
  100
AcDbPoint
  10
70
  20
-41.59485
  30
0
  0
ENDBLK
  5
2c4
  330
2ba
  100
AcDbEntity
  8
SK2
  100
AcDbBlockEnd
  0
BLOCK
  5
2c6
  330
2c8
  100
AcDbEntity
  8
SK2
  100
AcDbBlockBegin
  2
*D2c7
  70
1
  10
0
  20
0
  30
0
  3
*D2c7
  1

  0
LINE
  5
2c9
  330
2c8
  100
AcDbEntity
  8
SK2
  100
AcDbLine
  10
38.755786
  20
-33.817496
  30
0
  11
38.755786
  21
5
  31
0
  0
LINE
  5
2ca
  330
2c8
  100
AcDbEntity
  8
SK2
  100
AcDbLine
  10
0
  20
-43.59485
  30
0
  11
0
  21
4.2
  31
0
  0
LINE
  5
2cb
  330
2c8
  100
AcDbEntity
  8
SK2
  100
AcDbLine
  10
38.755786
  20
-31.817496
  30
0
  11
0
  21
-31.817496
  31
0
  0
SOLID
  5
2cc
  330
2c8
  100
AcDbEntity
  8
SK2
  100
AcDbTrace
  10
38.755786
  20
-31.817496
  30
0
  11
41.234399
  21
-31.49118
  31
0
  12
41.234399
  22
-32.143811
  32
0
  13
41.234399
  23
-32.143811
  33
0
  0
SOLID
  5
2cd
  330
2c8
  100
AcDbEntity
  8
SK2
  100
AcDbTrace
  10
0
  20
-31.817496
  30
0
  11
-2.478612
  21
-32.143811
  31
0
  12
-2.478612
  22
-31.49118
  32
0
  13
-2.478612
  23
-31.49118
  33
0
  0
MTEXT
  5
2ce
  330
2c8
  100
AcDbEntity
  8
SK2
  100
AcDbMText
  10
19.377893
  20
-31.817496
  30
0
  11
1
  21
-0
  31
0
  40
2
  41
0
  71
8
  72
1
  1
38.76
  0
POINT
  5
2cf
  330
2c8
  100
AcDbEntity
  8
SK2
  62
0
  100
AcDbPoint
  10
38.755786
  20
5
  30
0
  0
POINT
  5
2d0
  330
2c8
  100
AcDbEntity
  8
SK2
  62
0
  100
AcDbPoint
  10
0
  20
4.2
  30
0
  0
POINT
  5
2d1
  330
2c8
  100
AcDbEntity
  8
SK2
  62
0
  100
AcDbPoint
  10
0
  20
-31.817496
  30
0
  0
ENDBLK
  5
2d2
  330
2c8
  100
AcDbEntity
  8
SK2
  100
AcDbBlockEnd
  0
BLOCK
  5
2d4
  330
2d6
  100
AcDbEntity
  8
SK2
  100
AcDbBlockBegin
  2
*D2d5
  70
1
  10
0
  20
0
  30
0
  3
*D2d5
  1

  0
LINE
  5
2d7
  330
2d6
  100
AcDbEntity
  8
SK2
  100
AcDbLine
  10
0.8
  20
-5
  30
0
  11
-17
  21
-5
  31
0
  0
LINE
  5
2d8
  330
2d6
  100
AcDbEntity
  8
SK2
  100
AcDbLine
  10
0.8
  20
5
  30
0
  11
-17
  21
5
  31
0
  0
LINE
  5
2d9
  330
2d6
  100
AcDbEntity
  8
SK2
  100
AcDbLine
  10
-15
  20
-5
  30
0
  11
-15
  21
5
  31
0
  0
SOLID
  5
2da
  330
2d6
  100
AcDbEntity
  8
SK2
  100
AcDbTrace
  10
-15
  20
-5
  30
0
  11
-15.326315
  21
-2.521388
  31
0
  12
-14.673685
  22
-2.521388
  32
0
  13
-14.673685
  23
-2.521388
  33
0
  0
SOLID
  5
2db
  330
2d6
  100
AcDbEntity
  8
SK2
  100
AcDbTrace
  10
-15
  20
5
  30
0
  11
-14.673685
  21
2.521388
  31
0
  12
-15.326315
  22
2.521388
  32
0
  13
-15.326315
  23
2.521388
  33
0
  0
MTEXT
  5
2dc
  330
2d6
  100
AcDbEntity
  8
SK2
  100
AcDbMText
  10
-15
  20
0.120829
  30
0
  11
0
  21
1
  31
0
  40
2
  41
0
  71
8
  72
1
  1
Ø10
  0
POINT
  5
2dd
  330
2d6
  100
AcDbEntity
  8
SK2
  62
0
  100
AcDbPoint
  10
0.8
  20
-5
  30
0
  0
POINT
  5
2de
  330
2d6
  100
AcDbEntity
  8
SK2
  62
0
  100
AcDbPoint
  10
0.8
  20
5
  30
0
  0
POINT
  5
2df
  330
2d6
  100
AcDbEntity
  8
SK2
  62
0
  100
AcDbPoint
  10
-15
  20
5
  30
0
  0
ENDBLK
  5
2e0
  330
2d6
  100
AcDbEntity
  8
SK2
  100
AcDbBlockEnd
  0
BLOCK
  5
2e2
  330
2e4
  100
AcDbEntity
  8
2
  100
AcDbBlockBegin
  2
*D2e3
  70
1
  10
0
  20
0
  30
0
  3
*D2e3
  1

  0
LINE
  5
2e5
  330
2e4
  100
AcDbEntity
  8
2
  100
AcDbLine
  10
70
  20
-3.75
  30
0
  11
82
  21
-3.75
  31
0
  0
LINE
  5
2e6
  330
2e4
  100
AcDbEntity
  8
2
  100
AcDbLine
  10
70
  20
3.75
  30
0
  11
82
  21
3.75
  31
0
  0
LINE
  5
2e7
  330
2e4
  100
AcDbEntity
  8
2
  100
AcDbLine
  10
80
  20
-3.75
  30
0
  11
80
  21
7.853855
  31
0
  0
SOLID
  5
2e8
  330
2e4
  100
AcDbEntity
  8
2
  100
AcDbTrace
  10
80
  20
-3.75
  30
0
  11
79.673685
  21
-1.271388
  31
0
  12
80.326315
  22
-1.271388
  32
0
  13
80.326315
  23
-1.271388
  33
0
  0
SOLID
  5
2e9
  330
2e4
  100
AcDbEntity
  8
2
  100
AcDbTrace
  10
80
  20
3.75
  30
0
  11
80.326315
  21
1.271388
  31
0
  12
79.673685
  22
1.271388
  32
0
  13
79.673685
  23
1.271388
  33
0
  0
MTEXT
  5
2ea
  330
2e4
  100
AcDbEntity
  8
2
  100
AcDbMText
  10
80
  20
7.974684
  30
0
  11
0
  21
1
  31
0
  40
2
  41
0
  71
8
  72
1
  1
Ø7.5
  0
POINT
  5
2eb
  330
2e4
  100
AcDbEntity
  8
2
  62
0
  100
AcDbPoint
  10
70
  20
-3.75
  30
0
  0
POINT
  5
2ec
  330
2e4
  100
AcDbEntity
  8
2
  62
0
  100
AcDbPoint
  10
70
  20
3.75
  30
0
  0
POINT
  5
2ed
  330
2e4
  100
AcDbEntity
  8
2
  62
0
  100
AcDbPoint
  10
80
  20
7.853855
  30
0
  0
ENDBLK
  5
2ee
  330
2e4
  100
AcDbEntity
  8
2
  100
AcDbBlockEnd
  0
BLOCK
  5
2f0
  330
2f2
  100
AcDbEntity
  8
2
  100
AcDbBlockBegin
  2
*D2f1
  70
1
  10
0
  20
0
  30
0
  3
*D2f1
  1

  0
LINE
  5
2f3
  330
2f2
  100
AcDbEntity
  8
2
  100
AcDbLine
  10
65.7
  20
-2.92
  30
0
  11
61.206644
  21
-2.92
  31
0
  0
LINE
  5
2f4
  330
2f2
  100
AcDbEntity
  8
2
  100
AcDbLine
  10
65.7
  20
2.92
  30
0
  11
61.206644
  21
2.92
  31
0
  0
LINE
  5
2f5
  330
2f2
  100
AcDbEntity
  8
2
  100
AcDbLine
  10
63.206644
  20
-2.92
  30
0
  11
63.206644
  21
15.103567
  31
0
  0
SOLID
  5
2f6
  330
2f2
  100
AcDbEntity
  8
2
  100
AcDbTrace
  10
63.206644
  20
-2.92
  30
0
  11
62.880328
  21
-0.441388
  31
0
  12
63.532959
  22
-0.441388
  32
0
  13
63.532959
  23
-0.441388
  33
0
  0
SOLID
  5
2f7
  330
2f2
  100
AcDbEntity
  8
2
  100
AcDbTrace
  10
63.206644
  20
2.92
  30
0
  11
63.532959
  21
0.441388
  31
0
  12
62.880328
  22
0.441388
  32
0
  13
62.880328
  23
0.441388
  33
0
  0
MTEXT
  5
2f8
  330
2f2
  100
AcDbEntity
  8
2
  100
AcDbMText
  10
63.206644
  20
5.316456
  30
0
  11
0
  21
1
  31
0
  40
2
  41
0
  71
8
  72
1
  1
Ø5.84
  0
POINT
  5
2f9
  330
2f2
  100
AcDbEntity
  8
2
  62
0
  100
AcDbPoint
  10
65.7
  20
-2.92
  30
0
  0
POINT
  5
2fa
  330
2f2
  100
AcDbEntity
  8
2
  62
0
  100
AcDbPoint
  10
65.7
  20
2.92
  30
0
  0
POINT
  5
2fb
  330
2f2
  100
AcDbEntity
  8
2
  62
0
  100
AcDbPoint
  10
63.206644
  20
15.103567
  30
0
  0
ENDBLK
  5
2fc
  330
2f2
  100
AcDbEntity
  8
2
  100
AcDbBlockEnd
  0
BLOCK
  5
2fe
  330
300
  100
AcDbEntity
  8
2
  100
AcDbBlockBegin
  2
*D2ff
  70
1
  10
0
  20
0
  30
0
  3
*D2ff
  1

  0
LINE
  5
301
  330
300
  100
AcDbEntity
  8
2
  100
AcDbLine
  10
65.7
  20
-25.322624
  30
0
  11
65.7
  21
2.92
  31
0
  0
LINE
  5
302
  330
300
  100
AcDbEntity
  8
2
  100
AcDbLine
  10
41.25
  20
-25.322624
  30
0
  11
41.25
  21
2.92
  31
0
  0
LINE
  5
303
  330
300
  100
AcDbEntity
  8
2
  100
AcDbLine
  10
65.7
  20
-23.322624
  30
0
  11
41.25
  21
-23.322624
  31
0
  0
SOLID
  5
304
  330
300
  100
AcDbEntity
  8
2
  100
AcDbTrace
  10
65.7
  20
-23.322624
  30
0
  11
68.178612
  21
-22.996309
  31
0
  12
68.178612
  22
-23.64894
  32
0
  13
68.178612
  23
-23.64894
  33
0
  0
SOLID
  5
305
  330
300
  100
AcDbEntity
  8
2
  100
AcDbTrace
  10
41.25
  20
-23.322624
  30
0
  11
38.771388
  21
-23.64894
  31
0
  12
38.771388
  22
-22.996309
  32
0
  13
38.771388
  23
-22.996309
  33
0
  0
MTEXT
  5
306
  330
300
  100
AcDbEntity
  8
2
  100
AcDbMText
  10
54.172325
  20
-23.322624
  30
0
  11
1
  21
-0
  31
0
  40
2
  41
0
  71
8
  72
1
  1
24.45
  0
POINT
  5
307
  330
300
  100
AcDbEntity
  8
2
  62
0
  100
AcDbPoint
  10
65.7
  20
2.92
  30
0
  0
POINT
  5
308
  330
300
  100
AcDbEntity
  8
2
  62
0
  100
AcDbPoint
  10
41.25
  20
2.92
  30
0
  0
POINT
  5
309
  330
300
  100
AcDbEntity
  8
2
  62
0
  100
AcDbPoint
  10
41.25
  20
-23.322624
  30
0
  0
ENDBLK
  5
30a
  330
300
  100
AcDbEntity
  8
2
  100
AcDbBlockEnd
  0
BLOCK
  5
30c
  330
30e
  100
AcDbEntity
  8
2
  100
AcDbBlockBegin
  2
*D30d
  70
1
  10
0
  20
0
  30
0
  3
*D30d
  1

  0
LINE
  5
30f
  330
30e
  100
AcDbEntity
  8
2
  100
AcDbLine
  10
65.7
  20
-2.92
  30
0
  11
65.7
  21
-25.273643
  31
0
  0
LINE
  5
310
  330
30e
  100
AcDbEntity
  8
2
  100
AcDbLine
  10
70
  20
-43.59485
  30
0
  11
70
  21
19.883274
  31
0
  0
LINE
  5
311
  330
30e
  100
AcDbEntity
  8
2
  100
AcDbLine
  10
65.7
  20
-23.273643
  30
0
  11
75.155351
  21
-23.273643
  31
0
  0
SOLID
  5
312
  330
30e
  100
AcDbEntity
  8
2
  100
AcDbTrace
  10
65.7
  20
-23.273643
  30
0
  11
68.178612
  21
-22.947327
  31
0
  12
68.178612
  22
-23.599958
  32
0
  13
68.178612
  23
-23.599958
  33
0
  0
SOLID
  5
313
  330
30e
  100
AcDbEntity
  8
2
  100
AcDbTrace
  10
70
  20
-23.273643
  30
0
  11
67.521388
  21
-23.599958
  31
0
  12
67.521388
  22
-22.947327
  32
0
  13
67.521388
  23
-22.947327
  33
0
  0
MTEXT
  5
314
  330
30e
  100
AcDbEntity
  8
2
  100
AcDbMText
  10
75.317319
  20
-23.273643
  30
0
  11
1
  21
-0
  31
0
  40
2
  41
0
  71
8
  72
1
  1
4.3
  0
POINT
  5
315
  330
30e
  100
AcDbEntity
  8
2
  62
0
  100
AcDbPoint
  10
65.7
  20
-2.92
  30
0
  0
POINT
  5
316
  330
30e
  100
AcDbEntity
  8
2
  62
0
  100
AcDbPoint
  10
70
  20
19.883274
  30
0
  0
POINT
  5
317
  330
30e
  100
AcDbEntity
  8
2
  62
0
  100
AcDbPoint
  10
75.155351
  20
-23.273643
  30
0
  0
ENDBLK
  5
318
  330
30e
  100
AcDbEntity
  8
2
  100
AcDbBlockEnd
  0
BLOCK
  5
31a
  330
31c
  100
AcDbEntity
  8
2
  100
AcDbBlockBegin
  2
*D31b
  70
1
  10
0
  20
0
  30
0
  3
*D31b
  1

  0
LINE
  5
31d
  330
31c
  100
AcDbEntity
  8
2
  100
AcDbLine
  10
37.76
  20
19.883274
  30
0
  11
37.76
  21
-5
  31
0
  0
LINE
  5
31e
  330
31c
  100
AcDbEntity
  8
2
  100
AcDbLine
  10
70
  20
-43.59485
  30
0
  11
70
  21
19.883274
  31
0
  0
LINE
  5
31f
  330
31c
  100
AcDbEntity
  8
2
  100
AcDbLine
  10
37.76
  20
17.883274
  30
0
  11
70
  21
17.883274
  31
0
  0
SOLID
  5
320
  330
31c
  100
AcDbEntity
  8
2
  100
AcDbTrace
  10
37.76
  20
17.883274
  30
0
  11
40.238612
  21
18.209589
  31
0
  12
40.238612
  22
17.556958
  32
0
  13
40.238612
  23
17.556958
  33
0
  0
SOLID
  5
321
  330
31c
  100
AcDbEntity
  8
2
  100
AcDbTrace
  10
70
  20
17.883274
  30
0
  11
67.521388
  21
17.556958
  31
0
  12
67.521388
  22
18.209589
  32
0
  13
67.521388
  23
18.209589
  33
0
  0
MTEXT
  5
322
  330
31c
  100
AcDbEntity
  8
2
  100
AcDbMText
  10
54.293153
  20
17.883274
  30
0
  11
1
  21
0
  31
0
  40
2
  41
0
  71
8
  72
1
  1
32.24
  0
POINT
  5
323
  330
31c
  100
AcDbEntity
  8
2
  62
0
  100
AcDbPoint
  10
37.76
  20
-5
  30
0
  0
POINT
  5
324
  330
31c
  100
AcDbEntity
  8
2
  62
0
  100
AcDbPoint
  10
70
  20
-43.59485
  30
0
  0
POINT
  5
325
  330
31c
  100
AcDbEntity
  8
2
  62
0
  100
AcDbPoint
  10
70
  20
17.883274
  30
0
  0
ENDBLK
  5
326
  330
31c
  100
AcDbEntity
  8
2
  100
AcDbBlockEnd
  0
ENDSEC
  0
SECTION
  2
ENTITIES
  0
DIMENSION
  5
2c5
  100
AcDbEntity
  8
SK2
  100
AcDbDimension
  2
*D2b9
  10
70
  20
-41.59485
  30
0
  11
35
  21
-41.59485
  31
0
  70
160
  1
<>
  71
5
  3
STANDARD
  42
70
  100
AcDbAlignedDimension
  13
0
  23
4.2
  33
0
  14
70
  24
19.883274
  34
0
  50
0
  100
AcDbRotatedDimension
  0
DIMENSION
  5
2d3
  100
AcDbEntity
  8
SK2
  100
AcDbDimension
  2
*D2c7
  10
0
  20
-31.817496
  30
0
  11
19.377893
  21
-31.817496
  31
0
  70
160
  1
<>
  71
5
  3
STANDARD
  42
38.755786
  100
AcDbAlignedDimension
  13
38.755786
  23
5
  33
0
  14
0
  24
4.2
  34
0
  50
0
  100
AcDbRotatedDimension
  0
DIMENSION
  5
2e1
  100
AcDbEntity
  8
SK2
  100
AcDbDimension
  2
*D2d5
  10
-15
  20
5
  30
0
  11
-15
  21
0.120829
  31
0
  70
160
  1
%%c<>
  71
5
  3
STANDARD
  42
10
  100
AcDbAlignedDimension
  13
0.8
  23
-5
  33
0
  14
0.8
  24
5
  34
0
  50
-90
  100
AcDbRotatedDimension
  0
DIMENSION
  5
2ef
  100
AcDbEntity
  8
2
  100
AcDbDimension
  2
*D2e3
  10
80
  20
7.853855
  30
0
  11
80
  21
7.974684
  31
0
  70
160
  1
%%c<>
  71
5
  3
STANDARD
  42
7.5
  100
AcDbAlignedDimension
  13
70
  23
-3.75
  33
0
  14
70
  24
3.75
  34
0
  50
-90
  100
AcDbRotatedDimension
  0
DIMENSION
  5
2fd
  100
AcDbEntity
  8
2
  100
AcDbDimension
  2
*D2f1
  10
63.206644
  20
15.103567
  30
0
  11
63.206644
  21
5.316456
  31
0
  70
160
  1
%%c<>
  71
5
  3
STANDARD
  42
5.84
  100
AcDbAlignedDimension
  13
65.7
  23
-2.92
  33
0
  14
65.7
  24
2.92
  34
0
  50
-90
  100
AcDbRotatedDimension
  0
DIMENSION
  5
30b
  100
AcDbEntity
  8
2
  100
AcDbDimension
  2
*D2ff
  10
41.25
  20
-23.322624
  30
0
  11
54.172325
  21
-23.322624
  31
0
  70
160
  1
<>
  71
5
  3
STANDARD
  42
24.45
  100
AcDbAlignedDimension
  13
65.7
  23
2.92
  33
0
  14
41.25
  24
2.92
  34
0
  50
0
  100
AcDbRotatedDimension
  0
DIMENSION
  5
319
  100
AcDbEntity
  8
2
  100
AcDbDimension
  2
*D30d
  10
75.155351
  20
-23.273643
  30
0
  11
75.317319
  21
-23.273643
  31
0
  70
160
  1
<>
  71
5
  3
STANDARD
  42
4.3
  100
AcDbAlignedDimension
  13
65.7
  23
-2.92
  33
0
  14
70
  24
19.883274
  34
0
  50
0
  100
AcDbRotatedDimension
  0
DIMENSION
  5
327
  100
AcDbEntity
  8
2
  100
AcDbDimension
  2
*D31b
  10
70
  20
17.883274
  30
0
  11
54.293153
  21
17.883274
  31
0
  70
160
  1
<>
  71
5
  3
STANDARD
  42
32.24
  100
AcDbAlignedDimension
  13
37.76
  23
-5
  33
0
  14
70
  24
-43.59485
  34
0
  50
0
  100
AcDbRotatedDimension
  0
LINE
  5
36
  100
AcDbEntity
  8
1
  100
AcDbLine
  10
70
  20
3.566462
  30
0
  11
69.9
  21
3.566462
  31
0
  0
LINE
  5
37
  100
AcDbEntity
  8
1
  100
AcDbLine
  10
69.9
  20
3.566462
  30
0
  11
69.8
  21
3.566462
  31
0
  0
LINE
  5
38
  100
AcDbEntity
  8
1
  100
AcDbLine
  10
69.8
  20
3.566462
  30
0
  11
69.7
  21
3.566462
  31
0
  0
LINE
  5
39
  100
AcDbEntity
  8
1
  100
AcDbLine
  10
69.7
  20
3.566462
  30
0
  11
69.6
  21
3.566462
  31
0
  0
LINE
  5
3a
  100
AcDbEntity
  8
1
  100
AcDbLine
  10
69.6
  20
3.566462
  30
0
  11
69.5
  21
3.566462
  31
0
  0
LINE
  5
3b
  100
AcDbEntity
  8
1
  100
AcDbLine
  10
69.5
  20
3.566462
  30
0
  11
69.4
  21
3.566462
  31
0
  0
LINE
  5
3c
  100
AcDbEntity
  8
1
  100
AcDbLine
  10
69.4
  20
3.566462
  30
0
  11
69.3
  21
3.566462
  31
0
  0
LINE
  5
3d
  100
AcDbEntity
  8
1
  100
AcDbLine
  10
69.3
  20
3.566462
  30
0
  11
69.2
  21
3.566462
  31
0
  0
LINE
  5
3e
  100
AcDbEntity
  8
1
  100
AcDbLine
  10
69.2
  20
3.566462
  30
0
  11
69.1
  21
3.566462
  31
0
  0
LINE
  5
3f
  100
AcDbEntity
  8
1
  100
AcDbLine
  10
69.1
  20
3.566462
  30
0
  11
69
  21
3.566462
  31
0
  0
LINE
  5
40
  100
AcDbEntity
  8
1
  100
AcDbLine
  10
69
  20
3.566462
  30
0
  11
68.9
  21
3.566462
  31
0
  0
LINE
  5
41
  100
AcDbEntity
  8
1
  100
AcDbLine
  10
68.9
  20
3.566462
  30
0
  11
68.8
  21
3.566462
  31
0
  0
LINE
  5
42
  100
AcDbEntity
  8
1
  100
AcDbLine
  10
68.8
  20
3.566462
  30
0
  11
68.7
  21
3.566462
  31
0
  0
LINE
  5
43
  100
AcDbEntity
  8
1
  100
AcDbLine
  10
68.7
  20
3.566462
  30
0
  11
68.6
  21
3.566462
  31
0
  0
LINE
  5
44
  100
AcDbEntity
  8
1
  100
AcDbLine
  10
68.6
  20
3.566462
  30
0
  11
68.5
  21
3.566462
  31
0
  0
LINE
  5
45
  100
AcDbEntity
  8
1
  100
AcDbLine
  10
68.5
  20
3.566462
  30
0
  11
68.4
  21
3.566462
  31
0
  0
LINE
  5
46
  100
AcDbEntity
  8
1
  100
AcDbLine
  10
68.4
  20
3.566462
  30
0
  11
68.3
  21
3.566462
  31
0
  0
LINE
  5
47
  100
AcDbEntity
  8
1
  100
AcDbLine
  10
68.3
  20
3.566462
  30
0
  11
68.2
  21
3.566462
  31
0
  0
LINE
  5
48
  100
AcDbEntity
  8
1
  100
AcDbLine
  10
68.2
  20
3.566462
  30
0
  11
68.1
  21
3.566462
  31
0
  0
LINE
  5
49
  100
AcDbEntity
  8
1
  100
AcDbLine
  10
68.1
  20
3.566462
  30
0
  11
68
  21
3.566462
  31
0
  0
LINE
  5
4a
  100
AcDbEntity
  8
1
  100
AcDbLine
  10
68
  20
3.566462
  30
0
  11
67.9
  21
3.566462
  31
0
  0
LINE
  5
4b
  100
AcDbEntity
  8
1
  100
AcDbLine
  10
67.9
  20
3.566462
  30
0
  11
67.8
  21
3.566462
  31
0
  0
LINE
  5
4c
  100
AcDbEntity
  8
1
  100
AcDbLine
  10
67.8
  20
3.566462
  30
0
  11
67.7
  21
3.566462
  31
0
  0
LINE
  5
4d
  100
AcDbEntity
  8
1
  100
AcDbLine
  10
67.7
  20
3.566462
  30
0
  11
67.6
  21
3.566462
  31
0
  0
LINE
  5
4e
  100
AcDbEntity
  8
1
  100
AcDbLine
  10
67.6
  20
3.566462
  30
0
  11
67.5
  21
3.566462
  31
0
  0
LINE
  5
4f
  100
AcDbEntity
  8
1
  100
AcDbLine
  10
67.5
  20
3.566462
  30
0
  11
67.4
  21
3.566462
  31
0
  0
LINE
  5
50
  100
AcDbEntity
  8
1
  100
AcDbLine
  10
67.4
  20
3.566462
  30
0
  11
67.3
  21
3.566462
  31
0
  0
LINE
  5
51
  100
AcDbEntity
  8
1
  100
AcDbLine
  10
67.3
  20
3.566462
  30
0
  11
67.2
  21
3.566462
  31
0
  0
LINE
  5
52
  100
AcDbEntity
  8
1
  100
AcDbLine
  10
67.2
  20
3.566462
  30
0
  11
67.1
  21
3.566462
  31
0
  0
LINE
  5
53
  100
AcDbEntity
  8
1
  100
AcDbLine
  10
67.1
  20
3.566462
  30
0
  11
67
  21
3.566462
  31
0
  0
LINE
  5
54
  100
AcDbEntity
  8
1
  100
AcDbLine
  10
67
  20
3.566462
  30
0
  11
66.9
  21
3.566462
  31
0
  0
LINE
  5
55
  100
AcDbEntity
  8
1
  100
AcDbLine
  10
66.9
  20
3.566462
  30
0
  11
66.8
  21
3.566462
  31
0
  0
LINE
  5
56
  100
AcDbEntity
  8
1
  100
AcDbLine
  10
66.8
  20
3.566462
  30
0
  11
66.7
  21
3.566462
  31
0
  0
LINE
  5
57
  100
AcDbEntity
  8
1
  100
AcDbLine
  10
66.7
  20
3.566462
  30
0
  11
66.6
  21
3.566462
  31
0
  0
LINE
  5
58
  100
AcDbEntity
  8
1
  100
AcDbLine
  10
66.6
  20
3.566462
  30
0
  11
66.5
  21
3.566462
  31
0
  0
LINE
  5
59
  100
AcDbEntity
  8
1
  100
AcDbLine
  10
66.5
  20
3.566462
  30
0
  11
66.4
  21
3.566462
  31
0
  0
LINE
  5
5a
  100
AcDbEntity
  8
1
  100
AcDbLine
  10
66.4
  20
3.566462
  30
0
  11
66.3
  21
3.566462
  31
0
  0
LINE
  5
5b
  100
AcDbEntity
  8
1
  100
AcDbLine
  10
66.3
  20
3.566462
  30
0
  11
66.2
  21
3.566462
  31
0
  0
LINE
  5
5c
  100
AcDbEntity
  8
1
  100
AcDbLine
  10
66.2
  20
3.566462
  30
0
  11
66.1
  21
3.566462
  31
0
  0
LINE
  5
5d
  100
AcDbEntity
  8
1
  100
AcDbLine
  10
66.1
  20
3.566462
  30
0
  11
66
  21
3.566462
  31
0
  0
LINE
  5
5e
  100
AcDbEntity
  8
1
  100
AcDbLine
  10
66
  20
3.566462
  30
0
  11
65.9
  21
3.566462
  31
0
  0
LINE
  5
5f
  100
AcDbEntity
  8
1
  100
AcDbLine
  10
65.9
  20
3.566462
  30
0
  11
65.8
  21
3.566462
  31
0
  0
LINE
  5
60
  100
AcDbEntity
  8
1
  100
AcDbLine
  10
65.8
  20
3.566462
  30
0
  11
65.7
  21
3.566462
  31
0
  0
LINE
  5
61
  100
AcDbEntity
  8
1
  100
AcDbLine
  10
65.7
  20
3.566462
  30
0
  11
65.7
  21
2.579469
  31
0
  0
LINE
  5
62
  100
AcDbEntity
  8
1
  100
AcDbLine
  10
65.7
  20
2.579469
  30
0
  11
65.6
  21
2.579292
  31
0
  0
LINE
  5
63
  100
AcDbEntity
  8
1
  100
AcDbLine
  10
65.6
  20
2.579292
  30
0
  11
65.5
  21
2.578759
  31
0
  0
LINE
  5
64
  100
AcDbEntity
  8
1
  100
AcDbLine
  10
65.5
  20
2.578759
  30
0
  11
65.4
  21
2.577871
  31
0
  0
LINE
  5
65
  100
AcDbEntity
  8
1
  100
AcDbLine
  10
65.4
  20
2.577871
  30
0
  11
65.3
  21
2.576627
  31
0
  0
LINE
  5
66
  100
AcDbEntity
  8
1
  100
AcDbLine
  10
65.3
  20
2.576627
  30
0
  11
65.2
  21
2.575024
  31
0
  0
LINE
  5
67
  100
AcDbEntity
  8
1
  100
AcDbLine
  10
65.2
  20
2.575024
  30
0
  11
65.1
  21
2.573061
  31
0
  0
LINE
  5
68
  100
AcDbEntity
  8
1
  100
AcDbLine
  10
65.1
  20
2.573061
  30
0
  11
65
  21
2.570737
  31
0
  0
LINE
  5
69
  100
AcDbEntity
  8
1
  100
AcDbLine
  10
65
  20
2.570737
  30
0
  11
64.9
  21
2.568048
  31
0
  0
LINE
  5
6a
  100
AcDbEntity
  8
1
  100
AcDbLine
  10
64.9
  20
2.568048
  30
0
  11
64.8
  21
2.564992
  31
0
  0
LINE
  5
6b
  100
AcDbEntity
  8
1
  100
AcDbLine
  10
64.8
  20
2.564992
  30
0
  11
64.7
  21
2.561566
  31
0
  0
LINE
  5
6c
  100
AcDbEntity
  8
1
  100
AcDbLine
  10
64.7
  20
2.561566
  30
0
  11
64.6
  21
2.557765
  31
0
  0
LINE
  5
6d
  100
AcDbEntity
  8
1
  100
AcDbLine
  10
64.6
  20
2.557765
  30
0
  11
64.5
  21
2.553586
  31
0
  0
LINE
  5
6e
  100
AcDbEntity
  8
1
  100
AcDbLine
  10
64.5
  20
2.553586
  30
0
  11
64.4
  21
2.549025
  31
0
  0
LINE
  5
6f
  100
AcDbEntity
  8
1
  100
AcDbLine
  10
64.4
  20
2.549025
  30
0
  11
64.3
  21
2.544078
  31
0
  0
LINE
  5
70
  100
AcDbEntity
  8
1
  100
AcDbLine
  10
64.3
  20
2.544078
  30
0
  11
64.2
  21
2.538738
  31
0
  0
LINE
  5
71
  100
AcDbEntity
  8
1
  100
AcDbLine
  10
64.2
  20
2.538738
  30
0
  11
64.1
  21
2.533002
  31
0
  0
LINE
  5
72
  100
AcDbEntity
  8
1
  100
AcDbLine
  10
64.1
  20
2.533002
  30
0
  11
64
  21
2.526863
  31
0
  0
LINE
  5
73
  100
AcDbEntity
  8
1
  100
AcDbLine
  10
64
  20
2.526863
  30
0
  11
63.9
  21
2.520317
  31
0
  0
LINE
  5
74
  100
AcDbEntity
  8
1
  100
AcDbLine
  10
63.9
  20
2.520317
  30
0
  11
63.8
  21
2.513356
  31
0
  0
LINE
  5
75
  100
AcDbEntity
  8
1
  100
AcDbLine
  10
63.8
  20
2.513356
  30
0
  11
63.7
  21
2.505976
  31
0
  0
LINE
  5
76
  100
AcDbEntity
  8
1
  100
AcDbLine
  10
63.7
  20
2.505976
  30
0
  11
63.6
  21
2.49817
  31
0
  0
LINE
  5
77
  100
AcDbEntity
  8
1
  100
AcDbLine
  10
63.6
  20
2.49817
  30
0
  11
63.5
  21
2.489932
  31
0
  0
LINE
  5
78
  100
AcDbEntity
  8
1
  100
AcDbLine
  10
63.5
  20
2.489932
  30
0
  11
63.4
  21
2.481254
  31
0
  0
LINE
  5
79
  100
AcDbEntity
  8
1
  100
AcDbLine
  10
63.4
  20
2.481254
  30
0
  11
63.3
  21
2.472131
  31
0
  0
LINE
  5
7a
  100
AcDbEntity
  8
1
  100
AcDbLine
  10
63.3
  20
2.472131
  30
0
  11
63.2
  21
2.462556
  31
0
  0
LINE
  5
7b
  100
AcDbEntity
  8
1
  100
AcDbLine
  10
63.2
  20
2.462556
  30
0
  11
63.1
  21
2.452521
  31
0
  0
LINE
  5
7c
  100
AcDbEntity
  8
1
  100
AcDbLine
  10
63.1
  20
2.452521
  30
0
  11
63
  21
2.44202
  31
0
  0
LINE
  5
7d
  100
AcDbEntity
  8
1
  100
AcDbLine
  10
63
  20
2.44202
  30
0
  11
62.9
  21
2.431045
  31
0
  0
LINE
  5
7e
  100
AcDbEntity
  8
1
  100
AcDbLine
  10
62.9
  20
2.431045
  30
0
  11
62.8
  21
2.419591
  31
0
  0
LINE
  5
7f
  100
AcDbEntity
  8
1
  100
AcDbLine
  10
62.8
  20
2.419591
  30
0
  11
62.7
  21
2.40765
  31
0
  0
LINE
  5
80
  100
AcDbEntity
  8
1
  100
AcDbLine
  10
62.7
  20
2.40765
  30
0
  11
62.6
  21
2.395215
  31
0
  0
LINE
  5
81
  100
AcDbEntity
  8
1
  100
AcDbLine
  10
62.6
  20
2.395215
  30
0
  11
62.5
  21
2.38228
  31
0
  0
LINE
  5
82
  100
AcDbEntity
  8
1
  100
AcDbLine
  10
62.5
  20
2.38228
  30
0
  11
62.4
  21
2.368838
  31
0
  0
LINE
  5
83
  100
AcDbEntity
  8
1
  100
AcDbLine
  10
62.4
  20
2.368838
  30
0
  11
62.3
  21
2.354882
  31
0
  0
LINE
  5
84
  100
AcDbEntity
  8
1
  100
AcDbLine
  10
62.3
  20
2.354882
  30
0
  11
62.2
  21
2.340406
  31
0
  0
LINE
  5
85
  100
AcDbEntity
  8
1
  100
AcDbLine
  10
62.2
  20
2.340406
  30
0
  11
62.1
  21
2.325405
  31
0
  0
LINE
  5
86
  100
AcDbEntity
  8
1
  100
AcDbLine
  10
62.1
  20
2.325405
  30
0
  11
62
  21
2.309872
  31
0
  0
LINE
  5
87
  100
AcDbEntity
  8
1
  100
AcDbLine
  10
62
  20
2.309872
  30
0
  11
61.9
  21
2.293802
  31
0
  0
LINE
  5
88
  100
AcDbEntity
  8
1
  100
AcDbLine
  10
61.9
  20
2.293802
  30
0
  11
61.8
  21
2.277189
  31
0
  0
LINE
  5
89
  100
AcDbEntity
  8
1
  100
AcDbLine
  10
61.8
  20
2.277189
  30
0
  11
61.7
  21
2.260028
  31
0
  0
LINE
  5
8a
  100
AcDbEntity
  8
1
  100
AcDbLine
  10
61.7
  20
2.260028
  30
0
  11
61.6
  21
2.242315
  31
0
  0
LINE
  5
8b
  100
AcDbEntity
  8
1
  100
AcDbLine
  10
61.6
  20
2.242315
  30
0
  11
61.5
  21
2.224045
  31
0
  0
LINE
  5
8c
  100
AcDbEntity
  8
1
  100
AcDbLine
  10
61.5
  20
2.224045
  30
0
  11
61.4
  21
2.205215
  31
0
  0
LINE
  5
8d
  100
AcDbEntity
  8
1
  100
AcDbLine
  10
61.4
  20
2.205215
  30
0
  11
61.3
  21
2.18582
  31
0
  0
LINE
  5
8e
  100
AcDbEntity
  8
1
  100
AcDbLine
  10
61.3
  20
2.18582
  30
0
  11
61.2
  21
2.165859
  31
0
  0
LINE
  5
8f
  100
AcDbEntity
  8
1
  100
AcDbLine
  10
61.2
  20
2.165859
  30
0
  11
61.1
  21
2.145327
  31
0
  0
LINE
  5
90
  100
AcDbEntity
  8
1
  100
AcDbLine
  10
61.1
  20
2.145327
  30
0
  11
61
  21
2.124224
  31
0
  0
LINE
  5
91
  100
AcDbEntity
  8
1
  100
AcDbLine
  10
61
  20
2.124224
  30
0
  11
60.9
  21
2.102547
  31
0
  0
LINE
  5
92
  100
AcDbEntity
  8
1
  100
AcDbLine
  10
60.9
  20
2.102547
  30
0
  11
60.8
  21
2.080296
  31
0
  0
LINE
  5
93
  100
AcDbEntity
  8
1
  100
AcDbLine
  10
60.8
  20
2.080296
  30
0
  11
60.7
  21
2.05747
  31
0
  0
LINE
  5
94
  100
AcDbEntity
  8
1
  100
AcDbLine
  10
60.7
  20
2.05747
  30
0
  11
60.6
  21
2.034068
  31
0
  0
LINE
  5
95
  100
AcDbEntity
  8
1
  100
AcDbLine
  10
60.6
  20
2.034068
  30
0
  11
60.5
  21
2.010093
  31
0
  0
LINE
  5
96
  100
AcDbEntity
  8
1
  100
AcDbLine
  10
60.5
  20
2.010093
  30
0
  11
60.4
  21
1.985544
  31
0
  0
LINE
  5
97
  100
AcDbEntity
  8
1
  100
AcDbLine
  10
60.4
  20
1.985544
  30
0
  11
60.3
  21
1.960424
  31
0
  0
LINE
  5
98
  100
AcDbEntity
  8
1
  100
AcDbLine
  10
60.3
  20
1.960424
  30
0
  11
60.2
  21
1.934736
  31
0
  0
LINE
  5
99
  100
AcDbEntity
  8
1
  100
AcDbLine
  10
60.2
  20
1.934736
  30
0
  11
60.1
  21
1.908482
  31
0
  0
LINE
  5
9a
  100
AcDbEntity
  8
1
  100
AcDbLine
  10
60.1
  20
1.908482
  30
0
  11
60
  21
1.881666
  31
0
  0
LINE
  5
9b
  100
AcDbEntity
  8
1
  100
AcDbLine
  10
60
  20
1.881666
  30
0
  11
59.9
  21
1.854294
  31
0
  0
LINE
  5
9c
  100
AcDbEntity
  8
1
  100
AcDbLine
  10
59.9
  20
1.854294
  30
0
  11
59.8
  21
1.82637
  31
0
  0
LINE
  5
9d
  100
AcDbEntity
  8
1
  100
AcDbLine
  10
59.8
  20
1.82637
  30
0
  11
59.7
  21
1.797899
  31
0
  0
LINE
  5
9e
  100
AcDbEntity
  8
1
  100
AcDbLine
  10
59.7
  20
1.797899
  30
0
  11
59.6
  21
1.76889
  31
0
  0
LINE
  5
9f
  100
AcDbEntity
  8
1
  100
AcDbLine
  10
59.6
  20
1.76889
  30
0
  11
59.5
  21
1.739348
  31
0
  0
LINE
  5
a0
  100
AcDbEntity
  8
1
  100
AcDbLine
  10
59.5
  20
1.739348
  30
0
  11
59.4
  21
1.709283
  31
0
  0
LINE
  5
a1
  100
AcDbEntity
  8
1
  100
AcDbLine
  10
59.4
  20
1.709283
  30
0
  11
59.3
  21
1.678702
  31
0
  0
LINE
  5
a2
  100
AcDbEntity
  8
1
  100
AcDbLine
  10
59.3
  20
1.678702
  30
0
  11
59.2
  21
1.647615
  31
0
  0
LINE
  5
a3
  100
AcDbEntity
  8
1
  100
AcDbLine
  10
59.2
  20
1.647615
  30
0
  11
59.1
  21
1.616033
  31
0
  0
LINE
  5
a4
  100
AcDbEntity
  8
1
  100
AcDbLine
  10
59.1
  20
1.616033
  30
0
  11
59
  21
1.583966
  31
0
  0
LINE
  5
a5
  100
AcDbEntity
  8
1
  100
AcDbLine
  10
59
  20
1.583966
  30
0
  11
58.9
  21
1.551425
  31
0
  0
LINE
  5
a6
  100
AcDbEntity
  8
1
  100
AcDbLine
  10
58.9
  20
1.551425
  30
0
  11
58.8
  21
1.518423
  31
0
  0
LINE
  5
a7
  100
AcDbEntity
  8
1
  100
AcDbLine
  10
58.8
  20
1.518423
  30
0
  11
58.7
  21
1.484972
  31
0
  0
LINE
  5
a8
  100
AcDbEntity
  8
1
  100
AcDbLine
  10
58.7
  20
1.484972
  30
0
  11
58.6
  21
1.451086
  31
0
  0
LINE
  5
a9
  100
AcDbEntity
  8
1
  100
AcDbLine
  10
58.6
  20
1.451086
  30
0
  11
58.5
  21
1.41678
  31
0
  0
LINE
  5
aa
  100
AcDbEntity
  8
1
  100
AcDbLine
  10
58.5
  20
1.41678
  30
0
  11
58.4
  21
1.382067
  31
0
  0
LINE
  5
ab
  100
AcDbEntity
  8
1
  100
AcDbLine
  10
58.4
  20
1.382067
  30
0
  11
58.3
  21
1.346964
  31
0
  0
LINE
  5
ac
  100
AcDbEntity
  8
1
  100
AcDbLine
  10
58.3
  20
1.346964
  30
0
  11
58.2
  21
1.311486
  31
0
  0
LINE
  5
ad
  100
AcDbEntity
  8
1
  100
AcDbLine
  10
58.2
  20
1.311486
  30
0
  11
58.1
  21
1.27565
  31
0
  0
LINE
  5
ae
  100
AcDbEntity
  8
1
  100
AcDbLine
  10
58.1
  20
1.27565
  30
0
  11
58
  21
1.239472
  31
0
  0
LINE
  5
af
  100
AcDbEntity
  8
1
  100
AcDbLine
  10
58
  20
1.239472
  30
0
  11
57.9
  21
1.202971
  31
0
  0
LINE
  5
b0
  100
AcDbEntity
  8
1
  100
AcDbLine
  10
57.9
  20
1.202971
  30
0
  11
57.8
  21
1.166164
  31
0
  0
LINE
  5
b1
  100
AcDbEntity
  8
1
  100
AcDbLine
  10
57.8
  20
1.166164
  30
0
  11
57.7
  21
1.129071
  31
0
  0
LINE
  5
b2
  100
AcDbEntity
  8
1
  100
AcDbLine
  10
57.7
  20
1.129071
  30
0
  11
57.6
  21
1.091709
  31
0
  0
LINE
  5
b3
  100
AcDbEntity
  8
1
  100
AcDbLine
  10
57.6
  20
1.091709
  30
0
  11
57.5
  21
1.054099
  31
0
  0
LINE
  5
b4
  100
AcDbEntity
  8
1
  100
AcDbLine
  10
57.5
  20
1.054099
  30
0
  11
57.4
  21
1.01626
  31
0
  0
LINE
  5
b5
  100
AcDbEntity
  8
1
  100
AcDbLine
  10
57.4
  20
1.01626
  30
0
  11
57.3
  21
0.978212
  31
0
  0
LINE
  5
b6
  100
AcDbEntity
  8
1
  100
AcDbLine
  10
57.3
  20
0.978212
  30
0
  11
57.3
  21
1.270143
  31
0
  0
LINE
  5
b7
  100
AcDbEntity
  8
1
  100
AcDbLine
  10
57.3
  20
1.270143
  30
0
  11
57.4
  21
1.245995
  31
0
  0
LINE
  5
b8
  100
AcDbEntity
  8
1
  100
AcDbLine
  10
57.4
  20
1.245995
  30
0
  11
57.5
  21
1.221751
  31
0
  0
LINE
  5
b9
  100
AcDbEntity
  8
1
  100
AcDbLine
  10
57.5
  20
1.221751
  30
0
  11
57.6
  21
1.197421
  31
0
  0
LINE
  5
ba
  100
AcDbEntity
  8
1
  100
AcDbLine
  10
57.6
  20
1.197421
  30
0
  11
57.7
  21
1.173017
  31
0
  0
LINE
  5
bb
  100
AcDbEntity
  8
1
  100
AcDbLine
  10
57.7
  20
1.173017
  30
0
  11
57.8
  21
1.148549
  31
0
  0
LINE
  5
bc
  100
AcDbEntity
  8
1
  100
AcDbLine
  10
57.8
  20
1.148549
  30
0
  11
57.9
  21
1.124028
  31
0
  0
LINE
  5
bd
  100
AcDbEntity
  8
1
  100
AcDbLine
  10
57.9
  20
1.124028
  30
0
  11
58
  21
1.099466
  31
0
  0
LINE
  5
be
  100
AcDbEntity
  8
1
  100
AcDbLine
  10
58
  20
1.099466
  30
0
  11
58.1
  21
1.074874
  31
0
  0
LINE
  5
bf
  100
AcDbEntity
  8
1
  100
AcDbLine
  10
58.1
  20
1.074874
  30
0
  11
58.2
  21
1.050263
  31
0
  0
LINE
  5
c0
  100
AcDbEntity
  8
1
  100
AcDbLine
  10
58.2
  20
1.050263
  30
0
  11
58.3
  21
1.025644
  31
0
  0
LINE
  5
c1
  100
AcDbEntity
  8
1
  100
AcDbLine
  10
58.3
  20
1.025644
  30
0
  11
58.4
  21
1.001029
  31
0
  0
LINE
  5
c2
  100
AcDbEntity
  8
1
  100
AcDbLine
  10
58.4
  20
1.001029
  30
0
  11
58.5
  21
0.976429
  31
0
  0
LINE
  5
c3
  100
AcDbEntity
  8
1
  100
AcDbLine
  10
58.5
  20
0.976429
  30
0
  11
58.6
  21
0.951857
  31
0
  0
LINE
  5
c4
  100
AcDbEntity
  8
1
  100
AcDbLine
  10
58.6
  20
0.951857
  30
0
  11
58.7
  21
0.927323
  31
0
  0
LINE
  5
c5
  100
AcDbEntity
  8
1
  100
AcDbLine
  10
58.7
  20
0.927323
  30
0
  11
58.8
  21
0.902839
  31
0
  0
LINE
  5
c6
  100
AcDbEntity
  8
1
  100
AcDbLine
  10
58.8
  20
0.902839
  30
0
  11
58.9
  21
0.878417
  31
0
  0
LINE
  5
c7
  100
AcDbEntity
  8
1
  100
AcDbLine
  10
58.9
  20
0.878417
  30
0
  11
59
  21
0.854068
  31
0
  0
LINE
  5
c8
  100
AcDbEntity
  8
1
  100
AcDbLine
  10
59
  20
0.854068
  30
0
  11
59.1
  21
0.829805
  31
0
  0
LINE
  5
c9
  100
AcDbEntity
  8
1
  100
AcDbLine
  10
59.1
  20
0.829805
  30
0
  11
59.2
  21
0.805637
  31
0
  0
LINE
  5
ca
  100
AcDbEntity
  8
1
  100
AcDbLine
  10
59.2
  20
0.805637
  30
0
  11
59.3
  21
0.781577
  31
0
  0
LINE
  5
cb
  100
AcDbEntity
  8
1
  100
AcDbLine
  10
59.3
  20
0.781577
  30
0
  11
59.4
  21
0.757637
  31
0
  0
LINE
  5
cc
  100
AcDbEntity
  8
1
  100
AcDbLine
  10
59.4
  20
0.757637
  30
0
  11
59.5
  21
0.733827
  31
0
  0
LINE
  5
cd
  100
AcDbEntity
  8
1
  100
AcDbLine
  10
59.5
  20
0.733827
  30
0
  11
59.6
  21
0.710159
  31
0
  0
LINE
  5
ce
  100
AcDbEntity
  8
1
  100
AcDbLine
  10
59.6
  20
0.710159
  30
0
  11
59.7
  21
0.686645
  31
0
  0
LINE
  5
cf
  100
AcDbEntity
  8
1
  100
AcDbLine
  10
59.7
  20
0.686645
  30
0
  11
59.8
  21
0.663294
  31
0
  0
LINE
  5
d0
  100
AcDbEntity
  8
1
  100
AcDbLine
  10
59.8
  20
0.663294
  30
0
  11
59.9
  21
0.640119
  31
0
  0
LINE
  5
d1
  100
AcDbEntity
  8
1
  100
AcDbLine
  10
59.9
  20
0.640119
  30
0
  11
60
  21
0.61713
  31
0
  0
LINE
  5
d2
  100
AcDbEntity
  8
1
  100
AcDbLine
  10
60
  20
0.61713
  30
0
  11
60.1
  21
0.594337
  31
0
  0
LINE
  5
d3
  100
AcDbEntity
  8
1
  100
AcDbLine
  10
60.1
  20
0.594337
  30
0
  11
60.2
  21
0.571752
  31
0
  0
LINE
  5
d4
  100
AcDbEntity
  8
1
  100
AcDbLine
  10
60.2
  20
0.571752
  30
0
  11
60.3
  21
0.549386
  31
0
  0
LINE
  5
d5
  100
AcDbEntity
  8
1
  100
AcDbLine
  10
60.3
  20
0.549386
  30
0
  11
60.4
  21
0.527247
  31
0
  0
LINE
  5
d6
  100
AcDbEntity
  8
1
  100
AcDbLine
  10
60.4
  20
0.527247
  30
0
  11
60.5
  21
0.505348
  31
0
  0
LINE
  5
d7
  100
AcDbEntity
  8
1
  100
AcDbLine
  10
60.5
  20
0.505348
  30
0
  11
60.6
  21
0.483696
  31
0
  0
LINE
  5
d8
  100
AcDbEntity
  8
1
  100
AcDbLine
  10
60.6
  20
0.483696
  30
0
  11
60.7
  21
0.462304
  31
0
  0
LINE
  5
d9
  100
AcDbEntity
  8
1
  100
AcDbLine
  10
60.7
  20
0.462304
  30
0
  11
60.8
  21
0.44118
  31
0
  0
LINE
  5
da
  100
AcDbEntity
  8
1
  100
AcDbLine
  10
60.8
  20
0.44118
  30
0
  11
60.9
  21
0.420333
  31
0
  0
LINE
  5
db
  100
AcDbEntity
  8
1
  100
AcDbLine
  10
60.9
  20
0.420333
  30
0
  11
61
  21
0.399774
  31
0
  0
LINE
  5
dc
  100
AcDbEntity
  8
1
  100
AcDbLine
  10
61
  20
0.399774
  30
0
  11
61.1
  21
0.379511
  31
0
  0
LINE
  5
dd
  100
AcDbEntity
  8
1
  100
AcDbLine
  10
61.1
  20
0.379511
  30
0
  11
61.2
  21
0.359553
  31
0
  0
LINE
  5
de
  100
AcDbEntity
  8
1
  100
AcDbLine
  10
61.2
  20
0.359553
  30
0
  11
61.3
  21
0.339909
  31
0
  0
LINE
  5
df
  100
AcDbEntity
  8
1
  100
AcDbLine
  10
61.3
  20
0.339909
  30
0
  11
61.4
  21
0.320589
  31
0
  0
LINE
  5
e0
  100
AcDbEntity
  8
1
  100
AcDbLine
  10
61.4
  20
0.320589
  30
0
  11
61.5
  21
0.301599
  31
0
  0
LINE
  5
e1
  100
AcDbEntity
  8
1
  100
AcDbLine
  10
61.5
  20
0.301599
  30
0
  11
61.6
  21
0.282948
  31
0
  0
LINE
  5
e2
  100
AcDbEntity
  8
1
  100
AcDbLine
  10
61.6
  20
0.282948
  30
0
  11
61.7
  21
0.264645
  31
0
  0
LINE
  5
e3
  100
AcDbEntity
  8
1
  100
AcDbLine
  10
61.7
  20
0.264645
  30
0
  11
61.8
  21
0.246697
  31
0
  0
LINE
  5
e4
  100
AcDbEntity
  8
1
  100
AcDbLine
  10
61.8
  20
0.246697
  30
0
  11
61.9
  21
0.229111
  31
0
  0
LINE
  5
e5
  100
AcDbEntity
  8
1
  100
AcDbLine
  10
61.9
  20
0.229111
  30
0
  11
62
  21
0.211895
  31
0
  0
LINE
  5
e6
  100
AcDbEntity
  8
1
  100
AcDbLine
  10
62
  20
0.211895
  30
0
  11
62.1
  21
0.195057
  31
0
  0
LINE
  5
e7
  100
AcDbEntity
  8
1
  100
AcDbLine
  10
62.1
  20
0.195057
  30
0
  11
62.2
  21
0.178602
  31
0
  0
LINE
  5
e8
  100
AcDbEntity
  8
1
  100
AcDbLine
  10
62.2
  20
0.178602
  30
0
  11
62.3
  21
0.162538
  31
0
  0
LINE
  5
e9
  100
AcDbEntity
  8
1
  100
AcDbLine
  10
62.3
  20
0.162538
  30
0
  11
62.4
  21
0.146872
  31
0
  0
LINE
  5
ea
  100
AcDbEntity
  8
1
  100
AcDbLine
  10
62.4
  20
0.146872
  30
0
  11
62.5
  21
0.131608
  31
0
  0
LINE
  5
eb
  100
AcDbEntity
  8
1
  100
AcDbLine
  10
62.5
  20
0.131608
  30
0
  11
62.6
  21
0.116754
  31
0
  0
LINE
  5
ec
  100
AcDbEntity
  8
1
  100
AcDbLine
  10
62.6
  20
0.116754
  30
0
  11
62.7
  21
0.102316
  31
0
  0
LINE
  5
ed
  100
AcDbEntity
  8
1
  100
AcDbLine
  10
62.7
  20
0.102316
  30
0
  11
62.8
  21
0.088299
  31
0
  0
LINE
  5
ee
  100
AcDbEntity
  8
1
  100
AcDbLine
  10
62.8
  20
0.088299
  30
0
  11
62.9
  21
0.074708
  31
0
  0
LINE
  5
ef
  100
AcDbEntity
  8
1
  100
AcDbLine
  10
62.9
  20
0.074708
  30
0
  11
63
  21
0.061548
  31
0
  0
LINE
  5
f0
  100
AcDbEntity
  8
1
  100
AcDbLine
  10
63
  20
0.061548
  30
0
  11
63.1
  21
0.048826
  31
0
  0
LINE
  5
f1
  100
AcDbEntity
  8
1
  100
AcDbLine
  10
63.1
  20
0.048826
  30
0
  11
63.2
  21
0.036545
  31
0
  0
LINE
  5
f2
  100
AcDbEntity
  8
1
  100
AcDbLine
  10
63.2
  20
0.036545
  30
0
  11
63.3
  21
0.024709
  31
0
  0
LINE
  5
f3
  100
AcDbEntity
  8
1
  100
AcDbLine
  10
63.3
  20
0.024709
  30
0
  11
63.4
  21
0.013325
  31
0
  0
LINE
  5
f4
  100
AcDbEntity
  8
1
  100
AcDbLine
  10
63.4
  20
0.013325
  30
0
  11
63.5
  21
0.002395
  31
0
  0
LINE
  5
f5
  100
AcDbEntity
  8
1
  100
AcDbLine
  10
63.5
  20
0.002395
  30
0
  11
63.6
  21
-0.008077
  31
0
  0
LINE
  5
f6
  100
AcDbEntity
  8
1
  100
AcDbLine
  10
63.6
  20
-0.008077
  30
0
  11
63.7
  21
-0.018086
  31
0
  0
LINE
  5
f7
  100
AcDbEntity
  8
1
  100
AcDbLine
  10
63.7
  20
-0.018086
  30
0
  11
63.8
  21
-0.027629
  31
0
  0
LINE
  5
f8
  100
AcDbEntity
  8
1
  100
AcDbLine
  10
63.8
  20
-0.027629
  30
0
  11
63.9
  21
-0.036702
  31
0
  0
LINE
  5
f9
  100
AcDbEntity
  8
1
  100
AcDbLine
  10
63.9
  20
-0.036702
  30
0
  11
64
  21
-0.045303
  31
0
  0
LINE
  5
fa
  100
AcDbEntity
  8
1
  100
AcDbLine
  10
64
  20
-0.045303
  30
0
  11
64.1
  21
-0.053429
  31
0
  0
LINE
  5
fb
  100
AcDbEntity
  8
1
  100
AcDbLine
  10
64.1
  20
-0.053429
  30
0
  11
64.2
  21
-0.061076
  31
0
  0
LINE
  5
fc
  100
AcDbEntity
  8
1
  100
AcDbLine
  10
64.2
  20
-0.061076
  30
0
  11
64.3
  21
-0.068241
  31
0
  0
LINE
  5
fd
  100
AcDbEntity
  8
1
  100
AcDbLine
  10
64.3
  20
-0.068241
  30
0
  11
64.4
  21
-0.074923
  31
0
  0
LINE
  5
fe
  100
AcDbEntity
  8
1
  100
AcDbLine
  10
64.4
  20
-0.074923
  30
0
  11
64.5
  21
-0.08112
  31
0
  0
LINE
  5
ff
  100
AcDbEntity
  8
1
  100
AcDbLine
  10
64.5
  20
-0.08112
  30
0
  11
64.6
  21
-0.086828
  31
0
  0
LINE
  5
100
  100
AcDbEntity
  8
1
  100
AcDbLine
  10
64.6
  20
-0.086828
  30
0
  11
64.7
  21
-0.092046
  31
0
  0
LINE
  5
101
  100
AcDbEntity
  8
1
  100
AcDbLine
  10
64.7
  20
-0.092046
  30
0
  11
64.8
  21
-0.096773
  31
0
  0
LINE
  5
102
  100
AcDbEntity
  8
1
  100
AcDbLine
  10
64.8
  20
-0.096773
  30
0
  11
64.9
  21
-0.101006
  31
0
  0
LINE
  5
103
  100
AcDbEntity
  8
1
  100
AcDbLine
  10
64.9
  20
-0.101006
  30
0
  11
65
  21
-0.104744
  31
0
  0
LINE
  5
104
  100
AcDbEntity
  8
1
  100
AcDbLine
  10
65
  20
-0.104744
  30
0
  11
65.1
  21
-0.107987
  31
0
  0
LINE
  5
105
  100
AcDbEntity
  8
1
  100
AcDbLine
  10
65.1
  20
-0.107987
  30
0
  11
65.2
  21
-0.110732
  31
0
  0
LINE
  5
106
  100
AcDbEntity
  8
1
  100
AcDbLine
  10
65.2
  20
-0.110732
  30
0
  11
65.3
  21
-0.11298
  31
0
  0
LINE
  5
107
  100
AcDbEntity
  8
1
  100
AcDbLine
  10
65.3
  20
-0.11298
  30
0
  11
65.4
  21
-0.114729
  31
0
  0
LINE
  5
108
  100
AcDbEntity
  8
1
  100
AcDbLine
  10
65.4
  20
-0.114729
  30
0
  11
65.5
  21
-0.115978
  31
0
  0
LINE
  5
109
  100
AcDbEntity
  8
1
  100
AcDbLine
  10
65.5
  20
-0.115978
  30
0
  11
65.6
  21
-0.116728
  31
0
  0
LINE
  5
10a
  100
AcDbEntity
  8
1
  100
AcDbLine
  10
65.6
  20
-0.116728
  30
0
  11
65.7
  21
-0.116978
  31
0
  0
LINE
  5
10b
  100
AcDbEntity
  8
1
  100
AcDbLine
  10
65.7
  20
-0.116978
  30
0
  11
65.7
  21
0
  31
0
  0
LINE
  5
10c
  100
AcDbEntity
  8
1
  100
AcDbLine
  10
65.7
  20
0
  30
0
  11
65.8
  21
0
  31
0
  0
LINE
  5
10d
  100
AcDbEntity
  8
1
  100
AcDbLine
  10
65.8
  20
0
  30
0
  11
65.9
  21
0
  31
0
  0
LINE
  5
10e
  100
AcDbEntity
  8
1
  100
AcDbLine
  10
65.9
  20
0
  30
0
  11
66
  21
0
  31
0
  0
LINE
  5
10f
  100
AcDbEntity
  8
1
  100
AcDbLine
  10
66
  20
0
  30
0
  11
66.1
  21
0
  31
0
  0
LINE
  5
110
  100
AcDbEntity
  8
1
  100
AcDbLine
  10
66.1
  20
0
  30
0
  11
66.2
  21
0
  31
0
  0
LINE
  5
111
  100
AcDbEntity
  8
1
  100
AcDbLine
  10
66.2
  20
0
  30
0
  11
66.3
  21
0
  31
0
  0
LINE
  5
112
  100
AcDbEntity
  8
1
  100
AcDbLine
  10
66.3
  20
0
  30
0
  11
66.4
  21
0
  31
0
  0
LINE
  5
113
  100
AcDbEntity
  8
1
  100
AcDbLine
  10
66.4
  20
0
  30
0
  11
66.5
  21
0
  31
0
  0
LINE
  5
114
  100
AcDbEntity
  8
1
  100
AcDbLine
  10
66.5
  20
0
  30
0
  11
66.6
  21
0
  31
0
  0
LINE
  5
115
  100
AcDbEntity
  8
1
  100
AcDbLine
  10
66.6
  20
0
  30
0
  11
66.7
  21
0
  31
0
  0
LINE
  5
116
  100
AcDbEntity
  8
1
  100
AcDbLine
  10
66.7
  20
0
  30
0
  11
66.8
  21
0
  31
0
  0
LINE
  5
117
  100
AcDbEntity
  8
1
  100
AcDbLine
  10
66.8
  20
0
  30
0
  11
66.9
  21
0
  31
0
  0
LINE
  5
118
  100
AcDbEntity
  8
1
  100
AcDbLine
  10
66.9
  20
0
  30
0
  11
67
  21
0
  31
0
  0
LINE
  5
119
  100
AcDbEntity
  8
1
  100
AcDbLine
  10
67
  20
0
  30
0
  11
67.1
  21
0
  31
0
  0
LINE
  5
11a
  100
AcDbEntity
  8
1
  100
AcDbLine
  10
67.1
  20
0
  30
0
  11
67.2
  21
0
  31
0
  0
LINE
  5
11b
  100
AcDbEntity
  8
1
  100
AcDbLine
  10
67.2
  20
0
  30
0
  11
67.3
  21
0
  31
0
  0
LINE
  5
11c
  100
AcDbEntity
  8
1
  100
AcDbLine
  10
67.3
  20
0
  30
0
  11
67.4
  21
0
  31
0
  0
LINE
  5
11d
  100
AcDbEntity
  8
1
  100
AcDbLine
  10
67.4
  20
0
  30
0
  11
67.5
  21
0
  31
0
  0
LINE
  5
11e
  100
AcDbEntity
  8
1
  100
AcDbLine
  10
67.5
  20
0
  30
0
  11
67.6
  21
0
  31
0
  0
LINE
  5
11f
  100
AcDbEntity
  8
1
  100
AcDbLine
  10
67.6
  20
0
  30
0
  11
67.7
  21
0
  31
0
  0
LINE
  5
120
  100
AcDbEntity
  8
1
  100
AcDbLine
  10
67.7
  20
0
  30
0
  11
67.8
  21
0
  31
0
  0
LINE
  5
121
  100
AcDbEntity
  8
1
  100
AcDbLine
  10
67.8
  20
0
  30
0
  11
67.9
  21
0
  31
0
  0
LINE
  5
122
  100
AcDbEntity
  8
1
  100
AcDbLine
  10
67.9
  20
0
  30
0
  11
68
  21
0
  31
0
  0
LINE
  5
123
  100
AcDbEntity
  8
1
  100
AcDbLine
  10
68
  20
0
  30
0
  11
68.1
  21
0
  31
0
  0
LINE
  5
124
  100
AcDbEntity
  8
1
  100
AcDbLine
  10
68.1
  20
0
  30
0
  11
68.2
  21
0
  31
0
  0
LINE
  5
125
  100
AcDbEntity
  8
1
  100
AcDbLine
  10
68.2
  20
0
  30
0
  11
68.3
  21
0
  31
0
  0
LINE
  5
126
  100
AcDbEntity
  8
1
  100
AcDbLine
  10
68.3
  20
0
  30
0
  11
68.4
  21
0
  31
0
  0
LINE
  5
127
  100
AcDbEntity
  8
1
  100
AcDbLine
  10
68.4
  20
0
  30
0
  11
68.5
  21
0
  31
0
  0
LINE
  5
128
  100
AcDbEntity
  8
1
  100
AcDbLine
  10
68.5
  20
0
  30
0
  11
68.6
  21
0
  31
0
  0
LINE
  5
129
  100
AcDbEntity
  8
1
  100
AcDbLine
  10
68.6
  20
0
  30
0
  11
68.7
  21
0
  31
0
  0
LINE
  5
12a
  100
AcDbEntity
  8
1
  100
AcDbLine
  10
68.7
  20
0
  30
0
  11
68.8
  21
0
  31
0
  0
LINE
  5
12b
  100
AcDbEntity
  8
1
  100
AcDbLine
  10
68.8
  20
0
  30
0
  11
68.9
  21
0
  31
0
  0
LINE
  5
12c
  100
AcDbEntity
  8
1
  100
AcDbLine
  10
68.9
  20
0
  30
0
  11
69
  21
0
  31
0
  0
LINE
  5
12d
  100
AcDbEntity
  8
1
  100
AcDbLine
  10
69
  20
0
  30
0
  11
69.1
  21
0
  31
0
  0
LINE
  5
12e
  100
AcDbEntity
  8
1
  100
AcDbLine
  10
69.1
  20
0
  30
0
  11
69.2
  21
0
  31
0
  0
LINE
  5
12f
  100
AcDbEntity
  8
1
  100
AcDbLine
  10
69.2
  20
0
  30
0
  11
69.3
  21
0
  31
0
  0
LINE
  5
130
  100
AcDbEntity
  8
1
  100
AcDbLine
  10
69.3
  20
0
  30
0
  11
69.4
  21
0
  31
0
  0
LINE
  5
131
  100
AcDbEntity
  8
1
  100
AcDbLine
  10
69.4
  20
0
  30
0
  11
69.5
  21
0
  31
0
  0
LINE
  5
132
  100
AcDbEntity
  8
1
  100
AcDbLine
  10
69.5
  20
0
  30
0
  11
69.6
  21
0
  31
0
  0
LINE
  5
133
  100
AcDbEntity
  8
1
  100
AcDbLine
  10
69.6
  20
0
  30
0
  11
69.7
  21
0
  31
0
  0
LINE
  5
134
  100
AcDbEntity
  8
1
  100
AcDbLine
  10
69.7
  20
0
  30
0
  11
69.8
  21
0
  31
0
  0
LINE
  5
135
  100
AcDbEntity
  8
1
  100
AcDbLine
  10
69.8
  20
0
  30
0
  11
69.9
  21
0
  31
0
  0
LINE
  5
136
  100
AcDbEntity
  8
1
  100
AcDbLine
  10
69.9
  20
0
  30
0
  11
70
  21
0
  31
0
  0
LINE
  5
137
  100
AcDbEntity
  8
1
  100
AcDbLine
  10
70
  20
0
  30
0
  11
70
  21
3.75
  31
0
  0
LINE
  5
138
  100
AcDbEntity
  8
1
  100
AcDbLine
  10
70
  20
3.75
  30
0
  11
65.7
  21
3.75
  31
0
  0
LINE
  5
139
  100
AcDbEntity
  8
1
  100
AcDbLine
  10
65.7
  20
3.75
  30
0
  11
65.7
  21
2.92
  31
0
  0
LINE
  5
13a
  100
AcDbEntity
  8
1
  100
AcDbLine
  10
65.7
  20
2.92
  30
0
  11
41.25
  21
2.92
  31
0
  0
ARC
  5
13b
  100
AcDbEntity
  8
1
  100
AcDbCircle
  10
41.25
  20
3.92
  30
0
  40
1
  100
AcDbArc
  50
225
  51
270
  0
LINE
  5
13c
  100
AcDbEntity
  8
1
  100
AcDbLine
  10
40.542893
  20
3.212893
  30
0
  11
38.755786
  21
5
  31
0
  0
LINE
  5
13d
  100
AcDbEntity
  8
1
  100
AcDbLine
  10
38.755786
  20
5
  30
0
  11
37.76
  21
5
  31
0
  0
LINE
  5
13e
  100
AcDbEntity
  8
1
  100
AcDbLine
  10
37.76
  20
5
  30
0
  11
37.76
  21
-5
  31
0
  0
LINE
  5
13f
  100
AcDbEntity
  8
1
  100
AcDbLine
  10
37.76
  20
-5
  30
0
  11
38.755786
  21
-5
  31
0
  0
LINE
  5
140
  100
AcDbEntity
  8
1
  100
AcDbLine
  10
38.755786
  20
-5
  30
0
  11
40.542893
  21
-3.212893
  31
0
  0
LINE
  5
141
  100
AcDbEntity
  8
1
  100
AcDbLine
  10
40.542893
  20
-3.212893
  30
0
  11
40.542893
  21
3.212893
  31
0
  0
LINE
  5
142
  100
AcDbEntity
  8
1
  100
AcDbLine
  10
41.25
  20
2.92
  30
0
  11
41.25
  21
-2.92
  31
0
  0
ARC
  5
143
  100
AcDbEntity
  8
1
  100
AcDbCircle
  10
41.25
  20
-3.92
  30
0
  40
1
  100
AcDbArc
  50
90
  51
135
  0
LINE
  5
144
  100
AcDbEntity
  8
1
  100
AcDbLine
  10
41.25
  20
-2.92
  30
0
  11
65.7
  21
-2.92
  31
0
  0
LINE
  5
145
  100
AcDbEntity
  8
1
  100
AcDbLine
  10
65.7
  20
-2.92
  30
0
  11
65.7
  21
-3.75
  31
0
  0
LINE
  5
146
  100
AcDbEntity
  8
1
  100
AcDbLine
  10
65.7
  20
-3.75
  30
0
  11
65.7
  21
3.75
  31
0
  0
LINE
  5
147
  100
AcDbEntity
  8
1
  100
AcDbLine
  10
65.7
  20
2.92
  30
0
  11
65.7
  21
-2.92
  31
0
  0
LINE
  5
148
  100
AcDbEntity
  8
1
  100
AcDbLine
  10
63.522868
  20
-2.92
  30
0
  11
63.5
  21
-2.919999
  31
0
  0
LINE
  5
149
  100
AcDbEntity
  8
1
  100
AcDbLine
  10
63.5
  20
-2.919999
  30
0
  11
63.4
  21
-2.91997
  31
0
  0
LINE
  5
14a
  100
AcDbEntity
  8
1
  100
AcDbLine
  10
63.4
  20
-2.91997
  30
0
  11
63.3
  21
-2.919895
  31
0
  0
LINE
  5
14b
  100
AcDbEntity
  8
1
  100
AcDbLine
  10
63.3
  20
-2.919895
  30
0
  11
63.2
  21
-2.919771
  31
0
  0
LINE
  5
14c
  100
AcDbEntity
  8
1
  100
AcDbLine
  10
63.2
  20
-2.919771
  30
0
  11
63.1
  21
-2.919592
  31
0
  0
LINE
  5
14d
  100
AcDbEntity
  8
1
  100
AcDbLine
  10
63.1
  20
-2.919592
  30
0
  11
63
  21
-2.919351
  31
0
  0
LINE
  5
14e
  100
AcDbEntity
  8
1
  100
AcDbLine
  10
63
  20
-2.919351
  30
0
  11
62.9
  21
-2.919044
  31
0
  0
LINE
  5
14f
  100
AcDbEntity
  8
1
  100
AcDbLine
  10
62.9
  20
-2.919044
  30
0
  11
62.8
  21
-2.918665
  31
0
  0
LINE
  5
150
  100
AcDbEntity
  8
1
  100
AcDbLine
  10
62.8
  20
-2.918665
  30
0
  11
62.7
  21
-2.918207
  31
0
  0
LINE
  5
151
  100
AcDbEntity
  8
1
  100
AcDbLine
  10
62.7
  20
-2.918207
  30
0
  11
62.6
  21
-2.917665
  31
0
  0
LINE
  5
152
  100
AcDbEntity
  8
1
  100
AcDbLine
  10
62.6
  20
-2.917665
  30
0
  11
62.5
  21
-2.917033
  31
0
  0
LINE
  5
153
  100
AcDbEntity
  8
1
  100
AcDbLine
  10
62.5
  20
-2.917033
  30
0
  11
62.4
  21
-2.916304
  31
0
  0
LINE
  5
154
  100
AcDbEntity
  8
1
  100
AcDbLine
  10
62.4
  20
-2.916304
  30
0
  11
62.3
  21
-2.915473
  31
0
  0
LINE
  5
155
  100
AcDbEntity
  8
1
  100
AcDbLine
  10
62.3
  20
-2.915473
  30
0
  11
62.2
  21
-2.914533
  31
0
  0
LINE
  5
156
  100
AcDbEntity
  8
1
  100
AcDbLine
  10
62.2
  20
-2.914533
  30
0
  11
62.1
  21
-2.913478
  31
0
  0
LINE
  5
157
  100
AcDbEntity
  8
1
  100
AcDbLine
  10
62.1
  20
-2.913478
  30
0
  11
62
  21
-2.912302
  31
0
  0
LINE
  5
158
  100
AcDbEntity
  8
1
  100
AcDbLine
  10
62
  20
-2.912302
  30
0
  11
61.9
  21
-2.910998
  31
0
  0
LINE
  5
159
  100
AcDbEntity
  8
1
  100
AcDbLine
  10
61.9
  20
-2.910998
  30
0
  11
61.8
  21
-2.90956
  31
0
  0
LINE
  5
15a
  100
AcDbEntity
  8
1
  100
AcDbLine
  10
61.8
  20
-2.90956
  30
0
  11
61.7
  21
-2.907983
  31
0
  0
LINE
  5
15b
  100
AcDbEntity
  8
1
  100
AcDbLine
  10
61.7
  20
-2.907983
  30
0
  11
61.6
  21
-2.906259
  31
0
  0
LINE
  5
15c
  100
AcDbEntity
  8
1
  100
AcDbLine
  10
61.6
  20
-2.906259
  30
0
  11
61.5
  21
-2.904383
  31
0
  0
LINE
  5
15d
  100
AcDbEntity
  8
1
  100
AcDbLine
  10
61.5
  20
-2.904383
  30
0
  11
61.4
  21
-2.902348
  31
0
  0
LINE
  5
15e
  100
AcDbEntity
  8
1
  100
AcDbLine
  10
61.4
  20
-2.902348
  30
0
  11
61.3
  21
-2.900149
  31
0
  0
LINE
  5
15f
  100
AcDbEntity
  8
1
  100
AcDbLine
  10
61.3
  20
-2.900149
  30
0
  11
61.2
  21
-2.897779
  31
0
  0
LINE
  5
160
  100
AcDbEntity
  8
1
  100
AcDbLine
  10
61.2
  20
-2.897779
  30
0
  11
61.1
  21
-2.895233
  31
0
  0
LINE
  5
161
  100
AcDbEntity
  8
1
  100
AcDbLine
  10
61.1
  20
-2.895233
  30
0
  11
61
  21
-2.892504
  31
0
  0
LINE
  5
162
  100
AcDbEntity
  8
1
  100
AcDbLine
  10
61
  20
-2.892504
  30
0
  11
60.9
  21
-2.889588
  31
0
  0
LINE
  5
163
  100
AcDbEntity
  8
1
  100
AcDbLine
  10
60.9
  20
-2.889588
  30
0
  11
60.8
  21
-2.886479
  31
0
  0
LINE
  5
164
  100
AcDbEntity
  8
1
  100
AcDbLine
  10
60.8
  20
-2.886479
  30
0
  11
60.7
  21
-2.883171
  31
0
  0
LINE
  5
165
  100
AcDbEntity
  8
1
  100
AcDbLine
  10
60.7
  20
-2.883171
  30
0
  11
60.6
  21
-2.879659
  31
0
  0
LINE
  5
166
  100
AcDbEntity
  8
1
  100
AcDbLine
  10
60.6
  20
-2.879659
  30
0
  11
60.5
  21
-2.875939
  31
0
  0
LINE
  5
167
  100
AcDbEntity
  8
1
  100
AcDbLine
  10
60.5
  20
-2.875939
  30
0
  11
60.4
  21
-2.872005
  31
0
  0
LINE
  5
168
  100
AcDbEntity
  8
1
  100
AcDbLine
  10
60.4
  20
-2.872005
  30
0
  11
60.3
  21
-2.867852
  31
0
  0
LINE
  5
169
  100
AcDbEntity
  8
1
  100
AcDbLine
  10
60.3
  20
-2.867852
  30
0
  11
60.2
  21
-2.863477
  31
0
  0
LINE
  5
16a
  100
AcDbEntity
  8
1
  100
AcDbLine
  10
60.2
  20
-2.863477
  30
0
  11
60.1
  21
-2.858874
  31
0
  0
LINE
  5
16b
  100
AcDbEntity
  8
1
  100
AcDbLine
  10
60.1
  20
-2.858874
  30
0
  11
60
  21
-2.854041
  31
0
  0
LINE
  5
16c
  100
AcDbEntity
  8
1
  100
AcDbLine
  10
60
  20
-2.854041
  30
0
  11
59.9
  21
-2.848973
  31
0
  0
LINE
  5
16d
  100
AcDbEntity
  8
1
  100
AcDbLine
  10
59.9
  20
-2.848973
  30
0
  11
59.8
  21
-2.843667
  31
0
  0
LINE
  5
16e
  100
AcDbEntity
  8
1
  100
AcDbLine
  10
59.8
  20
-2.843667
  30
0
  11
59.7
  21
-2.838119
  31
0
  0
LINE
  5
16f
  100
AcDbEntity
  8
1
  100
AcDbLine
  10
59.7
  20
-2.838119
  30
0
  11
59.6
  21
-2.832327
  31
0
  0
LINE
  5
170
  100
AcDbEntity
  8
1
  100
AcDbLine
  10
59.6
  20
-2.832327
  30
0
  11
59.5
  21
-2.826287
  31
0
  0
LINE
  5
171
  100
AcDbEntity
  8
1
  100
AcDbLine
  10
59.5
  20
-2.826287
  30
0
  11
59.4
  21
-2.819998
  31
0
  0
LINE
  5
172
  100
AcDbEntity
  8
1
  100
AcDbLine
  10
59.4
  20
-2.819998
  30
0
  11
59.3
  21
-2.813456
  31
0
  0
LINE
  5
173
  100
AcDbEntity
  8
1
  100
AcDbLine
  10
59.3
  20
-2.813456
  30
0
  11
59.2
  21
-2.806662
  31
0
  0
LINE
  5
174
  100
AcDbEntity
  8
1
  100
AcDbLine
  10
59.2
  20
-2.806662
  30
0
  11
59.1
  21
-2.799611
  31
0
  0
LINE
  5
175
  100
AcDbEntity
  8
1
  100
AcDbLine
  10
59.1
  20
-2.799611
  30
0
  11
59
  21
-2.792305
  31
0
  0
LINE
  5
176
  100
AcDbEntity
  8
1
  100
AcDbLine
  10
59
  20
-2.792305
  30
0
  11
58.9
  21
-2.784741
  31
0
  0
LINE
  5
177
  100
AcDbEntity
  8
1
  100
AcDbLine
  10
58.9
  20
-2.784741
  30
0
  11
58.8
  21
-2.776919
  31
0
  0
LINE
  5
178
  100
AcDbEntity
  8
1
  100
AcDbLine
  10
58.8
  20
-2.776919
  30
0
  11
58.7
  21
-2.768839
  31
0
  0
LINE
  5
179
  100
AcDbEntity
  8
1
  100
AcDbLine
  10
58.7
  20
-2.768839
  30
0
  11
58.6
  21
-2.760501
  31
0
  0
LINE
  5
17a
  100
AcDbEntity
  8
1
  100
AcDbLine
  10
58.6
  20
-2.760501
  30
0
  11
58.5
  21
-2.751906
  31
0
  0
LINE
  5
17b
  100
AcDbEntity
  8
1
  100
AcDbLine
  10
58.5
  20
-2.751906
  30
0
  11
58.4
  21
-2.743053
  31
0
  0
LINE
  5
17c
  100
AcDbEntity
  8
1
  100
AcDbLine
  10
58.4
  20
-2.743053
  30
0
  11
58.3
  21
-2.733945
  31
0
  0
LINE
  5
17d
  100
AcDbEntity
  8
1
  100
AcDbLine
  10
58.3
  20
-2.733945
  30
0
  11
58.2
  21
-2.724582
  31
0
  0
LINE
  5
17e
  100
AcDbEntity
  8
1
  100
AcDbLine
  10
58.2
  20
-2.724582
  30
0
  11
58.1
  21
-2.714967
  31
0
  0
LINE
  5
17f
  100
AcDbEntity
  8
1
  100
AcDbLine
  10
58.1
  20
-2.714967
  30
0
  11
58
  21
-2.705101
  31
0
  0
LINE
  5
180
  100
AcDbEntity
  8
1
  100
AcDbLine
  10
58
  20
-2.705101
  30
0
  11
57.9
  21
-2.694988
  31
0
  0
LINE
  5
181
  100
AcDbEntity
  8
1
  100
AcDbLine
  10
57.9
  20
-2.694988
  30
0
  11
57.8
  21
-2.684629
  31
0
  0
LINE
  5
182
  100
AcDbEntity
  8
1
  100
AcDbLine
  10
57.8
  20
-2.684629
  30
0
  11
57.7
  21
-2.674029
  31
0
  0
LINE
  5
183
  100
AcDbEntity
  8
1
  100
AcDbLine
  10
57.7
  20
-2.674029
  30
0
  11
57.6
  21
-2.66319
  31
0
  0
LINE
  5
184
  100
AcDbEntity
  8
1
  100
AcDbLine
  10
57.6
  20
-2.66319
  30
0
  11
57.5
  21
-2.652117
  31
0
  0
LINE
  5
185
  100
AcDbEntity
  8
1
  100
AcDbLine
  10
57.5
  20
-2.652117
  30
0
  11
57.4
  21
-2.640814
  31
0
  0
LINE
  5
186
  100
AcDbEntity
  8
1
  100
AcDbLine
  10
57.4
  20
-2.640814
  30
0
  11
57.3
  21
-2.629284
  31
0
  0
LINE
  5
187
  100
AcDbEntity
  8
1
  100
AcDbLine
  10
57.3
  20
-2.629284
  30
0
  11
57.3
  21
-2.751272
  31
0
  0
LINE
  5
188
  100
AcDbEntity
  8
1
  100
AcDbLine
  10
57.3
  20
-2.751272
  30
0
  11
57.4
  21
-2.737447
  31
0
  0
LINE
  5
189
  100
AcDbEntity
  8
1
  100
AcDbLine
  10
57.4
  20
-2.737447
  30
0
  11
57.5
  21
-2.7231
  31
0
  0
LINE
  5
18a
  100
AcDbEntity
  8
1
  100
AcDbLine
  10
57.5
  20
-2.7231
  30
0
  11
57.6
  21
-2.708241
  31
0
  0
LINE
  5
18b
  100
AcDbEntity
  8
1
  100
AcDbLine
  10
57.6
  20
-2.708241
  30
0
  11
57.7
  21
-2.692879
  31
0
  0
LINE
  5
18c
  100
AcDbEntity
  8
1
  100
AcDbLine
  10
57.7
  20
-2.692879
  30
0
  11
57.8
  21
-2.677025
  31
0
  0
LINE
  5
18d
  100
AcDbEntity
  8
1
  100
AcDbLine
  10
57.8
  20
-2.677025
  30
0
  11
57.9
  21
-2.660688
  31
0
  0
LINE
  5
18e
  100
AcDbEntity
  8
1
  100
AcDbLine
  10
57.9
  20
-2.660688
  30
0
  11
58
  21
-2.643881
  31
0
  0
LINE
  5
18f
  100
AcDbEntity
  8
1
  100
AcDbLine
  10
58
  20
-2.643881
  30
0
  11
58.1
  21
-2.626617
  31
0
  0
LINE
  5
190
  100
AcDbEntity
  8
1
  100
AcDbLine
  10
58.1
  20
-2.626617
  30
0
  11
58.2
  21
-2.608909
  31
0
  0
LINE
  5
191
  100
AcDbEntity
  8
1
  100
AcDbLine
  10
58.2
  20
-2.608909
  30
0
  11
58.3
  21
-2.59077
  31
0
  0
LINE
  5
192
  100
AcDbEntity
  8
1
  100
AcDbLine
  10
58.3
  20
-2.59077
  30
0
  11
58.4
  21
-2.572215
  31
0
  0
LINE
  5
193
  100
AcDbEntity
  8
1
  100
AcDbLine
  10
58.4
  20
-2.572215
  30
0
  11
58.5
  21
-2.55326
  31
0
  0
LINE
  5
194
  100
AcDbEntity
  8
1
  100
AcDbLine
  10
58.5
  20
-2.55326
  30
0
  11
58.6
  21
-2.53392
  31
0
  0
LINE
  5
195
  100
AcDbEntity
  8
1
  100
AcDbLine
  10
58.6
  20
-2.53392
  30
0
  11
58.7
  21
-2.514211
  31
0
  0
LINE
  5
196
  100
AcDbEntity
  8
1
  100
AcDbLine
  10
58.7
  20
-2.514211
  30
0
  11
58.8
  21
-2.494152
  31
0
  0
LINE
  5
197
  100
AcDbEntity
  8
1
  100
AcDbLine
  10
58.8
  20
-2.494152
  30
0
  11
58.9
  21
-2.473759
  31
0
  0
LINE
  5
198
  100
AcDbEntity
  8
1
  100
AcDbLine
  10
58.9
  20
-2.473759
  30
0
  11
59
  21
-2.45305
  31
0
  0
LINE
  5
199
  100
AcDbEntity
  8
1
  100
AcDbLine
  10
59
  20
-2.45305
  30
0
  11
59.1
  21
-2.432044
  31
0
  0
LINE
  5
19a
  100
AcDbEntity
  8
1
  100
AcDbLine
  10
59.1
  20
-2.432044
  30
0
  11
59.2
  21
-2.41076
  31
0
  0
LINE
  5
19b
  100
AcDbEntity
  8
1
  100
AcDbLine
  10
59.2
  20
-2.41076
  30
0
  11
59.3
  21
-2.389217
  31
0
  0
LINE
  5
19c
  100
AcDbEntity
  8
1
  100
AcDbLine
  10
59.3
  20
-2.389217
  30
0
  11
59.4
  21
-2.367436
  31
0
  0
LINE
  5
19d
  100
AcDbEntity
  8
1
  100
AcDbLine
  10
59.4
  20
-2.367436
  30
0
  11
59.5
  21
-2.345435
  31
0
  0
LINE
  5
19e
  100
AcDbEntity
  8
1
  100
AcDbLine
  10
59.5
  20
-2.345435
  30
0
  11
59.6
  21
-2.323237
  31
0
  0
LINE
  5
19f
  100
AcDbEntity
  8
1
  100
AcDbLine
  10
59.6
  20
-2.323237
  30
0
  11
59.7
  21
-2.30086
  31
0
  0
LINE
  5
1a0
  100
AcDbEntity
  8
1
  100
AcDbLine
  10
59.7
  20
-2.30086
  30
0
  11
59.8
  21
-2.278327
  31
0
  0
LINE
  5
1a1
  100
AcDbEntity
  8
1
  100
AcDbLine
  10
59.8
  20
-2.278327
  30
0
  11
59.9
  21
-2.255658
  31
0
  0
LINE
  5
1a2
  100
AcDbEntity
  8
1
  100
AcDbLine
  10
59.9
  20
-2.255658
  30
0
  11
60
  21
-2.232875
  31
0
  0
LINE
  5
1a3
  100
AcDbEntity
  8
1
  100
AcDbLine
  10
60
  20
-2.232875
  30
0
  11
60.1
  21
-2.209999
  31
0
  0
LINE
  5
1a4
  100
AcDbEntity
  8
1
  100
AcDbLine
  10
60.1
  20
-2.209999
  30
0
  11
60.2
  21
-2.187052
  31
0
  0
LINE
  5
1a5
  100
AcDbEntity
  8
1
  100
AcDbLine
  10
60.2
  20
-2.187052
  30
0
  11
60.3
  21
-2.164056
  31
0
  0
LINE
  5
1a6
  100
AcDbEntity
  8
1
  100
AcDbLine
  10
60.3
  20
-2.164056
  30
0
  11
60.4
  21
-2.141031
  31
0
  0
LINE
  5
1a7
  100
AcDbEntity
  8
1
  100
AcDbLine
  10
60.4
  20
-2.141031
  30
0
  11
60.5
  21
-2.118001
  31
0
  0
LINE
  5
1a8
  100
AcDbEntity
  8
1
  100
AcDbLine
  10
60.5
  20
-2.118001
  30
0
  11
60.6
  21
-2.094986
  31
0
  0
LINE
  5
1a9
  100
AcDbEntity
  8
1
  100
AcDbLine
  10
60.6
  20
-2.094986
  30
0
  11
60.7
  21
-2.072008
  31
0
  0
LINE
  5
1aa
  100
AcDbEntity
  8
1
  100
AcDbLine
  10
60.7
  20
-2.072008
  30
0
  11
60.8
  21
-2.04909
  31
0
  0
LINE
  5
1ab
  100
AcDbEntity
  8
1
  100
AcDbLine
  10
60.8
  20
-2.04909
  30
0
  11
60.9
  21
-2.026251
  31
0
  0
LINE
  5
1ac
  100
AcDbEntity
  8
1
  100
AcDbLine
  10
60.9
  20
-2.026251
  30
0
  11
61
  21
-2.003515
  31
0
  0
LINE
  5
1ad
  100
AcDbEntity
  8
1
  100
AcDbLine
  10
61
  20
-2.003515
  30
0
  11
61.1
  21
-1.980902
  31
0
  0
LINE
  5
1ae
  100
AcDbEntity
  8
1
  100
AcDbLine
  10
61.1
  20
-1.980902
  30
0
  11
61.2
  21
-1.958432
  31
0
  0
LINE
  5
1af
  100
AcDbEntity
  8
1
  100
AcDbLine
  10
61.2
  20
-1.958432
  30
0
  11
61.3
  21
-1.936128
  31
0
  0
LINE
  5
1b0
  100
AcDbEntity
  8
1
  100
AcDbLine
  10
61.3
  20
-1.936128
  30
0
  11
61.4
  21
-1.914008
  31
0
  0
LINE
  5
1b1
  100
AcDbEntity
  8
1
  100
AcDbLine
  10
61.4
  20
-1.914008
  30
0
  11
61.5
  21
-1.892095
  31
0
  0
LINE
  5
1b2
  100
AcDbEntity
  8
1
  100
AcDbLine
  10
61.5
  20
-1.892095
  30
0
  11
61.6
  21
-1.870408
  31
0
  0
LINE
  5
1b3
  100
AcDbEntity
  8
1
  100
AcDbLine
  10
61.6
  20
-1.870408
  30
0
  11
61.7
  21
-1.848966
  31
0
  0
LINE
  5
1b4
  100
AcDbEntity
  8
1
  100
AcDbLine
  10
61.7
  20
-1.848966
  30
0
  11
61.8
  21
-1.827789
  31
0
  0
LINE
  5
1b5
  100
AcDbEntity
  8
1
  100
AcDbLine
  10
61.8
  20
-1.827789
  30
0
  11
61.9
  21
-1.806896
  31
0
  0
LINE
  5
1b6
  100
AcDbEntity
  8
1
  100
AcDbLine
  10
61.9
  20
-1.806896
  30
0
  11
62
  21
-1.786307
  31
0
  0
LINE
  5
1b7
  100
AcDbEntity
  8
1
  100
AcDbLine
  10
62
  20
-1.786307
  30
0
  11
62.1
  21
-1.766038
  31
0
  0
LINE
  5
1b8
  100
AcDbEntity
  8
1
  100
AcDbLine
  10
62.1
  20
-1.766038
  30
0
  11
62.2
  21
-1.746109
  31
0
  0
LINE
  5
1b9
  100
AcDbEntity
  8
1
  100
AcDbLine
  10
62.2
  20
-1.746109
  30
0
  11
62.3
  21
-1.726537
  31
0
  0
LINE
  5
1ba
  100
AcDbEntity
  8
1
  100
AcDbLine
  10
62.3
  20
-1.726537
  30
0
  11
62.4
  21
-1.70734
  31
0
  0
LINE
  5
1bb
  100
AcDbEntity
  8
1
  100
AcDbLine
  10
62.4
  20
-1.70734
  30
0
  11
62.5
  21
-1.688533
  31
0
  0
LINE
  5
1bc
  100
AcDbEntity
  8
1
  100
AcDbLine
  10
62.5
  20
-1.688533
  30
0
  11
62.6
  21
-1.670133
  31
0
  0
LINE
  5
1bd
  100
AcDbEntity
  8
1
  100
AcDbLine
  10
62.6
  20
-1.670133
  30
0
  11
62.7
  21
-1.652157
  31
0
  0
LINE
  5
1be
  100
AcDbEntity
  8
1
  100
AcDbLine
  10
62.7
  20
-1.652157
  30
0
  11
62.8
  21
-1.634619
  31
0
  0
LINE
  5
1bf
  100
AcDbEntity
  8
1
  100
AcDbLine
  10
62.8
  20
-1.634619
  30
0
  11
62.9
  21
-1.617535
  31
0
  0
LINE
  5
1c0
  100
AcDbEntity
  8
1
  100
AcDbLine
  10
62.9
  20
-1.617535
  30
0
  11
63
  21
-1.600919
  31
0
  0
LINE
  5
1c1
  100
AcDbEntity
  8
1
  100
AcDbLine
  10
63
  20
-1.600919
  30
0
  11
63.1
  21
-1.584785
  31
0
  0
LINE
  5
1c2
  100
AcDbEntity
  8
1
  100
AcDbLine
  10
63.1
  20
-1.584785
  30
0
  11
63.2
  21
-1.569146
  31
0
  0
LINE
  5
1c3
  100
AcDbEntity
  8
1
  100
AcDbLine
  10
63.2
  20
-1.569146
  30
0
  11
63.3
  21
-1.554016
  31
0
  0
LINE
  5
1c4
  100
AcDbEntity
  8
1
  100
AcDbLine
  10
63.3
  20
-1.554016
  30
0
  11
63.4
  21
-1.539408
  31
0
  0
LINE
  5
1c5
  100
AcDbEntity
  8
1
  100
AcDbLine
  10
63.4
  20
-1.539408
  30
0
  11
63.5
  21
-1.525332
  31
0
  0
LINE
  5
1c6
  100
AcDbEntity
  8
1
  100
AcDbLine
  10
63.5
  20
-1.525332
  30
0
  11
63.6
  21
-1.511802
  31
0
  0
LINE
  5
1c7
  100
AcDbEntity
  8
1
  100
AcDbLine
  10
63.6
  20
-1.511802
  30
0
  11
63.7
  21
-1.498827
  31
0
  0
LINE
  5
1c8
  100
AcDbEntity
  8
1
  100
AcDbLine
  10
63.7
  20
-1.498827
  30
0
  11
63.8
  21
-1.486418
  31
0
  0
LINE
  5
1c9
  100
AcDbEntity
  8
1
  100
AcDbLine
  10
63.8
  20
-1.486418
  30
0
  11
63.9
  21
-1.474586
  31
0
  0
LINE
  5
1ca
  100
AcDbEntity
  8
1
  100
AcDbLine
  10
63.9
  20
-1.474586
  30
0
  11
64
  21
-1.46334
  31
0
  0
LINE
  5
1cb
  100
AcDbEntity
  8
1
  100
AcDbLine
  10
64
  20
-1.46334
  30
0
  11
64.1
  21
-1.452688
  31
0
  0
LINE
  5
1cc
  100
AcDbEntity
  8
1
  100
AcDbLine
  10
64.1
  20
-1.452688
  30
0
  11
64.2
  21
-1.44264
  31
0
  0
LINE
  5
1cd
  100
AcDbEntity
  8
1
  100
AcDbLine
  10
64.2
  20
-1.44264
  30
0
  11
64.3
  21
-1.433202
  31
0
  0
LINE
  5
1ce
  100
AcDbEntity
  8
1
  100
AcDbLine
  10
64.3
  20
-1.433202
  30
0
  11
64.4
  21
-1.424384
  31
0
  0
LINE
  5
1cf
  100
AcDbEntity
  8
1
  100
AcDbLine
  10
64.4
  20
-1.424384
  30
0
  11
64.5
  21
-1.416191
  31
0
  0
LINE
  5
1d0
  100
AcDbEntity
  8
1
  100
AcDbLine
  10
64.5
  20
-1.416191
  30
0
  11
64.6
  21
-1.40863
  31
0
  0
LINE
  5
1d1
  100
AcDbEntity
  8
1
  100
AcDbLine
  10
64.6
  20
-1.40863
  30
0
  11
64.7
  21
-1.401706
  31
0
  0
LINE
  5
1d2
  100
AcDbEntity
  8
1
  100
AcDbLine
  10
64.7
  20
-1.401706
  30
0
  11
64.8
  21
-1.395426
  31
0
  0
LINE
  5
1d3
  100
AcDbEntity
  8
1
  100
AcDbLine
  10
64.8
  20
-1.395426
  30
0
  11
64.9
  21
-1.389794
  31
0
  0
LINE
  5
1d4
  100
AcDbEntity
  8
1
  100
AcDbLine
  10
64.9
  20
-1.389794
  30
0
  11
65
  21
-1.384814
  31
0
  0
LINE
  5
1d5
  100
AcDbEntity
  8
1
  100
AcDbLine
  10
65
  20
-1.384814
  30
0
  11
65.1
  21
-1.380491
  31
0
  0
LINE
  5
1d6
  100
AcDbEntity
  8
1
  100
AcDbLine
  10
65.1
  20
-1.380491
  30
0
  11
65.2
  21
-1.376827
  31
0
  0
LINE
  5
1d7
  100
AcDbEntity
  8
1
  100
AcDbLine
  10
65.2
  20
-1.376827
  30
0
  11
65.3
  21
-1.373825
  31
0
  0
LINE
  5
1d8
  100
AcDbEntity
  8
1
  100
AcDbLine
  10
65.3
  20
-1.373825
  30
0
  11
65.4
  21
-1.371488
  31
0
  0
LINE
  5
1d9
  100
AcDbEntity
  8
1
  100
AcDbLine
  10
65.4
  20
-1.371488
  30
0
  11
65.5
  21
-1.369818
  31
0
  0
LINE
  5
1da
  100
AcDbEntity
  8
1
  100
AcDbLine
  10
65.5
  20
-1.369818
  30
0
  11
65.6
  21
-1.368815
  31
0
  0
LINE
  5
1db
  100
AcDbEntity
  8
1
  100
AcDbLine
  10
65.6
  20
-1.368815
  30
0
  11
65.7
  21
-1.368481
  31
0
  0
LINE
  5
1dc
  100
AcDbEntity
  8
1
  100
AcDbLine
  10
65.7
  20
-1.368481
  30
0
  11
65.7
  21
-1.158814
  31
0
  0
LINE
  5
1dd
  100
AcDbEntity
  8
1
  100
AcDbLine
  10
65.7
  20
-1.158814
  30
0
  11
65.8
  21
-1.158814
  31
0
  0
LINE
  5
1de
  100
AcDbEntity
  8
1
  100
AcDbLine
  10
65.8
  20
-1.158814
  30
0
  11
65.9
  21
-1.158814
  31
0
  0
LINE
  5
1df
  100
AcDbEntity
  8
1
  100
AcDbLine
  10
65.9
  20
-1.158814
  30
0
  11
66
  21
-1.158814
  31
0
  0
LINE
  5
1e0
  100
AcDbEntity
  8
1
  100
AcDbLine
  10
66
  20
-1.158814
  30
0
  11
66.1
  21
-1.158814
  31
0
  0
LINE
  5
1e1
  100
AcDbEntity
  8
1
  100
AcDbLine
  10
66.1
  20
-1.158814
  30
0
  11
66.2
  21
-1.158814
  31
0
  0
LINE
  5
1e2
  100
AcDbEntity
  8
1
  100
AcDbLine
  10
66.2
  20
-1.158814
  30
0
  11
66.3
  21
-1.158814
  31
0
  0
LINE
  5
1e3
  100
AcDbEntity
  8
1
  100
AcDbLine
  10
66.3
  20
-1.158814
  30
0
  11
66.4
  21
-1.158814
  31
0
  0
LINE
  5
1e4
  100
AcDbEntity
  8
1
  100
AcDbLine
  10
66.4
  20
-1.158814
  30
0
  11
66.5
  21
-1.158814
  31
0
  0
LINE
  5
1e5
  100
AcDbEntity
  8
1
  100
AcDbLine
  10
66.5
  20
-1.158814
  30
0
  11
66.6
  21
-1.158814
  31
0
  0
LINE
  5
1e6
  100
AcDbEntity
  8
1
  100
AcDbLine
  10
66.6
  20
-1.158814
  30
0
  11
66.7
  21
-1.158814
  31
0
  0
LINE
  5
1e7
  100
AcDbEntity
  8
1
  100
AcDbLine
  10
66.7
  20
-1.158814
  30
0
  11
66.8
  21
-1.158814
  31
0
  0
LINE
  5
1e8
  100
AcDbEntity
  8
1
  100
AcDbLine
  10
66.8
  20
-1.158814
  30
0
  11
66.9
  21
-1.158814
  31
0
  0
LINE
  5
1e9
  100
AcDbEntity
  8
1
  100
AcDbLine
  10
66.9
  20
-1.158814
  30
0
  11
67
  21
-1.158814
  31
0
  0
LINE
  5
1ea
  100
AcDbEntity
  8
1
  100
AcDbLine
  10
67
  20
-1.158814
  30
0
  11
67.1
  21
-1.158814
  31
0
  0
LINE
  5
1eb
  100
AcDbEntity
  8
1
  100
AcDbLine
  10
67.1
  20
-1.158814
  30
0
  11
67.2
  21
-1.158814
  31
0
  0
LINE
  5
1ec
  100
AcDbEntity
  8
1
  100
AcDbLine
  10
67.2
  20
-1.158814
  30
0
  11
67.3
  21
-1.158814
  31
0
  0
LINE
  5
1ed
  100
AcDbEntity
  8
1
  100
AcDbLine
  10
67.3
  20
-1.158814
  30
0
  11
67.4
  21
-1.158814
  31
0
  0
LINE
  5
1ee
  100
AcDbEntity
  8
1
  100
AcDbLine
  10
67.4
  20
-1.158814
  30
0
  11
67.5
  21
-1.158814
  31
0
  0
LINE
  5
1ef
  100
AcDbEntity
  8
1
  100
AcDbLine
  10
67.5
  20
-1.158814
  30
0
  11
67.6
  21
-1.158814
  31
0
  0
LINE
  5
1f0
  100
AcDbEntity
  8
1
  100
AcDbLine
  10
67.6
  20
-1.158814
  30
0
  11
67.7
  21
-1.158814
  31
0
  0
LINE
  5
1f1
  100
AcDbEntity
  8
1
  100
AcDbLine
  10
67.7
  20
-1.158814
  30
0
  11
67.8
  21
-1.158814
  31
0
  0
LINE
  5
1f2
  100
AcDbEntity
  8
1
  100
AcDbLine
  10
67.8
  20
-1.158814
  30
0
  11
67.9
  21
-1.158814
  31
0
  0
LINE
  5
1f3
  100
AcDbEntity
  8
1
  100
AcDbLine
  10
67.9
  20
-1.158814
  30
0
  11
68
  21
-1.158814
  31
0
  0
LINE
  5
1f4
  100
AcDbEntity
  8
1
  100
AcDbLine
  10
68
  20
-1.158814
  30
0
  11
68.1
  21
-1.158814
  31
0
  0
LINE
  5
1f5
  100
AcDbEntity
  8
1
  100
AcDbLine
  10
68.1
  20
-1.158814
  30
0
  11
68.2
  21
-1.158814
  31
0
  0
LINE
  5
1f6
  100
AcDbEntity
  8
1
  100
AcDbLine
  10
68.2
  20
-1.158814
  30
0
  11
68.3
  21
-1.158814
  31
0
  0
LINE
  5
1f7
  100
AcDbEntity
  8
1
  100
AcDbLine
  10
68.3
  20
-1.158814
  30
0
  11
68.4
  21
-1.158814
  31
0
  0
LINE
  5
1f8
  100
AcDbEntity
  8
1
  100
AcDbLine
  10
68.4
  20
-1.158814
  30
0
  11
68.5
  21
-1.158814
  31
0
  0
LINE
  5
1f9
  100
AcDbEntity
  8
1
  100
AcDbLine
  10
68.5
  20
-1.158814
  30
0
  11
68.6
  21
-1.158814
  31
0
  0
LINE
  5
1fa
  100
AcDbEntity
  8
1
  100
AcDbLine
  10
68.6
  20
-1.158814
  30
0
  11
68.7
  21
-1.158814
  31
0
  0
LINE
  5
1fb
  100
AcDbEntity
  8
1
  100
AcDbLine
  10
68.7
  20
-1.158814
  30
0
  11
68.8
  21
-1.158814
  31
0
  0
LINE
  5
1fc
  100
AcDbEntity
  8
1
  100
AcDbLine
  10
68.8
  20
-1.158814
  30
0
  11
68.9
  21
-1.158814
  31
0
  0
LINE
  5
1fd
  100
AcDbEntity
  8
1
  100
AcDbLine
  10
68.9
  20
-1.158814
  30
0
  11
69
  21
-1.158814
  31
0
  0
LINE
  5
1fe
  100
AcDbEntity
  8
1
  100
AcDbLine
  10
69
  20
-1.158814
  30
0
  11
69.1
  21
-1.158814
  31
0
  0
LINE
  5
1ff
  100
AcDbEntity
  8
1
  100
AcDbLine
  10
69.1
  20
-1.158814
  30
0
  11
69.2
  21
-1.158814
  31
0
  0
LINE
  5
200
  100
AcDbEntity
  8
1
  100
AcDbLine
  10
69.2
  20
-1.158814
  30
0
  11
69.3
  21
-1.158814
  31
0
  0
LINE
  5
201
  100
AcDbEntity
  8
1
  100
AcDbLine
  10
69.3
  20
-1.158814
  30
0
  11
69.4
  21
-1.158814
  31
0
  0
LINE
  5
202
  100
AcDbEntity
  8
1
  100
AcDbLine
  10
69.4
  20
-1.158814
  30
0
  11
69.5
  21
-1.158814
  31
0
  0
LINE
  5
203
  100
AcDbEntity
  8
1
  100
AcDbLine
  10
69.5
  20
-1.158814
  30
0
  11
69.6
  21
-1.158814
  31
0
  0
LINE
  5
204
  100
AcDbEntity
  8
1
  100
AcDbLine
  10
69.6
  20
-1.158814
  30
0
  11
69.7
  21
-1.158814
  31
0
  0
LINE
  5
205
  100
AcDbEntity
  8
1
  100
AcDbLine
  10
69.7
  20
-1.158814
  30
0
  11
69.8
  21
-1.158814
  31
0
  0
LINE
  5
206
  100
AcDbEntity
  8
1
  100
AcDbLine
  10
69.8
  20
-1.158814
  30
0
  11
69.9
  21
-1.158814
  31
0
  0
LINE
  5
207
  100
AcDbEntity
  8
1
  100
AcDbLine
  10
69.9
  20
-1.158814
  30
0
  11
70
  21
-1.158814
  31
0
  0
LINE
  5
208
  100
AcDbEntity
  8
1
  100
AcDbLine
  10
70
  20
0
  30
0
  11
70
  21
-3.75
  31
0
  0
LINE
  5
209
  100
AcDbEntity
  8
1
  100
AcDbLine
  10
70
  20
-3.75
  30
0
  11
65.7
  21
-3.75
  31
0
  0
LINE
  5
20a
  100
AcDbEntity
  8
1
  100
AcDbLine
  10
65.7
  20
-3.75
  30
0
  11
65.8
  21
-3.75
  31
0
  0
LINE
  5
20b
  100
AcDbEntity
  8
1
  100
AcDbLine
  10
65.8
  20
-3.75
  30
0
  11
65.9
  21
-3.75
  31
0
  0
LINE
  5
20c
  100
AcDbEntity
  8
1
  100
AcDbLine
  10
65.9
  20
-3.75
  30
0
  11
66
  21
-3.75
  31
0
  0
LINE
  5
20d
  100
AcDbEntity
  8
1
  100
AcDbLine
  10
66
  20
-3.75
  30
0
  11
66.1
  21
-3.75
  31
0
  0
LINE
  5
20e
  100
AcDbEntity
  8
1
  100
AcDbLine
  10
66.1
  20
-3.75
  30
0
  11
66.2
  21
-3.75
  31
0
  0
LINE
  5
20f
  100
AcDbEntity
  8
1
  100
AcDbLine
  10
66.2
  20
-3.75
  30
0
  11
66.3
  21
-3.75
  31
0
  0
LINE
  5
210
  100
AcDbEntity
  8
1
  100
AcDbLine
  10
66.3
  20
-3.75
  30
0
  11
66.4
  21
-3.75
  31
0
  0
LINE
  5
211
  100
AcDbEntity
  8
1
  100
AcDbLine
  10
66.4
  20
-3.75
  30
0
  11
66.5
  21
-3.75
  31
0
  0
LINE
  5
212
  100
AcDbEntity
  8
1
  100
AcDbLine
  10
66.5
  20
-3.75
  30
0
  11
66.6
  21
-3.75
  31
0
  0
LINE
  5
213
  100
AcDbEntity
  8
1
  100
AcDbLine
  10
66.6
  20
-3.75
  30
0
  11
66.7
  21
-3.75
  31
0
  0
LINE
  5
214
  100
AcDbEntity
  8
1
  100
AcDbLine
  10
66.7
  20
-3.75
  30
0
  11
66.8
  21
-3.75
  31
0
  0
LINE
  5
215
  100
AcDbEntity
  8
1
  100
AcDbLine
  10
66.8
  20
-3.75
  30
0
  11
66.9
  21
-3.75
  31
0
  0
LINE
  5
216
  100
AcDbEntity
  8
1
  100
AcDbLine
  10
66.9
  20
-3.75
  30
0
  11
67
  21
-3.75
  31
0
  0
LINE
  5
217
  100
AcDbEntity
  8
1
  100
AcDbLine
  10
67
  20
-3.75
  30
0
  11
67.1
  21
-3.75
  31
0
  0
LINE
  5
218
  100
AcDbEntity
  8
1
  100
AcDbLine
  10
67.1
  20
-3.75
  30
0
  11
67.2
  21
-3.75
  31
0
  0
LINE
  5
219
  100
AcDbEntity
  8
1
  100
AcDbLine
  10
67.2
  20
-3.75
  30
0
  11
67.3
  21
-3.75
  31
0
  0
LINE
  5
21a
  100
AcDbEntity
  8
1
  100
AcDbLine
  10
67.3
  20
-3.75
  30
0
  11
67.4
  21
-3.75
  31
0
  0
LINE
  5
21b
  100
AcDbEntity
  8
1
  100
AcDbLine
  10
67.4
  20
-3.75
  30
0
  11
67.5
  21
-3.75
  31
0
  0
LINE
  5
21c
  100
AcDbEntity
  8
1
  100
AcDbLine
  10
67.5
  20
-3.75
  30
0
  11
67.6
  21
-3.75
  31
0
  0
LINE
  5
21d
  100
AcDbEntity
  8
1
  100
AcDbLine
  10
67.6
  20
-3.75
  30
0
  11
67.7
  21
-3.75
  31
0
  0
LINE
  5
21e
  100
AcDbEntity
  8
1
  100
AcDbLine
  10
67.7
  20
-3.75
  30
0
  11
67.8
  21
-3.75
  31
0
  0
LINE
  5
21f
  100
AcDbEntity
  8
1
  100
AcDbLine
  10
67.8
  20
-3.75
  30
0
  11
67.9
  21
-3.75
  31
0
  0
LINE
  5
220
  100
AcDbEntity
  8
1
  100
AcDbLine
  10
67.9
  20
-3.75
  30
0
  11
68
  21
-3.75
  31
0
  0
LINE
  5
221
  100
AcDbEntity
  8
1
  100
AcDbLine
  10
68
  20
-3.75
  30
0
  11
68.1
  21
-3.75
  31
0
  0
LINE
  5
222
  100
AcDbEntity
  8
1
  100
AcDbLine
  10
68.1
  20
-3.75
  30
0
  11
68.2
  21
-3.75
  31
0
  0
LINE
  5
223
  100
AcDbEntity
  8
1
  100
AcDbLine
  10
68.2
  20
-3.75
  30
0
  11
68.3
  21
-3.75
  31
0
  0
LINE
  5
224
  100
AcDbEntity
  8
1
  100
AcDbLine
  10
68.3
  20
-3.75
  30
0
  11
68.4
  21
-3.75
  31
0
  0
LINE
  5
225
  100
AcDbEntity
  8
1
  100
AcDbLine
  10
68.4
  20
-3.75
  30
0
  11
68.5
  21
-3.75
  31
0
  0
LINE
  5
226
  100
AcDbEntity
  8
1
  100
AcDbLine
  10
68.5
  20
-3.75
  30
0
  11
68.6
  21
-3.75
  31
0
  0
LINE
  5
227
  100
AcDbEntity
  8
1
  100
AcDbLine
  10
68.6
  20
-3.75
  30
0
  11
68.7
  21
-3.75
  31
0
  0
LINE
  5
228
  100
AcDbEntity
  8
1
  100
AcDbLine
  10
68.7
  20
-3.75
  30
0
  11
68.8
  21
-3.75
  31
0
  0
LINE
  5
229
  100
AcDbEntity
  8
1
  100
AcDbLine
  10
68.8
  20
-3.75
  30
0
  11
68.9
  21
-3.75
  31
0
  0
LINE
  5
22a
  100
AcDbEntity
  8
1
  100
AcDbLine
  10
68.9
  20
-3.75
  30
0
  11
69
  21
-3.75
  31
0
  0
LINE
  5
22b
  100
AcDbEntity
  8
1
  100
AcDbLine
  10
69
  20
-3.75
  30
0
  11
69.1
  21
-3.75
  31
0
  0
LINE
  5
22c
  100
AcDbEntity
  8
1
  100
AcDbLine
  10
69.1
  20
-3.75
  30
0
  11
69.2
  21
-3.75
  31
0
  0
LINE
  5
22d
  100
AcDbEntity
  8
1
  100
AcDbLine
  10
69.2
  20
-3.75
  30
0
  11
69.3
  21
-3.75
  31
0
  0
LINE
  5
22e
  100
AcDbEntity
  8
1
  100
AcDbLine
  10
69.3
  20
-3.75
  30
0
  11
69.4
  21
-3.75
  31
0
  0
LINE
  5
22f
  100
AcDbEntity
  8
1
  100
AcDbLine
  10
69.4
  20
-3.75
  30
0
  11
69.5
  21
-3.75
  31
0
  0
LINE
  5
230
  100
AcDbEntity
  8
1
  100
AcDbLine
  10
69.5
  20
-3.75
  30
0
  11
69.6
  21
-3.75
  31
0
  0
LINE
  5
231
  100
AcDbEntity
  8
1
  100
AcDbLine
  10
69.6
  20
-3.75
  30
0
  11
69.7
  21
-3.75
  31
0
  0
LINE
  5
232
  100
AcDbEntity
  8
1
  100
AcDbLine
  10
69.7
  20
-3.75
  30
0
  11
69.8
  21
-3.75
  31
0
  0
LINE
  5
233
  100
AcDbEntity
  8
1
  100
AcDbLine
  10
69.8
  20
-3.75
  30
0
  11
69.9
  21
-3.75
  31
0
  0
LINE
  5
234
  100
AcDbEntity
  8
1
  100
AcDbLine
  10
69.9
  20
-3.75
  30
0
  11
70
  21
-3.75
  31
0
  0
LINE
  5
235
  100
AcDbEntity
  8
1
  100
AcDbLine
  10
70
  20
-3.75
  30
0
  11
70
  21
3.75
  31
0
  0
LINE
  5
236
  100
AcDbEntity
  8
1
  100
AcDbLine
  10
70
  20
3.75
  30
0
  11
69.9
  21
3.75
  31
0
  0
LINE
  5
237
  100
AcDbEntity
  8
1
  100
AcDbLine
  10
69.9
  20
3.75
  30
0
  11
69.8
  21
3.75
  31
0
  0
LINE
  5
238
  100
AcDbEntity
  8
1
  100
AcDbLine
  10
69.8
  20
3.75
  30
0
  11
69.7
  21
3.75
  31
0
  0
LINE
  5
239
  100
AcDbEntity
  8
1
  100
AcDbLine
  10
69.7
  20
3.75
  30
0
  11
69.6
  21
3.75
  31
0
  0
LINE
  5
23a
  100
AcDbEntity
  8
1
  100
AcDbLine
  10
69.6
  20
3.75
  30
0
  11
69.5
  21
3.75
  31
0
  0
LINE
  5
23b
  100
AcDbEntity
  8
1
  100
AcDbLine
  10
69.5
  20
3.75
  30
0
  11
69.4
  21
3.75
  31
0
  0
LINE
  5
23c
  100
AcDbEntity
  8
1
  100
AcDbLine
  10
69.4
  20
3.75
  30
0
  11
69.3
  21
3.75
  31
0
  0
LINE
  5
23d
  100
AcDbEntity
  8
1
  100
AcDbLine
  10
69.3
  20
3.75
  30
0
  11
69.2
  21
3.75
  31
0
  0
LINE
  5
23e
  100
AcDbEntity
  8
1
  100
AcDbLine
  10
69.2
  20
3.75
  30
0
  11
69.1
  21
3.75
  31
0
  0
LINE
  5
23f
  100
AcDbEntity
  8
1
  100
AcDbLine
  10
69.1
  20
3.75
  30
0
  11
69
  21
3.75
  31
0
  0
LINE
  5
240
  100
AcDbEntity
  8
1
  100
AcDbLine
  10
69
  20
3.75
  30
0
  11
68.9
  21
3.75
  31
0
  0
LINE
  5
241
  100
AcDbEntity
  8
1
  100
AcDbLine
  10
68.9
  20
3.75
  30
0
  11
68.8
  21
3.75
  31
0
  0
LINE
  5
242
  100
AcDbEntity
  8
1
  100
AcDbLine
  10
68.8
  20
3.75
  30
0
  11
68.7
  21
3.75
  31
0
  0
LINE
  5
243
  100
AcDbEntity
  8
1
  100
AcDbLine
  10
68.7
  20
3.75
  30
0
  11
68.6
  21
3.75
  31
0
  0
LINE
  5
244
  100
AcDbEntity
  8
1
  100
AcDbLine
  10
68.6
  20
3.75
  30
0
  11
68.5
  21
3.75
  31
0
  0
LINE
  5
245
  100
AcDbEntity
  8
1
  100
AcDbLine
  10
68.5
  20
3.75
  30
0
  11
68.4
  21
3.75
  31
0
  0
LINE
  5
246
  100
AcDbEntity
  8
1
  100
AcDbLine
  10
68.4
  20
3.75
  30
0
  11
68.3
  21
3.75
  31
0
  0
LINE
  5
247
  100
AcDbEntity
  8
1
  100
AcDbLine
  10
68.3
  20
3.75
  30
0
  11
68.2
  21
3.75
  31
0
  0
LINE
  5
248
  100
AcDbEntity
  8
1
  100
AcDbLine
  10
68.2
  20
3.75
  30
0
  11
68.1
  21
3.75
  31
0
  0
LINE
  5
249
  100
AcDbEntity
  8
1
  100
AcDbLine
  10
68.1
  20
3.75
  30
0
  11
68
  21
3.75
  31
0
  0
LINE
  5
24a
  100
AcDbEntity
  8
1
  100
AcDbLine
  10
68
  20
3.75
  30
0
  11
67.9
  21
3.75
  31
0
  0
LINE
  5
24b
  100
AcDbEntity
  8
1
  100
AcDbLine
  10
67.9
  20
3.75
  30
0
  11
67.8
  21
3.75
  31
0
  0
LINE
  5
24c
  100
AcDbEntity
  8
1
  100
AcDbLine
  10
67.8
  20
3.75
  30
0
  11
67.7
  21
3.75
  31
0
  0
LINE
  5
24d
  100
AcDbEntity
  8
1
  100
AcDbLine
  10
67.7
  20
3.75
  30
0
  11
67.6
  21
3.75
  31
0
  0
LINE
  5
24e
  100
AcDbEntity
  8
1
  100
AcDbLine
  10
67.6
  20
3.75
  30
0
  11
67.5
  21
3.75
  31
0
  0
LINE
  5
24f
  100
AcDbEntity
  8
1
  100
AcDbLine
  10
67.5
  20
3.75
  30
0
  11
67.4
  21
3.75
  31
0
  0
LINE
  5
250
  100
AcDbEntity
  8
1
  100
AcDbLine
  10
67.4
  20
3.75
  30
0
  11
67.3
  21
3.75
  31
0
  0
LINE
  5
251
  100
AcDbEntity
  8
1
  100
AcDbLine
  10
67.3
  20
3.75
  30
0
  11
67.2
  21
3.75
  31
0
  0
LINE
  5
252
  100
AcDbEntity
  8
1
  100
AcDbLine
  10
67.2
  20
3.75
  30
0
  11
67.1
  21
3.75
  31
0
  0
LINE
  5
253
  100
AcDbEntity
  8
1
  100
AcDbLine
  10
67.1
  20
3.75
  30
0
  11
67
  21
3.75
  31
0
  0
LINE
  5
254
  100
AcDbEntity
  8
1
  100
AcDbLine
  10
67
  20
3.75
  30
0
  11
66.9
  21
3.75
  31
0
  0
LINE
  5
255
  100
AcDbEntity
  8
1
  100
AcDbLine
  10
66.9
  20
3.75
  30
0
  11
66.8
  21
3.75
  31
0
  0
LINE
  5
256
  100
AcDbEntity
  8
1
  100
AcDbLine
  10
66.8
  20
3.75
  30
0
  11
66.7
  21
3.75
  31
0
  0
LINE
  5
257
  100
AcDbEntity
  8
1
  100
AcDbLine
  10
66.7
  20
3.75
  30
0
  11
66.6
  21
3.75
  31
0
  0
LINE
  5
258
  100
AcDbEntity
  8
1
  100
AcDbLine
  10
66.6
  20
3.75
  30
0
  11
66.5
  21
3.75
  31
0
  0
LINE
  5
259
  100
AcDbEntity
  8
1
  100
AcDbLine
  10
66.5
  20
3.75
  30
0
  11
66.4
  21
3.75
  31
0
  0
LINE
  5
25a
  100
AcDbEntity
  8
1
  100
AcDbLine
  10
66.4
  20
3.75
  30
0
  11
66.3
  21
3.75
  31
0
  0
LINE
  5
25b
  100
AcDbEntity
  8
1
  100
AcDbLine
  10
66.3
  20
3.75
  30
0
  11
66.2
  21
3.75
  31
0
  0
LINE
  5
25c
  100
AcDbEntity
  8
1
  100
AcDbLine
  10
66.2
  20
3.75
  30
0
  11
66.1
  21
3.75
  31
0
  0
LINE
  5
25d
  100
AcDbEntity
  8
1
  100
AcDbLine
  10
66.1
  20
3.75
  30
0
  11
66
  21
3.75
  31
0
  0
LINE
  5
25e
  100
AcDbEntity
  8
1
  100
AcDbLine
  10
66
  20
3.75
  30
0
  11
65.9
  21
3.75
  31
0
  0
LINE
  5
25f
  100
AcDbEntity
  8
1
  100
AcDbLine
  10
65.9
  20
3.75
  30
0
  11
65.8
  21
3.75
  31
0
  0
LINE
  5
260
  100
AcDbEntity
  8
1
  100
AcDbLine
  10
65.8
  20
3.75
  30
0
  11
65.7
  21
3.75
  31
0
  0
LINE
  5
261
  100
AcDbEntity
  8
1
  100
AcDbLine
  10
65.7
  20
3.75
  30
0
  11
65.7
  21
2.917656
  31
0
  0
LINE
  5
262
  100
AcDbEntity
  8
1
  100
AcDbLine
  10
65.7
  20
2.917656
  30
0
  11
65.6
  21
2.917666
  31
0
  0
LINE
  5
263
  100
AcDbEntity
  8
1
  100
AcDbLine
  10
65.6
  20
2.917666
  30
0
  11
65.5
  21
2.917696
  31
0
  0
LINE
  5
264
  100
AcDbEntity
  8
1
  100
AcDbLine
  10
65.5
  20
2.917696
  30
0
  11
65.4
  21
2.917745
  31
0
  0
LINE
  5
265
  100
AcDbEntity
  8
1
  100
AcDbLine
  10
65.4
  20
2.917745
  30
0
  11
65.3
  21
2.917813
  31
0
  0
LINE
  5
266
  100
AcDbEntity
  8
1
  100
AcDbLine
  10
65.3
  20
2.917813
  30
0
  11
65.2
  21
2.9179
  31
0
  0
LINE
  5
267
  100
AcDbEntity
  8
1
  100
AcDbLine
  10
65.2
  20
2.9179
  30
0
  11
65.1
  21
2.918003
  31
0
  0
LINE
  5
268
  100
AcDbEntity
  8
1
  100
AcDbLine
  10
65.1
  20
2.918003
  30
0
  11
65
  21
2.918121
  31
0
  0
LINE
  5
269
  100
AcDbEntity
  8
1
  100
AcDbLine
  10
65
  20
2.918121
  30
0
  11
64.9
  21
2.918253
  31
0
  0
LINE
  5
26a
  100
AcDbEntity
  8
1
  100
AcDbLine
  10
64.9
  20
2.918253
  30
0
  11
64.8
  21
2.918396
  31
0
  0
LINE
  5
26b
  100
AcDbEntity
  8
1
  100
AcDbLine
  10
64.8
  20
2.918396
  30
0
  11
64.7
  21
2.918549
  31
0
  0
LINE
  5
26c
  100
AcDbEntity
  8
1
  100
AcDbLine
  10
64.7
  20
2.918549
  30
0
  11
64.6
  21
2.918709
  31
0
  0
LINE
  5
26d
  100
AcDbEntity
  8
1
  100
AcDbLine
  10
64.6
  20
2.918709
  30
0
  11
64.5
  21
2.918873
  31
0
  0
LINE
  5
26e
  100
AcDbEntity
  8
1
  100
AcDbLine
  10
64.5
  20
2.918873
  30
0
  11
64.4
  21
2.919039
  31
0
  0
LINE
  5
26f
  100
AcDbEntity
  8
1
  100
AcDbLine
  10
64.4
  20
2.919039
  30
0
  11
64.3
  21
2.919202
  31
0
  0
LINE
  5
270
  100
AcDbEntity
  8
1
  100
AcDbLine
  10
64.3
  20
2.919202
  30
0
  11
64.2
  21
2.919361
  31
0
  0
LINE
  5
271
  100
AcDbEntity
  8
1
  100
AcDbLine
  10
64.2
  20
2.919361
  30
0
  11
64.1
  21
2.919511
  31
0
  0
LINE
  5
272
  100
AcDbEntity
  8
1
  100
AcDbLine
  10
64.1
  20
2.919511
  30
0
  11
64
  21
2.919649
  31
0
  0
LINE
  5
273
  100
AcDbEntity
  8
1
  100
AcDbLine
  10
64
  20
2.919649
  30
0
  11
63.9
  21
2.919769
  31
0
  0
LINE
  5
274
  100
AcDbEntity
  8
1
  100
AcDbLine
  10
63.9
  20
2.919769
  30
0
  11
63.8
  21
2.919869
  31
0
  0
LINE
  5
275
  100
AcDbEntity
  8
1
  100
AcDbLine
  10
63.8
  20
2.919869
  30
0
  11
63.7
  21
2.919944
  31
0
  0
LINE
  5
276
  100
AcDbEntity
  8
1
  100
AcDbLine
  10
63.7
  20
2.919944
  30
0
  11
63.6
  21
2.919989
  31
0
  0
LINE
  5
277
  100
AcDbEntity
  8
1
  100
AcDbLine
  10
63.6
  20
2.919989
  30
0
  11
63.522868
  21
2.92
  31
0
  0
LINE
  5
278
  100
AcDbEntity
  8
1
  100
AcDbLine
  10
38.755786
  20
-5
  30
0
  11
38.755786
  21
5
  31
0
  0
LINE
  5
279
  100
AcDbEntity
  8
1
  100
AcDbLine
  10
38.755786
  20
5
  30
0
  11
38.755786
  21
-5
  31
0
  0
LINE
  5
27a
  100
AcDbEntity
  8
SK1
  100
AcDbLine
  10
37.76
  20
5
  30
0
  11
0.8
  21
5
  31
0
  0
LINE
  5
27b
  100
AcDbEntity
  8
SK1
  100
AcDbLine
  10
0.8
  20
5
  30
0
  11
0
  21
4.2
  31
0
  0
LINE
  5
27c
  100
AcDbEntity
  8
SK1
  100
AcDbLine
  10
37.76
  20
-5
  30
0
  11
0.8
  21
-5
  31
0
  0
LINE
  5
27d
  100
AcDbEntity
  8
SK1
  100
AcDbLine
  10
0.8
  20
-5
  30
0
  11
0
  21
-4.2
  31
0
  0
LINE
  5
27e
  100
AcDbEntity
  8
SK1
  100
AcDbLine
  10
0.8
  20
5
  30
0
  11
0.8
  21
-5
  31
0
  0
LINE
  5
27f
  100
AcDbEntity
  8
SK1
  100
AcDbLine
  10
0
  20
4.2
  30
0
  11
0
  21
-4.2
  31
0
  0
LINE
  5
280
  100
AcDbEntity
  8
SK1
  100
AcDbLine
  10
38.8001
  20
1.40688
  30
0
  11
39.1669
  21
1.0401
  31
0
  0
LINE
  5
281
  100
AcDbEntity
  8
SK1
  100
AcDbLine
  10
38.2928
  20
1.66666
  30
0
  11
39.4267
  21
0.532833
  31
0
  0
LINE
  5
282
  100
AcDbEntity
  8
SK1
  100
AcDbLine
  10
37.9754
  20
1.73657
  30
0
  11
39.4966
  21
0.215434
  31
0
  0
LINE
  5
283
  100
AcDbEntity
  8
SK1
  100
AcDbLine
  10
37.76
  20
1.70452
  30
0
  11
39.4645
  21
0
  31
0
  0
LINE
  5
284
  100
AcDbEntity
  8
SK1
  100
AcDbLine
  10
37.76
  20
1.45703
  30
0
  11
39.217
  21
0
  31
0
  0
LINE
  5
285
  100
AcDbEntity
  8
SK1
  100
AcDbLine
  10
37.76
  20
1.20954
  30
0
  11
38.9695
  21
0
  31
0
  0
LINE
  5
286
  100
AcDbEntity
  8
SK1
  100
AcDbLine
  10
37.76
  20
0.962054
  30
0
  11
38.7221
  21
0
  31
0
  0
LINE
  5
287
  100
AcDbEntity
  8
SK1
  100
AcDbLine
  10
37.76
  20
0.714566
  30
0
  11
38.4746
  21
0
  31
0
  0
LINE
  5
288
  100
AcDbEntity
  8
SK1
  100
AcDbLine
  10
37.76
  20
0.467079
  30
0
  11
38.2271
  21
0
  31
0
  0
LINE
  5
289
  100
AcDbEntity
  8
SK1
  100
AcDbLine
  10
37.76
  20
0.219592
  30
0
  11
37.9796
  21
0
  31
0
  0
LINE
  5
28a
  100
AcDbEntity
  8
SK1
  100
AcDbLine
  10
37.76
  20
1.70452
  30
0
  11
37.8041
  21
1.74861
  31
0
  0
LINE
  5
28b
  100
AcDbEntity
  8
SK1
  100
AcDbLine
  10
37.76
  20
1.45703
  30
0
  11
38.031
  21
1.72802
  31
0
  0
LINE
  5
28c
  100
AcDbEntity
  8
SK1
  100
AcDbLine
  10
37.76
  20
1.20954
  30
0
  11
38.2342
  21
1.6837
  31
0
  0
LINE
  5
28d
  100
AcDbEntity
  8
SK1
  100
AcDbLine
  10
37.76
  20
0.962054
  30
0
  11
38.4188
  21
1.62082
  31
0
  0
LINE
  5
28e
  100
AcDbEntity
  8
SK1
  100
AcDbLine
  10
37.76
  20
0.714566
  30
0
  11
38.5871
  21
1.54167
  31
0
  0
LINE
  5
28f
  100
AcDbEntity
  8
SK1
  100
AcDbLine
  10
37.76
  20
0.467079
  30
0
  11
38.741
  21
1.44812
  31
0
  0
LINE
  5
290
  100
AcDbEntity
  8
SK1
  100
AcDbLine
  10
37.76
  20
0.219592
  30
0
  11
38.8826
  21
1.34216
  31
0
  0
LINE
  5
291
  100
AcDbEntity
  8
SK1
  100
AcDbLine
  10
37.7879
  20
0
  30
0
  11
39.0108
  21
1.22288
  31
0
  0
LINE
  5
292
  100
AcDbEntity
  8
SK1
  100
AcDbLine
  10
38.0354
  20
0
  30
0
  11
39.127
  21
1.09157
  31
0
  0
LINE
  5
293
  100
AcDbEntity
  8
SK1
  100
AcDbLine
  10
38.2829
  20
0
  30
0
  11
39.2307
  21
0.947822
  31
0
  0
LINE
  5
294
  100
AcDbEntity
  8
SK1
  100
AcDbLine
  10
38.5304
  20
0
  30
0
  11
39.3205
  21
0.790145
  31
0
  0
LINE
  5
295
  100
AcDbEntity
  8
SK1
  100
AcDbLine
  10
38.7778
  20
0
  30
0
  11
39.3964
  21
0.618517
  31
0
  0
LINE
  5
296
  100
AcDbEntity
  8
SK1
  100
AcDbLine
  10
39.0253
  20
0
  30
0
  11
39.456
  21
0.430696
  31
0
  0
LINE
  5
297
  100
AcDbEntity
  8
SK1
  100
AcDbLine
  10
39.2728
  20
0
  30
0
  11
39.4956
  21
0.222827
  31
0
  0
LINE
  5
298
  100
AcDbEntity
  8
SK1
  100
AcDbLine
  10
37.76
  20
0
  30
0
  11
37.76
  21
1.75
  31
0
  0
LINE
  5
299
  100
AcDbEntity
  8
SK1
  100
AcDbLine
  10
37.76
  20
0
  30
0
  11
39.51
  21
0
  31
0
  0
ARC
  5
29a
  100
AcDbEntity
  8
SK1
  100
AcDbCircle
  10
37.76
  20
0
  30
0
  40
1.75
  100
AcDbArc
  50
0
  51
90
  0
ARC
  5
29b
  100
AcDbEntity
  8
SK1
  100
AcDbCircle
  10
37.76
  20
0
  30
0
  40
1.75
  100
AcDbArc
  50
90
  51
180
  0
LINE
  5
29c
  100
AcDbEntity
  8
SK1
  100
AcDbLine
  10
37.7321
  20
0
  30
0
  11
37.76
  21
-0.027896
  31
0
  0
LINE
  5
29d
  100
AcDbEntity
  8
SK1
  100
AcDbLine
  10
37.4846
  20
0
  30
0
  11
37.76
  21
-0.275383
  31
0
  0
LINE
  5
29e
  100
AcDbEntity
  8
SK1
  100
AcDbLine
  10
37.2371
  20
0
  30
0
  11
37.76
  21
-0.522871
  31
0
  0
LINE
  5
29f
  100
AcDbEntity
  8
SK1
  100
AcDbLine
  10
36.9896
  20
0
  30
0
  11
37.76
  21
-0.770358
  31
0
  0
LINE
  5
2a0
  100
AcDbEntity
  8
SK1
  100
AcDbLine
  10
36.7422
  20
0
  30
0
  11
37.76
  21
-1.01785
  31
0
  0
LINE
  5
2a1
  100
AcDbEntity
  8
SK1
  100
AcDbLine
  10
36.4947
  20
0
  30
0
  11
37.76
  21
-1.26533
  31
0
  0
LINE
  5
2a2
  100
AcDbEntity
  8
SK1
  100
AcDbLine
  10
36.2472
  20
0
  30
0
  11
37.76
  21
-1.51282
  31
0
  0
LINE
  5
2a3
  100
AcDbEntity
  8
SK1
  100
AcDbLine
  10
36.0103
  20
-0.010642
  30
0
  11
37.7494
  21
-1.74967
  31
0
  0
LINE
  5
2a4
  100
AcDbEntity
  8
SK1
  100
AcDbLine
  10
36.0336
  20
-0.281429
  30
0
  11
37.4786
  21
-1.72637
  31
0
  0
LINE
  5
2a5
  100
AcDbEntity
  8
SK1
  100
AcDbLine
  10
36.1239
  20
-0.619147
  30
0
  11
37.1409
  21
-1.63613
  31
0
  0
LINE
  5
2a6
  100
AcDbEntity
  8
SK1
  100
AcDbLine
  10
36.0114
  20
-0.044098
  30
0
  11
36.0555
  21
0
  31
0
  0
LINE
  5
2a7
  100
AcDbEntity
  8
SK1
  100
AcDbLine
  10
36.032
  20
-0.270991
  30
0
  11
36.303
  21
0
  31
0
  0
LINE
  5
2a8
  100
AcDbEntity
  8
SK1
  100
AcDbLine
  10
36.0763
  20
-0.474162
  30
0
  11
36.5505
  21
0
  31
0
  0
LINE
  5
2a9
  100
AcDbEntity
  8
SK1
  100
AcDbLine
  10
36.1392
  20
-0.658762
  30
0
  11
36.7979
  21
0
  31
0
  0
LINE
  5
2aa
  100
AcDbEntity
  8
SK1
  100
AcDbLine
  10
36.2183
  20
-0.827105
  30
0
  11
37.0454
  21
0
  31
0
  0
LINE
  5
2ab
  100
AcDbEntity
  8
SK1
  100
AcDbLine
  10
36.3119
  20
-0.981039
  30
0
  11
37.2929
  21
0
  31
0
  0
LINE
  5
2ac
  100
AcDbEntity
  8
SK1
  100
AcDbLine
  10
36.4178
  20
-1.12257
  30
0
  11
37.5404
  21
0
  31
0
  0
LINE
  5
2ad
  100
AcDbEntity
  8
SK1
  100
AcDbLine
  10
36.5371
  20
-1.25077
  30
0
  11
37.76
  21
-0.027896
  31
0
  0
LINE
  5
2ae
  100
AcDbEntity
  8
SK1
  100
AcDbLine
  10
36.6684
  20
-1.36695
  30
0
  11
37.76
  21
-0.275383
  31
0
  0
LINE
  5
2af
  100
AcDbEntity
  8
SK1
  100
AcDbLine
  10
36.8122
  20
-1.47069
  30
0
  11
37.76
  21
-0.522871
  31
0
  0
LINE
  5
2b0
  100
AcDbEntity
  8
SK1
  100
AcDbLine
  10
36.9699
  20
-1.5605
  30
0
  11
37.76
  21
-0.770358
  31
0
  0
LINE
  5
2b1
  100
AcDbEntity
  8
SK1
  100
AcDbLine
  10
37.1415
  20
-1.63636
  30
0
  11
37.76
  21
-1.01785
  31
0
  0
LINE
  5
2b2
  100
AcDbEntity
  8
SK1
  100
AcDbLine
  10
37.3293
  20
-1.69603
  30
0
  11
37.76
  21
-1.26533
  31
0
  0
LINE
  5
2b3
  100
AcDbEntity
  8
SK1
  100
AcDbLine
  10
37.5372
  20
-1.73565
  30
0
  11
37.76
  21
-1.51282
  31
0
  0
LINE
  5
2b4
  100
AcDbEntity
  8
SK1
  100
AcDbLine
  10
37.76
  20
0
  30
0
  11
36.01
  21
0
  31
0
  0
LINE
  5
2b5
  100
AcDbEntity
  8
SK1
  100
AcDbLine
  10
37.76
  20
-1.75
  30
0
  11
37.76
  21
0
  31
0
  0
ARC
  5
2b6
  100
AcDbEntity
  8
SK1
  100
AcDbCircle
  10
37.76
  20
0
  30
0
  40
1.75
  100
AcDbArc
  50
180
  51
270
  0
ARC
  5
2b7
  100
AcDbEntity
  8
SK1
  100
AcDbCircle
  10
37.76
  20
0
  30
0
  40
1.75
  100
AcDbArc
  50
270
  51
0
  0
LINE
  5
328
  100
AcDbEntity
  8
NOCUT
  100
AcDbLine
  10
65.7
  20
0
  30
0
  11
65.7
  21
2.92
  31
0
  0
LINE
  5
329
  100
AcDbEntity
  8
NOCUT
  100
AcDbLine
  10
65.7
  20
2.92
  30
0
  11
41.25
  21
2.92
  31
0
  0
ARC
  5
32a
  100
AcDbEntity
  8
NOCUT
  100
AcDbCircle
  10
41.25
  20
3.92
  30
0
  40
1
  100
AcDbArc
  50
225
  51
270
  0
LINE
  5
32b
  100
AcDbEntity
  8
NOCUT
  100
AcDbLine
  10
40.542893
  20
3.212893
  30
0
  11
38.755786
  21
5
  31
0
  0
LINE
  5
32c
  100
AcDbEntity
  8
NOCUT
  100
AcDbLine
  10
38.755786
  20
5
  30
0
  11
37.76
  21
5
  31
0
  0
LINE
  5
32d
  100
AcDbEntity
  8
NOCUT
  100
AcDbLine
  10
37.76
  20
5
  30
0
  11
37.76
  21
0
  31
0
  0
LINE
  5
32e
  100
AcDbEntity
  8
NOCUT
  100
AcDbLine
  10
37.76
  20
0
  30
0
  11
65.7
  21
0
  31
0
  0
LINE
  5
32f
  100
AcDbEntity
  8
CUT
  100
AcDbLine
  10
70
  20
0
  30
0
  11
70
  21
3.75
  31
0
  0
LINE
  5
330
  100
AcDbEntity
  8
CUT
  100
AcDbLine
  10
70
  20
3.75
  30
0
  11
65.7
  21
3.75
  31
0
  0
LINE
  5
331
  100
AcDbEntity
  8
CUT
  100
AcDbLine
  10
65.7
  20
3.75
  30
0
  11
65.7
  21
0
  31
0
  0
LINE
  5
332
  100
AcDbEntity
  8
CUT
  100
AcDbLine
  10
65.7
  20
0
  30
0
  11
70
  21
0
  31
0
  0
LINE
  5
333
  100
AcDbEntity
  8
4
  100
AcDbLine
  10
37.76
  20
0
  30
0
  11
70
  21
0
  31
0
  0
LINE
  5
334
  100
AcDbEntity
  8
SK4
  100
AcDbLine
  10
-1
  20
0
  30
0
  11
71
  21
0
  31
0
  0
LINE
  5
335
  100
AcDbEntity
  8
INFTOTAL
  100
AcDbLine
  10
-21.95
  20
24.833274
  30
0
  11
86.95
  21
24.833274
  31
0
  0
LINE
  5
336
  100
AcDbEntity
  8
INFTOTAL
  100
AcDbLine
  10
86.95
  20
24.833274
  30
0
  11
86.95
  21
-48.54485
  31
0
  0
LINE
  5
337
  100
AcDbEntity
  8
INFTOTAL
  100
AcDbLine
  10
86.95
  20
-48.54485
  30
0
  11
-21.95
  21
-48.54485
  31
0
  0
LINE
  5
338
  100
AcDbEntity
  8
INFTOTAL
  100
AcDbLine
  10
-21.95
  20
-48.54485
  30
0
  11
-21.95
  21
24.833274
  31
0
  0
ENDSEC
  0
SECTION
  2
OBJECTS
  0
DICTIONARY
  5
339
  330
0
100
AcDbDictionary
281
    1
  3
ACAD_GROUP
  350
33a
  0
DICTIONARY
  5
33a
102
{ACAD_REACTORS
  330
339
102
}
  330
339
100
AcDbDictionary
281
    1
  0
ENDSEC
  0
EOF
