  0
SECTION
  2
HEADER
  9
$ACADVER
  1
AC1015
  9
$DWGCODEPAGE
  3
ANSI_932
  9
$HANDSEED
  5
106AB90
  0
ENDSEC
  0
SECTION
  2
CLASSES
  0
CLASS
  1
IMAGEDEF
  2
AcDbRasterImageDef
  3
ISM
  90
0
  91
4
  280
0
  281
0
  0
CLASS
  1
IMAGE
  2
AcDbRasterImage
  3
ISM
  90
127
  91
5
  280
0
  281
1
  0
CLASS
  1
IMAGEDEF_REACTOR
  2
AcDbRasterImageDefReactor
  3
ISM
  90
1
  91
4
  280
0
  281
0
  0
ENDSEC
  0
SECTION
  2
TABLES
  0
TABLE
  2
VPORT
  5
2
  330
0
  100
AcDbSymbolTable
  70
    0
  0
ENDTAB
  0
TABLE
  2
LTYPE
  5
3
  330
0
  100
AcDbSymbolTable
  70
    4
  0
LTYPE
  5
4
  330
3
  100
AcDbSymbolTableRecord
  100
AcDbLinetypeTableRecord
  2
ByBlock
  70
    0
  3

  72
65
  73
    0
  40
0
  0
LTYPE
  5
5
  330
3
  100
AcDbSymbolTableRecord
  100
AcDbLinetypeTableRecord
  2
ByLayer
  70
    0
  3

  72
65
  73
    0
  40
0
  0
LTYPE
  5
6
  330
3
  100
AcDbSymbolTableRecord
  100
AcDbLinetypeTableRecord
  2
CONTINUOUS
  70
    0
  3
Solid Line
  72
65
  73
    0
  40
0
  0
LTYPE
  5
7
  330
3
  100
AcDbSymbolTableRecord
  100
AcDbLinetypeTableRecord
  2
DASH
  70
    0
  3
Hidden
  72
65
  73
2
  40
2.5
  49
1.5
  74
0
  49
-1
  74
0
  0
LTYPE
  5
8
  330
3
  100
AcDbSymbolTableRecord
  100
AcDbLinetypeTableRecord
  2
LONGDASHDASH
  70
    0
  3
__ . __
  72
65
  73
    4
  40
7
  49
4
  74
    0
  49
-1
  74
    0
  49
1
  74
    0
  49
-1
  74
    0
  0
ENDTAB
  0
TABLE
  2
LAYER
  5
9
  330
0
  100
AcDbSymbolTable
  70
    40
  0
LAYER
  5
a
  330
9
  100
AcDbSymbolTableRecord
  100
AcDbLayerTableRecord
  2
0
  70
    0
  62
    0
  6
CONTINUOUS
  390
0
  0
LAYER
  5
c
  330
9
  100
AcDbSymbolTableRecord
  100
AcDbLayerTableRecord
  2
1
  70
    0
  62
    4
  6
CONTINUOUS
  370
50
  390
0
  0
LAYER
  5
d
  330
9
  100
AcDbSymbolTableRecord
  100
AcDbLayerTableRecord
  2
2
  70
    0
  62
    7
  6
CONTINUOUS
  370
25
  390
0
  0
LAYER
  5
f
  330
9
  100
AcDbSymbolTableRecord
  100
AcDbLayerTableRecord
  2
4
  70
    0
  62
    2
  6
LONGDASHDASH
  370
25
  390
0
  0
LAYER
  5
13
  330
9
  100
AcDbSymbolTableRecord
  100
AcDbLayerTableRecord
  2
SK1
  70
    0
  62
    4
  6
CONTINUOUS
  370
50
  390
0
  0
LAYER
  5
14
  330
9
  100
AcDbSymbolTableRecord
  100
AcDbLayerTableRecord
  2
SK2
  70
    0
  62
    7
  6
CONTINUOUS
  370
25
  390
0
  0
LAYER
  5
16
  330
9
  100
AcDbSymbolTableRecord
  100
AcDbLayerTableRecord
  2
SK4
  70
    0
  62
    2
  6
LONGDASHDASH
  370
25
  390
0
  0
LAYER
  5
21
  330
9
  100
AcDbSymbolTableRecord
  100
AcDbLayerTableRecord
  2
NOCUT
  70
    0
  62
    7
  6
CONTINUOUS
  370
25
  390
0
  0
LAYER
  5
22
  330
9
  100
AcDbSymbolTableRecord
  100
AcDbLayerTableRecord
  2
CUT
  70
    0
  62
    1
  6
CONTINUOUS
  370
25
  390
0
  0
LAYER
  5
26
  330
9
  100
AcDbSymbolTableRecord
  100
AcDbLayerTableRecord
  2
INFTOTAL
  70
    0
  62
    9
  6
CONTINUOUS
  370
18
  390
0
  0
ENDTAB
  0
TABLE
  2
STYLE
  5
27
  330
0
  100
AcDbSymbolTable
  70
    1
  0
STYLE
  5
28
  330
27
  100
AcDbSymbolTableRecord
  100
AcDbTextStyleTableRecord
  2
Monospac821 BT
  70
    0
  40
    3.5
  41
1
  50
0
  71
0
  42
3
  3

  4

  1001
ACAD
  1000
Monospac821 BT
  1071
256
  0
ENDTAB
  0
TABLE
  2
VIEW
  5
29
  330
0
  100
AcDbSymbolTable
  70
    0
  0
ENDTAB
  0
TABLE
  2
UCS
  5
2a
  330
0
  100
AcDbSymbolTable
  70
    0
  0
ENDTAB
  0
TABLE
  2
APPID
  5
2b
  330
0
  100
AcDbSymbolTable
  70
    1
  0
APPID
  5
2c
  330
2b
  100
AcDbSymbolTableRecord
  100
AcDbRegAppTableRecord
  2
ACAD
  70
    0
  0
ENDTAB
  0
TABLE
  2
DIMSTYLE
  5
2d
  330
0
  100
AcDbSymbolTable
  70
    1
  100
AcDbDimStyleTable
  0
DIMSTYLE
  105
2e
  330
2d
  100
AcDbSymbolTableRecord
  100
AcDbDimStyleTableRecord
  2
STANDARD
  70
    0
  41
    3
  42
0.5
  44
1
  73
0
  77
1
  78
1
  140
3.5
  141
2.5
  143
0.03937
  147
0.8
  172
1
  174
1
  178
0
  179
1
  271
2
  279
1
  284
1
  340
28
  0
ENDTAB
  0
TABLE
  2
BLOCK_RECORD
  5
2f
  330
0
  100
AcDbSymbolTable
  70
    2
  0
BLOCK_RECORD
  5
30
  330
2f
  100
AcDbSymbolTableRecord
  100
AcDbBlockTableRecord
  2
*Model_Space
  0
BLOCK_RECORD
  5
31
  330
2f
  100
AcDbSymbolTableRecord
  100
AcDbBlockTableRecord
  2
*Paper_Space
  0
BLOCK_RECORD
  5
25f
  330
2f
  100
AcDbSymbolTableRecord
  100
AcDbBlockTableRecord
  2
*D25e
  340
0
  0
BLOCK_RECORD
  5
26d
  330
2f
  100
AcDbSymbolTableRecord
  100
AcDbBlockTableRecord
  2
*D26c
  340
0
  0
BLOCK_RECORD
  5
27b
  330
2f
  100
AcDbSymbolTableRecord
  100
AcDbBlockTableRecord
  2
*D27a
  340
0
  0
BLOCK_RECORD
  5
289
  330
2f
  100
AcDbSymbolTableRecord
  100
AcDbBlockTableRecord
  2
*D288
  340
0
  0
BLOCK_RECORD
  5
297
  330
2f
  100
AcDbSymbolTableRecord
  100
AcDbBlockTableRecord
  2
*D296
  340
0
  0
BLOCK_RECORD
  5
2a5
  330
2f
  100
AcDbSymbolTableRecord
  100
AcDbBlockTableRecord
  2
*D2a4
  340
0
  0
ENDTAB
  0
ENDSEC
  0
SECTION
  2
BLOCKS
  0
BLOCK
  5
32
  330
30
  100
AcDbEntity
  8
0
  100
AcDbBlockBegin
  2
*Model_Space
  70
    0
  10
0
  20
0
  30
0
  3
*Model_Space
  1

  0
ENDBLK
  5
33
  330
30
  100
AcDbEntity
  8
0
  100
AcDbBlockEnd
  0
BLOCK
  5
34
  330
31
  100
AcDbEntity
  8
0
  100
AcDbBlockBegin
  2
*Paper_Space
  70
    0
  10
0
  20
0
  30
0
  3
*Paper_Space
  1

  0
ENDBLK
  5
35
  330
31
  100
AcDbEntity
  8
0
  100
AcDbBlockEnd
  0
BLOCK
  5
25d
  330
25f
  100
AcDbEntity
  8
SK2
  100
AcDbBlockBegin
  2
*D25e
  70
1
  10
0
  20
0
  30
0
  3
*D25e
  1

  0
LINE
  5
260
  330
25f
  100
AcDbEntity
  8
SK2
  100
AcDbLine
  10
0
  20
-26.777175
  30
0
  11
0
  21
2.6
  31
0
  0
LINE
  5
261
  330
25f
  100
AcDbEntity
  8
SK2
  100
AcDbLine
  10
70
  20
-26.777175
  30
0
  11
70
  21
17.805024
  31
0
  0
LINE
  5
262
  330
25f
  100
AcDbEntity
  8
SK2
  100
AcDbLine
  10
0
  20
-24.777175
  30
0
  11
70
  21
-24.777175
  31
0
  0
SOLID
  5
263
  330
25f
  100
AcDbEntity
  8
SK2
  100
AcDbTrace
  10
0
  20
-24.777175
  30
0
  11
2.478612
  21
-24.45086
  31
0
  12
2.478612
  22
-25.103491
  32
0
  13
2.478612
  23
-25.103491
  33
0
  0
SOLID
  5
264
  330
25f
  100
AcDbEntity
  8
SK2
  100
AcDbTrace
  10
70
  20
-24.777175
  30
0
  11
67.521388
  21
-25.103491
  31
0
  12
67.521388
  22
-24.45086
  32
0
  13
67.521388
  23
-24.45086
  33
0
  0
MTEXT
  5
265
  330
25f
  100
AcDbEntity
  8
SK2
  100
AcDbMText
  10
35
  20
-24.777175
  30
0
  11
1
  21
0
  31
0
  40
2
  41
0
  71
8
  72
1
  1
70
  0
POINT
  5
266
  330
25f
  100
AcDbEntity
  8
SK2
  62
0
  100
AcDbPoint
  10
0
  20
2.6
  30
0
  0
POINT
  5
267
  330
25f
  100
AcDbEntity
  8
SK2
  62
0
  100
AcDbPoint
  10
70
  20
17.805024
  30
0
  0
POINT
  5
268
  330
25f
  100
AcDbEntity
  8
SK2
  62
0
  100
AcDbPoint
  10
70
  20
-24.777175
  30
0
  0
ENDBLK
  5
269
  330
25f
  100
AcDbEntity
  8
SK2
  100
AcDbBlockEnd
  0
BLOCK
  5
26b
  330
26d
  100
AcDbEntity
  8
SK2
  100
AcDbBlockBegin
  2
*D26c
  70
1
  10
0
  20
0
  30
0
  3
*D26c
  1

  0
LINE
  5
26e
  330
26d
  100
AcDbEntity
  8
SK2
  100
AcDbLine
  10
50.255641
  20
-17.424056
  30
0
  11
50.255641
  21
3
  31
0
  0
LINE
  5
26f
  330
26d
  100
AcDbEntity
  8
SK2
  100
AcDbLine
  10
0
  20
-26.777175
  30
0
  11
0
  21
2.6
  31
0
  0
LINE
  5
270
  330
26d
  100
AcDbEntity
  8
SK2
  100
AcDbLine
  10
50.255641
  20
-15.424056
  30
0
  11
0
  21
-15.424056
  31
0
  0
SOLID
  5
271
  330
26d
  100
AcDbEntity
  8
SK2
  100
AcDbTrace
  10
50.255641
  20
-15.424056
  30
0
  11
52.734254
  21
-15.097741
  31
0
  12
52.734254
  22
-15.750372
  32
0
  13
52.734254
  23
-15.750372
  33
0
  0
SOLID
  5
272
  330
26d
  100
AcDbEntity
  8
SK2
  100
AcDbTrace
  10
0
  20
-15.424056
  30
0
  11
-2.478612
  21
-15.750372
  31
0
  12
-2.478612
  22
-15.097741
  32
0
  13
-2.478612
  23
-15.097741
  33
0
  0
MTEXT
  5
273
  330
26d
  100
AcDbEntity
  8
SK2
  100
AcDbMText
  10
25.731413
  20
-15.424056
  30
0
  11
1
  21
-0
  31
0
  40
2
  41
0
  71
8
  72
1
  1
50.256
  0
POINT
  5
274
  330
26d
  100
AcDbEntity
  8
SK2
  62
0
  100
AcDbPoint
  10
50.255641
  20
3
  30
0
  0
POINT
  5
275
  330
26d
  100
AcDbEntity
  8
SK2
  62
0
  100
AcDbPoint
  10
0
  20
2.6
  30
0
  0
POINT
  5
276
  330
26d
  100
AcDbEntity
  8
SK2
  62
0
  100
AcDbPoint
  10
0
  20
-15.424056
  30
0
  0
ENDBLK
  5
277
  330
26d
  100
AcDbEntity
  8
SK2
  100
AcDbBlockEnd
  0
BLOCK
  5
279
  330
27b
  100
AcDbEntity
  8
SK2
  100
AcDbBlockBegin
  2
*D27a
  70
1
  10
0
  20
0
  30
0
  3
*D27a
  1

  0
LINE
  5
27c
  330
27b
  100
AcDbEntity
  8
SK2
  100
AcDbLine
  10
0.4
  20
-3
  30
0
  11
-12
  21
-3
  31
0
  0
LINE
  5
27d
  330
27b
  100
AcDbEntity
  8
SK2
  100
AcDbLine
  10
0.4
  20
3
  30
0
  11
-12
  21
3
  31
0
  0
LINE
  5
27e
  330
27b
  100
AcDbEntity
  8
SK2
  100
AcDbLine
  10
-10
  20
-3
  30
0
  11
-10
  21
3
  31
0
  0
SOLID
  5
27f
  330
27b
  100
AcDbEntity
  8
SK2
  100
AcDbTrace
  10
-10
  20
-3
  30
0
  11
-10.326315
  21
-0.521388
  31
0
  12
-9.673685
  22
-0.521388
  32
0
  13
-9.673685
  23
-0.521388
  33
0
  0
SOLID
  5
280
  330
27b
  100
AcDbEntity
  8
SK2
  100
AcDbTrace
  10
-10
  20
3
  30
0
  11
-9.673685
  21
0.521388
  31
0
  12
-10.326315
  22
0.521388
  32
0
  13
-10.326315
  23
0.521388
  33
0
  0
MTEXT
  5
281
  330
27b
  100
AcDbEntity
  8
SK2
  100
AcDbMText
  10
-10
  20
-0.004237
  30
0
  11
0
  21
1
  31
0
  40
2
  41
0
  71
8
  72
1
  1
Ø6
  0
POINT
  5
282
  330
27b
  100
AcDbEntity
  8
SK2
  62
0
  100
AcDbPoint
  10
0.4
  20
-3
  30
0
  0
POINT
  5
283
  330
27b
  100
AcDbEntity
  8
SK2
  62
0
  100
AcDbPoint
  10
0.4
  20
3
  30
0
  0
POINT
  5
284
  330
27b
  100
AcDbEntity
  8
SK2
  62
0
  100
AcDbPoint
  10
-10
  20
3
  30
0
  0
ENDBLK
  5
285
  330
27b
  100
AcDbEntity
  8
SK2
  100
AcDbBlockEnd
  0
BLOCK
  5
287
  330
289
  100
AcDbEntity
  8
2
  100
AcDbBlockBegin
  2
*D288
  70
1
  10
0
  20
0
  30
0
  3
*D288
  1

  0
LINE
  5
28a
  330
289
  100
AcDbEntity
  8
2
  100
AcDbLine
  10
70
  20
-2.809
  30
0
  11
82
  21
-2.809
  31
0
  0
LINE
  5
28b
  330
289
  100
AcDbEntity
  8
2
  100
AcDbLine
  10
70
  20
2.809
  30
0
  11
82
  21
2.809
  31
0
  0
LINE
  5
28c
  330
289
  100
AcDbEntity
  8
2
  100
AcDbLine
  10
80
  20
-2.809
  30
0
  11
80
  21
9.303797
  31
0
  0
SOLID
  5
28d
  330
289
  100
AcDbEntity
  8
2
  100
AcDbTrace
  10
80
  20
-2.809
  30
0
  11
79.673685
  21
-0.330388
  31
0
  12
80.326315
  22
-0.330388
  32
0
  13
80.326315
  23
-0.330388
  33
0
  0
SOLID
  5
28e
  330
289
  100
AcDbEntity
  8
2
  100
AcDbTrace
  10
80
  20
2.809
  30
0
  11
80.326315
  21
0.330388
  31
0
  12
79.673685
  22
0.330388
  32
0
  13
79.673685
  23
0.330388
  33
0
  0
MTEXT
  5
28f
  330
289
  100
AcDbEntity
  8
2
  100
AcDbMText
  10
80
  20
9.319301
  30
0
  11
0
  21
1
  31
0
  40
2
  41
0
  71
8
  72
1
  1
Ø5.618
  0
POINT
  5
290
  330
289
  100
AcDbEntity
  8
2
  62
0
  100
AcDbPoint
  10
70
  20
-2.809
  30
0
  0
POINT
  5
291
  330
289
  100
AcDbEntity
  8
2
  62
0
  100
AcDbPoint
  10
70
  20
2.809
  30
0
  0
POINT
  5
292
  330
289
  100
AcDbEntity
  8
2
  62
0
  100
AcDbPoint
  10
80
  20
9.303797
  30
0
  0
ENDBLK
  5
293
  330
289
  100
AcDbEntity
  8
2
  100
AcDbBlockEnd
  0
BLOCK
  5
295
  330
297
  100
AcDbEntity
  8
2
  100
AcDbBlockBegin
  2
*D296
  70
1
  10
0
  20
0
  30
0
  3
*D296
  1

  0
LINE
  5
298
  330
297
  100
AcDbEntity
  8
2
  100
AcDbLine
  10
67.279
  20
-2.2865
  30
0
  11
67.279
  21
-17.424056
  31
0
  0
LINE
  5
299
  330
297
  100
AcDbEntity
  8
2
  100
AcDbLine
  10
70
  20
-26.777175
  30
0
  11
70
  21
17.805024
  31
0
  0
LINE
  5
29a
  330
297
  100
AcDbEntity
  8
2
  100
AcDbLine
  10
67.279
  20
-15.424056
  30
0
  11
78.055236
  21
-15.424056
  31
0
  0
SOLID
  5
29b
  330
297
  100
AcDbEntity
  8
2
  100
AcDbTrace
  10
67.279
  20
-15.424056
  30
0
  11
69.757612
  21
-15.097741
  31
0
  12
69.757612
  22
-15.750372
  32
0
  13
69.757612
  23
-15.750372
  33
0
  0
SOLID
  5
29c
  330
297
  100
AcDbEntity
  8
2
  100
AcDbTrace
  10
70
  20
-15.424056
  30
0
  11
67.521388
  21
-15.750372
  31
0
  12
67.521388
  22
-15.097741
  32
0
  13
67.521388
  23
-15.097741
  33
0
  0
MTEXT
  5
29d
  330
297
  100
AcDbEntity
  8
2
  100
AcDbMText
  10
78.118951
  20
-15.424056
  30
0
  11
1
  21
0
  31
0
  40
2
  41
0
  71
8
  72
1
  1
2.721
  0
POINT
  5
29e
  330
297
  100
AcDbEntity
  8
2
  62
0
  100
AcDbPoint
  10
67.279
  20
-2.2865
  30
0
  0
POINT
  5
29f
  330
297
  100
AcDbEntity
  8
2
  62
0
  100
AcDbPoint
  10
70
  20
17.805024
  30
0
  0
POINT
  5
2a0
  330
297
  100
AcDbEntity
  8
2
  62
0
  100
AcDbPoint
  10
78.055236
  20
-15.424056
  30
0
  0
ENDBLK
  5
2a1
  330
297
  100
AcDbEntity
  8
2
  100
AcDbBlockEnd
  0
BLOCK
  5
2a3
  330
2a5
  100
AcDbEntity
  8
2
  100
AcDbBlockBegin
  2
*D2a4
  70
1
  10
0
  20
0
  30
0
  3
*D2a4
  1

  0
LINE
  5
2a6
  330
2a5
  100
AcDbEntity
  8
2
  100
AcDbLine
  10
49.297
  20
17.805024
  30
0
  11
49.297
  21
-3
  31
0
  0
LINE
  5
2a7
  330
2a5
  100
AcDbEntity
  8
2
  100
AcDbLine
  10
70
  20
-26.777175
  30
0
  11
70
  21
17.805024
  31
0
  0
LINE
  5
2a8
  330
2a5
  100
AcDbEntity
  8
2
  100
AcDbLine
  10
49.297
  20
15.805024
  30
0
  11
70
  21
15.805024
  31
0
  0
SOLID
  5
2a9
  330
2a5
  100
AcDbEntity
  8
2
  100
AcDbTrace
  10
49.297
  20
15.805024
  30
0
  11
51.775612
  21
16.131339
  31
0
  12
51.775612
  22
15.478708
  32
0
  13
51.775612
  23
15.478708
  33
0
  0
SOLID
  5
2aa
  330
2a5
  100
AcDbEntity
  8
2
  100
AcDbTrace
  10
70
  20
15.805024
  30
0
  11
67.521388
  21
15.478708
  31
0
  12
67.521388
  22
16.131339
  32
0
  13
67.521388
  23
16.131339
  33
0
  0
MTEXT
  5
2ab
  330
2a5
  100
AcDbEntity
  8
2
  100
AcDbMText
  10
59.935108
  20
15.805024
  30
0
  11
1
  21
0
  31
0
  40
2
  41
0
  71
8
  72
1
  1
20.703
  0
POINT
  5
2ac
  330
2a5
  100
AcDbEntity
  8
2
  62
0
  100
AcDbPoint
  10
49.297
  20
-3
  30
0
  0
POINT
  5
2ad
  330
2a5
  100
AcDbEntity
  8
2
  62
0
  100
AcDbPoint
  10
70
  20
-26.777175
  30
0
  0
POINT
  5
2ae
  330
2a5
  100
AcDbEntity
  8
2
  62
0
  100
AcDbPoint
  10
70
  20
15.805024
  30
0
  0
ENDBLK
  5
2af
  330
2a5
  100
AcDbEntity
  8
2
  100
AcDbBlockEnd
  0
ENDSEC
  0
SECTION
  2
ENTITIES
  0
DIMENSION
  5
26a
  100
AcDbEntity
  8
SK2
  100
AcDbDimension
  2
*D25e
  10
70
  20
-24.777175
  30
0
  11
35
  21
-24.777175
  31
0
  70
160
  1
<>
  71
5
  3
STANDARD
  42
70
  100
AcDbAlignedDimension
  13
0
  23
2.6
  33
0
  14
70
  24
17.805024
  34
0
  50
0
  100
AcDbRotatedDimension
  0
DIMENSION
  5
278
  100
AcDbEntity
  8
SK2
  100
AcDbDimension
  2
*D26c
  10
0
  20
-15.424056
  30
0
  11
25.731413
  21
-15.424056
  31
0
  70
160
  1
<>
  71
5
  3
STANDARD
  42
50.255641
  100
AcDbAlignedDimension
  13
50.255641
  23
3
  33
0
  14
0
  24
2.6
  34
0
  50
0
  100
AcDbRotatedDimension
  0
DIMENSION
  5
286
  100
AcDbEntity
  8
SK2
  100
AcDbDimension
  2
*D27a
  10
-10
  20
3
  30
0
  11
-10
  21
-0.004237
  31
0
  70
160
  1
%%c<>
  71
5
  3
STANDARD
  42
6
  100
AcDbAlignedDimension
  13
0.4
  23
-3
  33
0
  14
0.4
  24
3
  34
0
  50
-90
  100
AcDbRotatedDimension
  0
DIMENSION
  5
294
  100
AcDbEntity
  8
2
  100
AcDbDimension
  2
*D288
  10
80
  20
9.303797
  30
0
  11
80
  21
9.319301
  31
0
  70
160
  1
%%c<>
  71
5
  3
STANDARD
  42
5.618
  100
AcDbAlignedDimension
  13
70
  23
-2.809
  33
0
  14
70
  24
2.809
  34
0
  50
-90
  100
AcDbRotatedDimension
  0
DIMENSION
  5
2a2
  100
AcDbEntity
  8
2
  100
AcDbDimension
  2
*D296
  10
78.055236
  20
-15.424056
  30
0
  11
78.118951
  21
-15.424056
  31
0
  70
160
  1
<>
  71
5
  3
STANDARD
  42
2.721
  100
AcDbAlignedDimension
  13
67.279
  23
-2.2865
  33
0
  14
70
  24
17.805024
  34
0
  50
0
  100
AcDbRotatedDimension
  0
DIMENSION
  5
2b0
  100
AcDbEntity
  8
2
  100
AcDbDimension
  2
*D2a4
  10
70
  20
15.805024
  30
0
  11
59.935108
  21
15.805024
  31
0
  70
160
  1
<>
  71
5
  3
STANDARD
  42
20.703
  100
AcDbAlignedDimension
  13
49.297
  23
-3
  33
0
  14
70
  24
-26.777175
  34
0
  50
0
  100
AcDbRotatedDimension
  0
ARC
  5
36
  100
AcDbEntity
  8
1
  100
AcDbCircle
  10
51
  20
-3.793253
  30
0
  40
1
  100
AcDbArc
  50
90
  51
110
  0
LINE
  5
37
  100
AcDbEntity
  8
1
  100
AcDbLine
  10
51
  20
-2.793253
  30
0
  11
67.279
  21
-2.2865
  31
0
  0
LINE
  5
38
  100
AcDbEntity
  8
1
  100
AcDbLine
  10
67.279
  20
-2.2865
  30
0
  11
67.279
  21
-2.893703
  31
0
  0
LINE
  5
39
  100
AcDbEntity
  8
1
  100
AcDbLine
  10
67.279
  20
-2.893703
  30
0
  11
70
  21
-2.809
  31
0
  0
LINE
  5
3a
  100
AcDbEntity
  8
1
  100
AcDbLine
  10
70
  20
-2.809
  30
0
  11
70
  21
0
  31
0
  0
LINE
  5
3b
  100
AcDbEntity
  8
1
  100
AcDbLine
  10
70
  20
0
  30
0
  11
70
  21
2.809
  31
0
  0
LINE
  5
3c
  100
AcDbEntity
  8
1
  100
AcDbLine
  10
70
  20
2.809
  30
0
  11
67.279
  21
2.893703
  31
0
  0
LINE
  5
3d
  100
AcDbEntity
  8
1
  100
AcDbLine
  10
67.279
  20
2.893703
  30
0
  11
67.279
  21
2.2865
  31
0
  0
LINE
  5
3e
  100
AcDbEntity
  8
1
  100
AcDbLine
  10
67.279
  20
2.2865
  30
0
  11
51
  21
2.793253
  31
0
  0
ARC
  5
3f
  100
AcDbEntity
  8
1
  100
AcDbCircle
  10
51
  20
3.793253
  30
0
  40
1
  100
AcDbArc
  50
250
  51
270
  0
LINE
  5
40
  100
AcDbEntity
  8
1
  100
AcDbLine
  10
50.65798
  20
2.853561
  30
0
  11
50.255641
  21
3
  31
0
  0
LINE
  5
41
  100
AcDbEntity
  8
1
  100
AcDbLine
  10
50.255641
  20
3
  30
0
  11
49.297
  21
3
  31
0
  0
LINE
  5
42
  100
AcDbEntity
  8
1
  100
AcDbLine
  10
49.297
  20
3
  30
0
  11
49.297
  21
-3
  31
0
  0
LINE
  5
43
  100
AcDbEntity
  8
1
  100
AcDbLine
  10
49.297
  20
-3
  30
0
  11
50.255641
  21
-3
  31
0
  0
LINE
  5
44
  100
AcDbEntity
  8
1
  100
AcDbLine
  10
50.255641
  20
-3
  30
0
  11
50.65798
  21
-2.853561
  31
0
  0
LINE
  5
45
  100
AcDbEntity
  8
1
  100
AcDbLine
  10
50.255641
  20
3
  30
0
  11
50.255641
  21
-3
  31
0
  0
LINE
  5
46
  100
AcDbEntity
  8
1
  100
AcDbLine
  10
50.255641
  20
-3
  30
0
  11
50.255641
  21
3
  31
0
  0
LINE
  5
47
  100
AcDbEntity
  8
1
  100
AcDbLine
  10
50.65798
  20
2.853561
  30
0
  11
50.65798
  21
-2.853561
  31
0
  0
LINE
  5
48
  100
AcDbEntity
  8
1
  100
AcDbLine
  10
51
  20
2.793253
  30
0
  11
51
  21
-2.793253
  31
0
  0
LINE
  5
49
  100
AcDbEntity
  8
1
  100
AcDbLine
  10
65.207651
  20
2.35098
  30
0
  11
65.3
  21
2.348094
  31
0
  0
LINE
  5
4a
  100
AcDbEntity
  8
1
  100
AcDbLine
  10
65.3
  20
2.348094
  30
0
  11
65.4
  21
2.344947
  31
0
  0
LINE
  5
4b
  100
AcDbEntity
  8
1
  100
AcDbLine
  10
65.4
  20
2.344947
  30
0
  11
65.5
  21
2.341781
  31
0
  0
LINE
  5
4c
  100
AcDbEntity
  8
1
  100
AcDbLine
  10
65.5
  20
2.341781
  30
0
  11
65.6
  21
2.338598
  31
0
  0
LINE
  5
4d
  100
AcDbEntity
  8
1
  100
AcDbLine
  10
65.6
  20
2.338598
  30
0
  11
65.7
  21
2.335401
  31
0
  0
LINE
  5
4e
  100
AcDbEntity
  8
1
  100
AcDbLine
  10
65.7
  20
2.335401
  30
0
  11
65.8
  21
2.332194
  31
0
  0
LINE
  5
4f
  100
AcDbEntity
  8
1
  100
AcDbLine
  10
65.8
  20
2.332194
  30
0
  11
65.9
  21
2.328978
  31
0
  0
LINE
  5
50
  100
AcDbEntity
  8
1
  100
AcDbLine
  10
65.9
  20
2.328978
  30
0
  11
66
  21
2.325757
  31
0
  0
LINE
  5
51
  100
AcDbEntity
  8
1
  100
AcDbLine
  10
66
  20
2.325757
  30
0
  11
66.1
  21
2.322532
  31
0
  0
LINE
  5
52
  100
AcDbEntity
  8
1
  100
AcDbLine
  10
66.1
  20
2.322532
  30
0
  11
66.2
  21
2.319307
  31
0
  0
LINE
  5
53
  100
AcDbEntity
  8
1
  100
AcDbLine
  10
66.2
  20
2.319307
  30
0
  11
66.3
  21
2.316083
  31
0
  0
LINE
  5
54
  100
AcDbEntity
  8
1
  100
AcDbLine
  10
66.3
  20
2.316083
  30
0
  11
66.4
  21
2.312861
  31
0
  0
LINE
  5
55
  100
AcDbEntity
  8
1
  100
AcDbLine
  10
66.4
  20
2.312861
  30
0
  11
66.5
  21
2.309645
  31
0
  0
LINE
  5
56
  100
AcDbEntity
  8
1
  100
AcDbLine
  10
66.5
  20
2.309645
  30
0
  11
66.6
  21
2.306435
  31
0
  0
LINE
  5
57
  100
AcDbEntity
  8
1
  100
AcDbLine
  10
66.6
  20
2.306435
  30
0
  11
66.7
  21
2.303232
  31
0
  0
LINE
  5
58
  100
AcDbEntity
  8
1
  100
AcDbLine
  10
66.7
  20
2.303232
  30
0
  11
66.8
  21
2.300039
  31
0
  0
LINE
  5
59
  100
AcDbEntity
  8
1
  100
AcDbLine
  10
66.8
  20
2.300039
  30
0
  11
66.9
  21
2.296856
  31
0
  0
LINE
  5
5a
  100
AcDbEntity
  8
1
  100
AcDbLine
  10
66.9
  20
2.296856
  30
0
  11
67
  21
2.293684
  31
0
  0
LINE
  5
5b
  100
AcDbEntity
  8
1
  100
AcDbLine
  10
67
  20
2.293684
  30
0
  11
67.1
  21
2.290523
  31
0
  0
LINE
  5
5c
  100
AcDbEntity
  8
1
  100
AcDbLine
  10
67.1
  20
2.290523
  30
0
  11
67.2
  21
2.287375
  31
0
  0
LINE
  5
5d
  100
AcDbEntity
  8
1
  100
AcDbLine
  10
67.2
  20
2.287375
  30
0
  11
67.3
  21
2.893049
  31
0
  0
LINE
  5
5e
  100
AcDbEntity
  8
1
  100
AcDbLine
  10
67.3
  20
2.893049
  30
0
  11
67.4
  21
2.889936
  31
0
  0
LINE
  5
5f
  100
AcDbEntity
  8
1
  100
AcDbLine
  10
67.4
  20
2.889936
  30
0
  11
67.5
  21
2.886823
  31
0
  0
LINE
  5
60
  100
AcDbEntity
  8
1
  100
AcDbLine
  10
67.5
  20
2.886823
  30
0
  11
67.6
  21
2.88371
  31
0
  0
LINE
  5
61
  100
AcDbEntity
  8
1
  100
AcDbLine
  10
67.6
  20
2.88371
  30
0
  11
67.7
  21
2.880597
  31
0
  0
LINE
  5
62
  100
AcDbEntity
  8
1
  100
AcDbLine
  10
67.7
  20
2.880597
  30
0
  11
67.8
  21
2.877483
  31
0
  0
LINE
  5
63
  100
AcDbEntity
  8
1
  100
AcDbLine
  10
67.8
  20
2.877483
  30
0
  11
67.9
  21
2.87437
  31
0
  0
LINE
  5
64
  100
AcDbEntity
  8
1
  100
AcDbLine
  10
67.9
  20
2.87437
  30
0
  11
68
  21
2.871257
  31
0
  0
LINE
  5
65
  100
AcDbEntity
  8
1
  100
AcDbLine
  10
68
  20
2.871257
  30
0
  11
68.1
  21
2.868143
  31
0
  0
LINE
  5
66
  100
AcDbEntity
  8
1
  100
AcDbLine
  10
68.1
  20
2.868143
  30
0
  11
68.2
  21
2.86503
  31
0
  0
LINE
  5
67
  100
AcDbEntity
  8
1
  100
AcDbLine
  10
68.2
  20
2.86503
  30
0
  11
68.3
  21
2.861916
  31
0
  0
LINE
  5
68
  100
AcDbEntity
  8
1
  100
AcDbLine
  10
68.3
  20
2.861916
  30
0
  11
68.4
  21
2.858803
  31
0
  0
LINE
  5
69
  100
AcDbEntity
  8
1
  100
AcDbLine
  10
68.4
  20
2.858803
  30
0
  11
68.5
  21
2.855689
  31
0
  0
LINE
  5
6a
  100
AcDbEntity
  8
1
  100
AcDbLine
  10
68.5
  20
2.855689
  30
0
  11
68.6
  21
2.852575
  31
0
  0
LINE
  5
6b
  100
AcDbEntity
  8
1
  100
AcDbLine
  10
68.6
  20
2.852575
  30
0
  11
68.7
  21
2.849461
  31
0
  0
LINE
  5
6c
  100
AcDbEntity
  8
1
  100
AcDbLine
  10
68.7
  20
2.849461
  30
0
  11
68.8
  21
2.846347
  31
0
  0
LINE
  5
6d
  100
AcDbEntity
  8
1
  100
AcDbLine
  10
68.8
  20
2.846347
  30
0
  11
68.9
  21
2.843233
  31
0
  0
LINE
  5
6e
  100
AcDbEntity
  8
1
  100
AcDbLine
  10
68.9
  20
2.843233
  30
0
  11
69
  21
2.840119
  31
0
  0
LINE
  5
6f
  100
AcDbEntity
  8
1
  100
AcDbLine
  10
69
  20
2.840119
  30
0
  11
69.1
  21
2.837005
  31
0
  0
LINE
  5
70
  100
AcDbEntity
  8
1
  100
AcDbLine
  10
69.1
  20
2.837005
  30
0
  11
69.2
  21
2.833891
  31
0
  0
LINE
  5
71
  100
AcDbEntity
  8
1
  100
AcDbLine
  10
69.2
  20
2.833891
  30
0
  11
69.3
  21
2.830777
  31
0
  0
LINE
  5
72
  100
AcDbEntity
  8
1
  100
AcDbLine
  10
69.3
  20
2.830777
  30
0
  11
69.4
  21
2.827662
  31
0
  0
LINE
  5
73
  100
AcDbEntity
  8
1
  100
AcDbLine
  10
69.4
  20
2.827662
  30
0
  11
69.5
  21
2.824548
  31
0
  0
LINE
  5
74
  100
AcDbEntity
  8
1
  100
AcDbLine
  10
69.5
  20
2.824548
  30
0
  11
69.6
  21
2.821433
  31
0
  0
LINE
  5
75
  100
AcDbEntity
  8
1
  100
AcDbLine
  10
69.6
  20
2.821433
  30
0
  11
69.7
  21
2.818319
  31
0
  0
LINE
  5
76
  100
AcDbEntity
  8
1
  100
AcDbLine
  10
69.7
  20
2.818319
  30
0
  11
69.8
  21
2.815204
  31
0
  0
LINE
  5
77
  100
AcDbEntity
  8
1
  100
AcDbLine
  10
69.8
  20
2.815204
  30
0
  11
69.9
  21
2.812089
  31
0
  0
LINE
  5
78
  100
AcDbEntity
  8
1
  100
AcDbLine
  10
69.9
  20
2.812089
  30
0
  11
70
  21
2.808975
  31
0
  0
LINE
  5
79
  100
AcDbEntity
  8
1
  100
AcDbLine
  10
70
  20
2.809
  30
0
  11
70
  21
-2.809
  31
0
  0
LINE
  5
7a
  100
AcDbEntity
  8
1
  100
AcDbLine
  10
67.279
  20
-2.893703
  30
0
  11
67.279
  21
2.893703
  31
0
  0
LINE
  5
7b
  100
AcDbEntity
  8
1
  100
AcDbLine
  10
67.279
  20
2.2865
  30
0
  11
67.279
  21
-2.2865
  31
0
  0
LINE
  5
7c
  100
AcDbEntity
  8
1
  100
AcDbLine
  10
65.207651
  20
-2.35098
  30
0
  11
65.2
  21
-2.351218
  31
0
  0
LINE
  5
7d
  100
AcDbEntity
  8
1
  100
AcDbLine
  10
65.2
  20
-2.351218
  30
0
  11
65.1
  21
-2.354315
  31
0
  0
LINE
  5
7e
  100
AcDbEntity
  8
1
  100
AcDbLine
  10
65.1
  20
-2.354315
  30
0
  11
65
  21
-2.357382
  31
0
  0
LINE
  5
7f
  100
AcDbEntity
  8
1
  100
AcDbLine
  10
65
  20
-2.357382
  30
0
  11
64.9
  21
-2.360416
  31
0
  0
LINE
  5
80
  100
AcDbEntity
  8
1
  100
AcDbLine
  10
64.9
  20
-2.360416
  30
0
  11
64.8
  21
-2.363412
  31
0
  0
LINE
  5
81
  100
AcDbEntity
  8
1
  100
AcDbLine
  10
64.8
  20
-2.363412
  30
0
  11
64.7
  21
-2.366366
  31
0
  0
LINE
  5
82
  100
AcDbEntity
  8
1
  100
AcDbLine
  10
64.7
  20
-2.366366
  30
0
  11
64.6
  21
-2.369276
  31
0
  0
LINE
  5
83
  100
AcDbEntity
  8
1
  100
AcDbLine
  10
64.6
  20
-2.369276
  30
0
  11
64.5
  21
-2.372136
  31
0
  0
LINE
  5
84
  100
AcDbEntity
  8
1
  100
AcDbLine
  10
64.5
  20
-2.372136
  30
0
  11
64.4
  21
-2.374942
  31
0
  0
LINE
  5
85
  100
AcDbEntity
  8
1
  100
AcDbLine
  10
64.4
  20
-2.374942
  30
0
  11
64.3
  21
-2.377691
  31
0
  0
LINE
  5
86
  100
AcDbEntity
  8
1
  100
AcDbLine
  10
64.3
  20
-2.377691
  30
0
  11
64.2
  21
-2.380377
  31
0
  0
LINE
  5
87
  100
AcDbEntity
  8
1
  100
AcDbLine
  10
64.2
  20
-2.380377
  30
0
  11
64.1
  21
-2.382996
  31
0
  0
LINE
  5
88
  100
AcDbEntity
  8
1
  100
AcDbLine
  10
64.1
  20
-2.382996
  30
0
  11
64
  21
-2.385544
  31
0
  0
LINE
  5
89
  100
AcDbEntity
  8
1
  100
AcDbLine
  10
64
  20
-2.385544
  30
0
  11
63.9
  21
-2.388016
  31
0
  0
LINE
  5
8a
  100
AcDbEntity
  8
1
  100
AcDbLine
  10
63.9
  20
-2.388016
  30
0
  11
63.8
  21
-2.390408
  31
0
  0
LINE
  5
8b
  100
AcDbEntity
  8
1
  100
AcDbLine
  10
63.8
  20
-2.390408
  30
0
  11
63.7
  21
-2.392714
  31
0
  0
LINE
  5
8c
  100
AcDbEntity
  8
1
  100
AcDbLine
  10
63.7
  20
-2.392714
  30
0
  11
63.6
  21
-2.39493
  31
0
  0
LINE
  5
8d
  100
AcDbEntity
  8
1
  100
AcDbLine
  10
63.6
  20
-2.39493
  30
0
  11
63.5
  21
-2.397051
  31
0
  0
LINE
  5
8e
  100
AcDbEntity
  8
1
  100
AcDbLine
  10
63.5
  20
-2.397051
  30
0
  11
63.4
  21
-2.399072
  31
0
  0
LINE
  5
8f
  100
AcDbEntity
  8
1
  100
AcDbLine
  10
63.4
  20
-2.399072
  30
0
  11
63.3
  21
-2.400989
  31
0
  0
LINE
  5
90
  100
AcDbEntity
  8
1
  100
AcDbLine
  10
63.3
  20
-2.400989
  30
0
  11
63.2
  21
-2.402796
  31
0
  0
LINE
  5
91
  100
AcDbEntity
  8
1
  100
AcDbLine
  10
63.2
  20
-2.402796
  30
0
  11
63.1
  21
-2.404488
  31
0
  0
LINE
  5
92
  100
AcDbEntity
  8
1
  100
AcDbLine
  10
63.1
  20
-2.404488
  30
0
  11
63
  21
-2.406062
  31
0
  0
LINE
  5
93
  100
AcDbEntity
  8
1
  100
AcDbLine
  10
63
  20
-2.406062
  30
0
  11
62.9
  21
-2.407511
  31
0
  0
LINE
  5
94
  100
AcDbEntity
  8
1
  100
AcDbLine
  10
62.9
  20
-2.407511
  30
0
  11
62.8
  21
-2.408831
  31
0
  0
LINE
  5
95
  100
AcDbEntity
  8
1
  100
AcDbLine
  10
62.8
  20
-2.408831
  30
0
  11
62.7
  21
-2.410018
  31
0
  0
LINE
  5
96
  100
AcDbEntity
  8
1
  100
AcDbLine
  10
62.7
  20
-2.410018
  30
0
  11
62.6
  21
-2.411065
  31
0
  0
LINE
  5
97
  100
AcDbEntity
  8
1
  100
AcDbLine
  10
62.6
  20
-2.411065
  30
0
  11
62.5
  21
-2.41197
  31
0
  0
LINE
  5
98
  100
AcDbEntity
  8
1
  100
AcDbLine
  10
62.5
  20
-2.41197
  30
0
  11
62.4
  21
-2.412726
  31
0
  0
LINE
  5
99
  100
AcDbEntity
  8
1
  100
AcDbLine
  10
62.4
  20
-2.412726
  30
0
  11
62.3
  21
-2.413329
  31
0
  0
LINE
  5
9a
  100
AcDbEntity
  8
1
  100
AcDbLine
  10
62.3
  20
-2.413329
  30
0
  11
62.2
  21
-2.413776
  31
0
  0
LINE
  5
9b
  100
AcDbEntity
  8
1
  100
AcDbLine
  10
62.2
  20
-2.413776
  30
0
  11
62.1
  21
-2.41406
  31
0
  0
LINE
  5
9c
  100
AcDbEntity
  8
1
  100
AcDbLine
  10
62.1
  20
-2.41406
  30
0
  11
62
  21
-2.414178
  31
0
  0
LINE
  5
9d
  100
AcDbEntity
  8
1
  100
AcDbLine
  10
62
  20
-2.414178
  30
0
  11
61.9
  21
-2.414126
  31
0
  0
LINE
  5
9e
  100
AcDbEntity
  8
1
  100
AcDbLine
  10
61.9
  20
-2.414126
  30
0
  11
61.8
  21
-2.413899
  31
0
  0
LINE
  5
9f
  100
AcDbEntity
  8
1
  100
AcDbLine
  10
61.8
  20
-2.413899
  30
0
  11
61.7
  21
-2.413494
  31
0
  0
LINE
  5
a0
  100
AcDbEntity
  8
1
  100
AcDbLine
  10
61.7
  20
-2.413494
  30
0
  11
61.6
  21
-2.412905
  31
0
  0
LINE
  5
a1
  100
AcDbEntity
  8
1
  100
AcDbLine
  10
61.6
  20
-2.412905
  30
0
  11
61.5
  21
-2.41213
  31
0
  0
LINE
  5
a2
  100
AcDbEntity
  8
1
  100
AcDbLine
  10
61.5
  20
-2.41213
  30
0
  11
61.4
  21
-2.411165
  31
0
  0
LINE
  5
a3
  100
AcDbEntity
  8
1
  100
AcDbLine
  10
61.4
  20
-2.411165
  30
0
  11
61.3
  21
-2.410005
  31
0
  0
LINE
  5
a4
  100
AcDbEntity
  8
1
  100
AcDbLine
  10
61.3
  20
-2.410005
  30
0
  11
61.2
  21
-2.408649
  31
0
  0
LINE
  5
a5
  100
AcDbEntity
  8
1
  100
AcDbLine
  10
61.2
  20
-2.408649
  30
0
  11
61.1
  21
-2.407092
  31
0
  0
LINE
  5
a6
  100
AcDbEntity
  8
1
  100
AcDbLine
  10
61.1
  20
-2.407092
  30
0
  11
61
  21
-2.405331
  31
0
  0
LINE
  5
a7
  100
AcDbEntity
  8
1
  100
AcDbLine
  10
61
  20
-2.405331
  30
0
  11
60.9
  21
-2.403363
  31
0
  0
LINE
  5
a8
  100
AcDbEntity
  8
1
  100
AcDbLine
  10
60.9
  20
-2.403363
  30
0
  11
60.8
  21
-2.401187
  31
0
  0
LINE
  5
a9
  100
AcDbEntity
  8
1
  100
AcDbLine
  10
60.8
  20
-2.401187
  30
0
  11
60.7
  21
-2.398798
  31
0
  0
LINE
  5
aa
  100
AcDbEntity
  8
1
  100
AcDbLine
  10
60.7
  20
-2.398798
  30
0
  11
60.6
  21
-2.396196
  31
0
  0
LINE
  5
ab
  100
AcDbEntity
  8
1
  100
AcDbLine
  10
60.6
  20
-2.396196
  30
0
  11
60.5
  21
-2.393377
  31
0
  0
LINE
  5
ac
  100
AcDbEntity
  8
1
  100
AcDbLine
  10
60.5
  20
-2.393377
  30
0
  11
60.4
  21
-2.39034
  31
0
  0
LINE
  5
ad
  100
AcDbEntity
  8
1
  100
AcDbLine
  10
60.4
  20
-2.39034
  30
0
  11
60.3
  21
-2.387083
  31
0
  0
LINE
  5
ae
  100
AcDbEntity
  8
1
  100
AcDbLine
  10
60.3
  20
-2.387083
  30
0
  11
60.2
  21
-2.383604
  31
0
  0
LINE
  5
af
  100
AcDbEntity
  8
1
  100
AcDbLine
  10
60.2
  20
-2.383604
  30
0
  11
60.1
  21
-2.379903
  31
0
  0
LINE
  5
b0
  100
AcDbEntity
  8
1
  100
AcDbLine
  10
60.1
  20
-2.379903
  30
0
  11
60
  21
-2.375977
  31
0
  0
LINE
  5
b1
  100
AcDbEntity
  8
1
  100
AcDbLine
  10
60
  20
-2.375977
  30
0
  11
59.9
  21
-2.371828
  31
0
  0
LINE
  5
b2
  100
AcDbEntity
  8
1
  100
AcDbLine
  10
59.9
  20
-2.371828
  30
0
  11
59.8
  21
-2.367452
  31
0
  0
LINE
  5
b3
  100
AcDbEntity
  8
1
  100
AcDbLine
  10
59.8
  20
-2.367452
  30
0
  11
59.7
  21
-2.362852
  31
0
  0
LINE
  5
b4
  100
AcDbEntity
  8
1
  100
AcDbLine
  10
59.7
  20
-2.362852
  30
0
  11
59.6
  21
-2.358026
  31
0
  0
LINE
  5
b5
  100
AcDbEntity
  8
1
  100
AcDbLine
  10
59.6
  20
-2.358026
  30
0
  11
59.5
  21
-2.352974
  31
0
  0
LINE
  5
b6
  100
AcDbEntity
  8
1
  100
AcDbLine
  10
59.5
  20
-2.352974
  30
0
  11
59.4
  21
-2.347697
  31
0
  0
LINE
  5
b7
  100
AcDbEntity
  8
1
  100
AcDbLine
  10
59.4
  20
-2.347697
  30
0
  11
59.3
  21
-2.342195
  31
0
  0
LINE
  5
b8
  100
AcDbEntity
  8
1
  100
AcDbLine
  10
59.3
  20
-2.342195
  30
0
  11
59.2
  21
-2.33647
  31
0
  0
LINE
  5
b9
  100
AcDbEntity
  8
1
  100
AcDbLine
  10
59.2
  20
-2.33647
  30
0
  11
59.1
  21
-2.330523
  31
0
  0
LINE
  5
ba
  100
AcDbEntity
  8
1
  100
AcDbLine
  10
59.1
  20
-2.330523
  30
0
  11
59
  21
-2.324355
  31
0
  0
LINE
  5
bb
  100
AcDbEntity
  8
1
  100
AcDbLine
  10
59
  20
-2.324355
  30
0
  11
58.9
  21
-2.317967
  31
0
  0
LINE
  5
bc
  100
AcDbEntity
  8
1
  100
AcDbLine
  10
58.9
  20
-2.317967
  30
0
  11
58.8
  21
-2.311362
  31
0
  0
LINE
  5
bd
  100
AcDbEntity
  8
1
  100
AcDbLine
  10
58.8
  20
-2.311362
  30
0
  11
58.7
  21
-2.304542
  31
0
  0
LINE
  5
be
  100
AcDbEntity
  8
1
  100
AcDbLine
  10
58.7
  20
-2.304542
  30
0
  11
58.6
  21
-2.297509
  31
0
  0
LINE
  5
bf
  100
AcDbEntity
  8
1
  100
AcDbLine
  10
58.6
  20
-2.297509
  30
0
  11
58.5
  21
-2.290266
  31
0
  0
LINE
  5
c0
  100
AcDbEntity
  8
1
  100
AcDbLine
  10
58.5
  20
-2.290266
  30
0
  11
58.4
  21
-2.282816
  31
0
  0
LINE
  5
c1
  100
AcDbEntity
  8
1
  100
AcDbLine
  10
58.4
  20
-2.282816
  30
0
  11
58.4
  21
-2.290889
  31
0
  0
LINE
  5
c2
  100
AcDbEntity
  8
1
  100
AcDbLine
  10
58.4
  20
-2.290889
  30
0
  11
58.5
  21
-2.273496
  31
0
  0
LINE
  5
c3
  100
AcDbEntity
  8
1
  100
AcDbLine
  10
58.5
  20
-2.273496
  30
0
  11
58.6
  21
-2.255786
  31
0
  0
LINE
  5
c4
  100
AcDbEntity
  8
1
  100
AcDbLine
  10
58.6
  20
-2.255786
  30
0
  11
58.7
  21
-2.237769
  31
0
  0
LINE
  5
c5
  100
AcDbEntity
  8
1
  100
AcDbLine
  10
58.7
  20
-2.237769
  30
0
  11
58.8
  21
-2.219453
  31
0
  0
LINE
  5
c6
  100
AcDbEntity
  8
1
  100
AcDbLine
  10
58.8
  20
-2.219453
  30
0
  11
58.9
  21
-2.20085
  31
0
  0
LINE
  5
c7
  100
AcDbEntity
  8
1
  100
AcDbLine
  10
58.9
  20
-2.20085
  30
0
  11
59
  21
-2.181969
  31
0
  0
LINE
  5
c8
  100
AcDbEntity
  8
1
  100
AcDbLine
  10
59
  20
-2.181969
  30
0
  11
59.1
  21
-2.162822
  31
0
  0
LINE
  5
c9
  100
AcDbEntity
  8
1
  100
AcDbLine
  10
59.1
  20
-2.162822
  30
0
  11
59.2
  21
-2.14342
  31
0
  0
LINE
  5
ca
  100
AcDbEntity
  8
1
  100
AcDbLine
  10
59.2
  20
-2.14342
  30
0
  11
59.3
  21
-2.123775
  31
0
  0
LINE
  5
cb
  100
AcDbEntity
  8
1
  100
AcDbLine
  10
59.3
  20
-2.123775
  30
0
  11
59.4
  21
-2.103898
  31
0
  0
LINE
  5
cc
  100
AcDbEntity
  8
1
  100
AcDbLine
  10
59.4
  20
-2.103898
  30
0
  11
59.5
  21
-2.083803
  31
0
  0
LINE
  5
cd
  100
AcDbEntity
  8
1
  100
AcDbLine
  10
59.5
  20
-2.083803
  30
0
  11
59.6
  21
-2.063502
  31
0
  0
LINE
  5
ce
  100
AcDbEntity
  8
1
  100
AcDbLine
  10
59.6
  20
-2.063502
  30
0
  11
59.7
  21
-2.043008
  31
0
  0
LINE
  5
cf
  100
AcDbEntity
  8
1
  100
AcDbLine
  10
59.7
  20
-2.043008
  30
0
  11
59.8
  21
-2.022334
  31
0
  0
LINE
  5
d0
  100
AcDbEntity
  8
1
  100
AcDbLine
  10
59.8
  20
-2.022334
  30
0
  11
59.9
  21
-2.001495
  31
0
  0
LINE
  5
d1
  100
AcDbEntity
  8
1
  100
AcDbLine
  10
59.9
  20
-2.001495
  30
0
  11
60
  21
-1.980503
  31
0
  0
LINE
  5
d2
  100
AcDbEntity
  8
1
  100
AcDbLine
  10
60
  20
-1.980503
  30
0
  11
60.1
  21
-1.959374
  31
0
  0
LINE
  5
d3
  100
AcDbEntity
  8
1
  100
AcDbLine
  10
60.1
  20
-1.959374
  30
0
  11
60.2
  21
-1.938121
  31
0
  0
LINE
  5
d4
  100
AcDbEntity
  8
1
  100
AcDbLine
  10
60.2
  20
-1.938121
  30
0
  11
60.3
  21
-1.91676
  31
0
  0
LINE
  5
d5
  100
AcDbEntity
  8
1
  100
AcDbLine
  10
60.3
  20
-1.91676
  30
0
  11
60.4
  21
-1.895303
  31
0
  0
LINE
  5
d6
  100
AcDbEntity
  8
1
  100
AcDbLine
  10
60.4
  20
-1.895303
  30
0
  11
60.5
  21
-1.873768
  31
0
  0
LINE
  5
d7
  100
AcDbEntity
  8
1
  100
AcDbLine
  10
60.5
  20
-1.873768
  30
0
  11
60.6
  21
-1.852168
  31
0
  0
LINE
  5
d8
  100
AcDbEntity
  8
1
  100
AcDbLine
  10
60.6
  20
-1.852168
  30
0
  11
60.7
  21
-1.830518
  31
0
  0
LINE
  5
d9
  100
AcDbEntity
  8
1
  100
AcDbLine
  10
60.7
  20
-1.830518
  30
0
  11
60.8
  21
-1.808834
  31
0
  0
LINE
  5
da
  100
AcDbEntity
  8
1
  100
AcDbLine
  10
60.8
  20
-1.808834
  30
0
  11
60.9
  21
-1.78713
  31
0
  0
LINE
  5
db
  100
AcDbEntity
  8
1
  100
AcDbLine
  10
60.9
  20
-1.78713
  30
0
  11
61
  21
-1.765422
  31
0
  0
LINE
  5
dc
  100
AcDbEntity
  8
1
  100
AcDbLine
  10
61
  20
-1.765422
  30
0
  11
61.1
  21
-1.743726
  31
0
  0
LINE
  5
dd
  100
AcDbEntity
  8
1
  100
AcDbLine
  10
61.1
  20
-1.743726
  30
0
  11
61.2
  21
-1.722055
  31
0
  0
LINE
  5
de
  100
AcDbEntity
  8
1
  100
AcDbLine
  10
61.2
  20
-1.722055
  30
0
  11
61.3
  21
-1.700426
  31
0
  0
LINE
  5
df
  100
AcDbEntity
  8
1
  100
AcDbLine
  10
61.3
  20
-1.700426
  30
0
  11
61.4
  21
-1.678853
  31
0
  0
LINE
  5
e0
  100
AcDbEntity
  8
1
  100
AcDbLine
  10
61.4
  20
-1.678853
  30
0
  11
61.5
  21
-1.657352
  31
0
  0
LINE
  5
e1
  100
AcDbEntity
  8
1
  100
AcDbLine
  10
61.5
  20
-1.657352
  30
0
  11
61.6
  21
-1.635937
  31
0
  0
LINE
  5
e2
  100
AcDbEntity
  8
1
  100
AcDbLine
  10
61.6
  20
-1.635937
  30
0
  11
61.7
  21
-1.614624
  31
0
  0
LINE
  5
e3
  100
AcDbEntity
  8
1
  100
AcDbLine
  10
61.7
  20
-1.614624
  30
0
  11
61.8
  21
-1.593427
  31
0
  0
LINE
  5
e4
  100
AcDbEntity
  8
1
  100
AcDbLine
  10
61.8
  20
-1.593427
  30
0
  11
61.9
  21
-1.57236
  31
0
  0
LINE
  5
e5
  100
AcDbEntity
  8
1
  100
AcDbLine
  10
61.9
  20
-1.57236
  30
0
  11
62
  21
-1.551439
  31
0
  0
LINE
  5
e6
  100
AcDbEntity
  8
1
  100
AcDbLine
  10
62
  20
-1.551439
  30
0
  11
62.1
  21
-1.530677
  31
0
  0
LINE
  5
e7
  100
AcDbEntity
  8
1
  100
AcDbLine
  10
62.1
  20
-1.530677
  30
0
  11
62.2
  21
-1.510088
  31
0
  0
LINE
  5
e8
  100
AcDbEntity
  8
1
  100
AcDbLine
  10
62.2
  20
-1.510088
  30
0
  11
62.3
  21
-1.489687
  31
0
  0
LINE
  5
e9
  100
AcDbEntity
  8
1
  100
AcDbLine
  10
62.3
  20
-1.489687
  30
0
  11
62.4
  21
-1.469487
  31
0
  0
LINE
  5
ea
  100
AcDbEntity
  8
1
  100
AcDbLine
  10
62.4
  20
-1.469487
  30
0
  11
62.5
  21
-1.449501
  31
0
  0
LINE
  5
eb
  100
AcDbEntity
  8
1
  100
AcDbLine
  10
62.5
  20
-1.449501
  30
0
  11
62.6
  21
-1.429743
  31
0
  0
LINE
  5
ec
  100
AcDbEntity
  8
1
  100
AcDbLine
  10
62.6
  20
-1.429743
  30
0
  11
62.7
  21
-1.410226
  31
0
  0
LINE
  5
ed
  100
AcDbEntity
  8
1
  100
AcDbLine
  10
62.7
  20
-1.410226
  30
0
  11
62.8
  21
-1.390962
  31
0
  0
LINE
  5
ee
  100
AcDbEntity
  8
1
  100
AcDbLine
  10
62.8
  20
-1.390962
  30
0
  11
62.9
  21
-1.371964
  31
0
  0
LINE
  5
ef
  100
AcDbEntity
  8
1
  100
AcDbLine
  10
62.9
  20
-1.371964
  30
0
  11
63
  21
-1.353244
  31
0
  0
LINE
  5
f0
  100
AcDbEntity
  8
1
  100
AcDbLine
  10
63
  20
-1.353244
  30
0
  11
63.1
  21
-1.334814
  31
0
  0
LINE
  5
f1
  100
AcDbEntity
  8
1
  100
AcDbLine
  10
63.1
  20
-1.334814
  30
0
  11
63.2
  21
-1.316685
  31
0
  0
LINE
  5
f2
  100
AcDbEntity
  8
1
  100
AcDbLine
  10
63.2
  20
-1.316685
  30
0
  11
63.3
  21
-1.298869
  31
0
  0
LINE
  5
f3
  100
AcDbEntity
  8
1
  100
AcDbLine
  10
63.3
  20
-1.298869
  30
0
  11
63.4
  21
-1.281376
  31
0
  0
LINE
  5
f4
  100
AcDbEntity
  8
1
  100
AcDbLine
  10
63.4
  20
-1.281376
  30
0
  11
63.5
  21
-1.264217
  31
0
  0
LINE
  5
f5
  100
AcDbEntity
  8
1
  100
AcDbLine
  10
63.5
  20
-1.264217
  30
0
  11
63.6
  21
-1.247403
  31
0
  0
LINE
  5
f6
  100
AcDbEntity
  8
1
  100
AcDbLine
  10
63.6
  20
-1.247403
  30
0
  11
63.7
  21
-1.230944
  31
0
  0
LINE
  5
f7
  100
AcDbEntity
  8
1
  100
AcDbLine
  10
63.7
  20
-1.230944
  30
0
  11
63.8
  21
-1.214848
  31
0
  0
LINE
  5
f8
  100
AcDbEntity
  8
1
  100
AcDbLine
  10
63.8
  20
-1.214848
  30
0
  11
63.9
  21
-1.199126
  31
0
  0
LINE
  5
f9
  100
AcDbEntity
  8
1
  100
AcDbLine
  10
63.9
  20
-1.199126
  30
0
  11
64
  21
-1.183786
  31
0
  0
LINE
  5
fa
  100
AcDbEntity
  8
1
  100
AcDbLine
  10
64
  20
-1.183786
  30
0
  11
64.1
  21
-1.168838
  31
0
  0
LINE
  5
fb
  100
AcDbEntity
  8
1
  100
AcDbLine
  10
64.1
  20
-1.168838
  30
0
  11
64.2
  21
-1.154288
  31
0
  0
LINE
  5
fc
  100
AcDbEntity
  8
1
  100
AcDbLine
  10
64.2
  20
-1.154288
  30
0
  11
64.3
  21
-1.140146
  31
0
  0
LINE
  5
fd
  100
AcDbEntity
  8
1
  100
AcDbLine
  10
64.3
  20
-1.140146
  30
0
  11
64.4
  21
-1.126418
  31
0
  0
LINE
  5
fe
  100
AcDbEntity
  8
1
  100
AcDbLine
  10
64.4
  20
-1.126418
  30
0
  11
64.5
  21
-1.113113
  31
0
  0
LINE
  5
ff
  100
AcDbEntity
  8
1
  100
AcDbLine
  10
64.5
  20
-1.113113
  30
0
  11
64.6
  21
-1.100236
  31
0
  0
LINE
  5
100
  100
AcDbEntity
  8
1
  100
AcDbLine
  10
64.6
  20
-1.100236
  30
0
  11
64.7
  21
-1.087794
  31
0
  0
LINE
  5
101
  100
AcDbEntity
  8
1
  100
AcDbLine
  10
64.7
  20
-1.087794
  30
0
  11
64.8
  21
-1.075794
  31
0
  0
LINE
  5
102
  100
AcDbEntity
  8
1
  100
AcDbLine
  10
64.8
  20
-1.075794
  30
0
  11
64.9
  21
-1.064242
  31
0
  0
LINE
  5
103
  100
AcDbEntity
  8
1
  100
AcDbLine
  10
64.9
  20
-1.064242
  30
0
  11
65
  21
-1.053142
  31
0
  0
LINE
  5
104
  100
AcDbEntity
  8
1
  100
AcDbLine
  10
65
  20
-1.053142
  30
0
  11
65.1
  21
-1.0425
  31
0
  0
LINE
  5
105
  100
AcDbEntity
  8
1
  100
AcDbLine
  10
65.1
  20
-1.0425
  30
0
  11
65.2
  21
-1.032321
  31
0
  0
LINE
  5
106
  100
AcDbEntity
  8
1
  100
AcDbLine
  10
65.2
  20
-1.032321
  30
0
  11
65.3
  21
-1.022609
  31
0
  0
LINE
  5
107
  100
AcDbEntity
  8
1
  100
AcDbLine
  10
65.3
  20
-1.022609
  30
0
  11
65.4
  21
-1.013368
  31
0
  0
LINE
  5
108
  100
AcDbEntity
  8
1
  100
AcDbLine
  10
65.4
  20
-1.013368
  30
0
  11
65.5
  21
-1.004602
  31
0
  0
LINE
  5
109
  100
AcDbEntity
  8
1
  100
AcDbLine
  10
65.5
  20
-1.004602
  30
0
  11
65.6
  21
-0.996315
  31
0
  0
LINE
  5
10a
  100
AcDbEntity
  8
1
  100
AcDbLine
  10
65.6
  20
-0.996315
  30
0
  11
65.7
  21
-0.988509
  31
0
  0
LINE
  5
10b
  100
AcDbEntity
  8
1
  100
AcDbLine
  10
65.7
  20
-0.988509
  30
0
  11
65.8
  21
-0.981187
  31
0
  0
LINE
  5
10c
  100
AcDbEntity
  8
1
  100
AcDbLine
  10
65.8
  20
-0.981187
  30
0
  11
65.9
  21
-0.974352
  31
0
  0
LINE
  5
10d
  100
AcDbEntity
  8
1
  100
AcDbLine
  10
65.9
  20
-0.974352
  30
0
  11
66
  21
-0.968006
  31
0
  0
LINE
  5
10e
  100
AcDbEntity
  8
1
  100
AcDbLine
  10
66
  20
-0.968006
  30
0
  11
66.1
  21
-0.96215
  31
0
  0
LINE
  5
10f
  100
AcDbEntity
  8
1
  100
AcDbLine
  10
66.1
  20
-0.96215
  30
0
  11
66.2
  21
-0.956786
  31
0
  0
LINE
  5
110
  100
AcDbEntity
  8
1
  100
AcDbLine
  10
66.2
  20
-0.956786
  30
0
  11
66.3
  21
-0.951914
  31
0
  0
LINE
  5
111
  100
AcDbEntity
  8
1
  100
AcDbLine
  10
66.3
  20
-0.951914
  30
0
  11
66.4
  21
-0.947537
  31
0
  0
LINE
  5
112
  100
AcDbEntity
  8
1
  100
AcDbLine
  10
66.4
  20
-0.947537
  30
0
  11
66.5
  21
-0.943654
  31
0
  0
LINE
  5
113
  100
AcDbEntity
  8
1
  100
AcDbLine
  10
66.5
  20
-0.943654
  30
0
  11
66.6
  21
-0.940265
  31
0
  0
LINE
  5
114
  100
AcDbEntity
  8
1
  100
AcDbLine
  10
66.6
  20
-0.940265
  30
0
  11
66.7
  21
-0.93737
  31
0
  0
LINE
  5
115
  100
AcDbEntity
  8
1
  100
AcDbLine
  10
66.7
  20
-0.93737
  30
0
  11
66.8
  21
-0.934968
  31
0
  0
LINE
  5
116
  100
AcDbEntity
  8
1
  100
AcDbLine
  10
66.8
  20
-0.934968
  30
0
  11
66.9
  21
-0.93306
  31
0
  0
LINE
  5
117
  100
AcDbEntity
  8
1
  100
AcDbLine
  10
66.9
  20
-0.93306
  30
0
  11
67
  21
-0.931643
  31
0
  0
LINE
  5
118
  100
AcDbEntity
  8
1
  100
AcDbLine
  10
67
  20
-0.931643
  30
0
  11
67.1
  21
-0.930717
  31
0
  0
LINE
  5
119
  100
AcDbEntity
  8
1
  100
AcDbLine
  10
67.1
  20
-0.930717
  30
0
  11
67.2
  21
-0.930279
  31
0
  0
LINE
  5
11a
  100
AcDbEntity
  8
1
  100
AcDbLine
  10
67.2
  20
-0.930279
  30
0
  11
67.3
  21
-0.89435
  31
0
  0
LINE
  5
11b
  100
AcDbEntity
  8
1
  100
AcDbLine
  10
67.3
  20
-0.89435
  30
0
  11
67.4
  21
-0.894531
  31
0
  0
LINE
  5
11c
  100
AcDbEntity
  8
1
  100
AcDbLine
  10
67.4
  20
-0.894531
  30
0
  11
67.5
  21
-0.894712
  31
0
  0
LINE
  5
11d
  100
AcDbEntity
  8
1
  100
AcDbLine
  10
67.5
  20
-0.894712
  30
0
  11
67.6
  21
-0.894892
  31
0
  0
LINE
  5
11e
  100
AcDbEntity
  8
1
  100
AcDbLine
  10
67.6
  20
-0.894892
  30
0
  11
67.7
  21
-0.895073
  31
0
  0
LINE
  5
11f
  100
AcDbEntity
  8
1
  100
AcDbLine
  10
67.7
  20
-0.895073
  30
0
  11
67.8
  21
-0.895254
  31
0
  0
LINE
  5
120
  100
AcDbEntity
  8
1
  100
AcDbLine
  10
67.8
  20
-0.895254
  30
0
  11
67.9
  21
-0.895435
  31
0
  0
LINE
  5
121
  100
AcDbEntity
  8
1
  100
AcDbLine
  10
67.9
  20
-0.895435
  30
0
  11
68
  21
-0.895616
  31
0
  0
LINE
  5
122
  100
AcDbEntity
  8
1
  100
AcDbLine
  10
68
  20
-0.895616
  30
0
  11
68.1
  21
-0.895797
  31
0
  0
LINE
  5
123
  100
AcDbEntity
  8
1
  100
AcDbLine
  10
68.1
  20
-0.895797
  30
0
  11
68.2
  21
-0.895977
  31
0
  0
LINE
  5
124
  100
AcDbEntity
  8
1
  100
AcDbLine
  10
68.2
  20
-0.895977
  30
0
  11
68.3
  21
-0.896158
  31
0
  0
LINE
  5
125
  100
AcDbEntity
  8
1
  100
AcDbLine
  10
68.3
  20
-0.896158
  30
0
  11
68.4
  21
-0.896339
  31
0
  0
LINE
  5
126
  100
AcDbEntity
  8
1
  100
AcDbLine
  10
68.4
  20
-0.896339
  30
0
  11
68.5
  21
-0.89652
  31
0
  0
LINE
  5
127
  100
AcDbEntity
  8
1
  100
AcDbLine
  10
68.5
  20
-0.89652
  30
0
  11
68.6
  21
-0.896701
  31
0
  0
LINE
  5
128
  100
AcDbEntity
  8
1
  100
AcDbLine
  10
68.6
  20
-0.896701
  30
0
  11
68.7
  21
-0.896882
  31
0
  0
LINE
  5
129
  100
AcDbEntity
  8
1
  100
AcDbLine
  10
68.7
  20
-0.896882
  30
0
  11
68.8
  21
-0.897063
  31
0
  0
LINE
  5
12a
  100
AcDbEntity
  8
1
  100
AcDbLine
  10
68.8
  20
-0.897063
  30
0
  11
68.9
  21
-0.897245
  31
0
  0
LINE
  5
12b
  100
AcDbEntity
  8
1
  100
AcDbLine
  10
68.9
  20
-0.897245
  30
0
  11
69
  21
-0.897426
  31
0
  0
LINE
  5
12c
  100
AcDbEntity
  8
1
  100
AcDbLine
  10
69
  20
-0.897426
  30
0
  11
69.1
  21
-0.897607
  31
0
  0
LINE
  5
12d
  100
AcDbEntity
  8
1
  100
AcDbLine
  10
69.1
  20
-0.897607
  30
0
  11
69.2
  21
-0.897788
  31
0
  0
LINE
  5
12e
  100
AcDbEntity
  8
1
  100
AcDbLine
  10
69.2
  20
-0.897788
  30
0
  11
69.3
  21
-0.897969
  31
0
  0
LINE
  5
12f
  100
AcDbEntity
  8
1
  100
AcDbLine
  10
69.3
  20
-0.897969
  30
0
  11
69.4
  21
-0.898151
  31
0
  0
LINE
  5
130
  100
AcDbEntity
  8
1
  100
AcDbLine
  10
69.4
  20
-0.898151
  30
0
  11
69.5
  21
-0.898332
  31
0
  0
LINE
  5
131
  100
AcDbEntity
  8
1
  100
AcDbLine
  10
69.5
  20
-0.898332
  30
0
  11
69.6
  21
-0.898513
  31
0
  0
LINE
  5
132
  100
AcDbEntity
  8
1
  100
AcDbLine
  10
69.6
  20
-0.898513
  30
0
  11
69.7
  21
-0.898695
  31
0
  0
LINE
  5
133
  100
AcDbEntity
  8
1
  100
AcDbLine
  10
69.7
  20
-0.898695
  30
0
  11
69.8
  21
-0.898876
  31
0
  0
LINE
  5
134
  100
AcDbEntity
  8
1
  100
AcDbLine
  10
69.8
  20
-0.898876
  30
0
  11
69.9
  21
-0.899057
  31
0
  0
LINE
  5
135
  100
AcDbEntity
  8
1
  100
AcDbLine
  10
69.9
  20
-0.899057
  30
0
  11
70
  21
-0.899239
  31
0
  0
LINE
  5
136
  100
AcDbEntity
  8
1
  100
AcDbLine
  10
70
  20
-0.01195
  30
0
  11
69.9
  21
-0.011512
  31
0
  0
LINE
  5
137
  100
AcDbEntity
  8
1
  100
AcDbLine
  10
69.9
  20
-0.011512
  30
0
  11
69.8
  21
-0.011074
  31
0
  0
LINE
  5
138
  100
AcDbEntity
  8
1
  100
AcDbLine
  10
69.8
  20
-0.011074
  30
0
  11
69.7
  21
-0.010636
  31
0
  0
LINE
  5
139
  100
AcDbEntity
  8
1
  100
AcDbLine
  10
69.7
  20
-0.010636
  30
0
  11
69.6
  21
-0.010199
  31
0
  0
LINE
  5
13a
  100
AcDbEntity
  8
1
  100
AcDbLine
  10
69.6
  20
-0.010199
  30
0
  11
69.5
  21
-0.009761
  31
0
  0
LINE
  5
13b
  100
AcDbEntity
  8
1
  100
AcDbLine
  10
69.5
  20
-0.009761
  30
0
  11
69.4
  21
-0.009323
  31
0
  0
LINE
  5
13c
  100
AcDbEntity
  8
1
  100
AcDbLine
  10
69.4
  20
-0.009323
  30
0
  11
69.3
  21
-0.008885
  31
0
  0
LINE
  5
13d
  100
AcDbEntity
  8
1
  100
AcDbLine
  10
69.3
  20
-0.008885
  30
0
  11
69.2
  21
-0.008448
  31
0
  0
LINE
  5
13e
  100
AcDbEntity
  8
1
  100
AcDbLine
  10
69.2
  20
-0.008448
  30
0
  11
69.1
  21
-0.00801
  31
0
  0
LINE
  5
13f
  100
AcDbEntity
  8
1
  100
AcDbLine
  10
69.1
  20
-0.00801
  30
0
  11
69
  21
-0.007572
  31
0
  0
LINE
  5
140
  100
AcDbEntity
  8
1
  100
AcDbLine
  10
69
  20
-0.007572
  30
0
  11
68.9
  21
-0.007135
  31
0
  0
LINE
  5
141
  100
AcDbEntity
  8
1
  100
AcDbLine
  10
68.9
  20
-0.007135
  30
0
  11
68.8
  21
-0.006697
  31
0
  0
LINE
  5
142
  100
AcDbEntity
  8
1
  100
AcDbLine
  10
68.8
  20
-0.006697
  30
0
  11
68.7
  21
-0.00626
  31
0
  0
LINE
  5
143
  100
AcDbEntity
  8
1
  100
AcDbLine
  10
68.7
  20
-0.00626
  30
0
  11
68.6
  21
-0.005822
  31
0
  0
LINE
  5
144
  100
AcDbEntity
  8
1
  100
AcDbLine
  10
68.6
  20
-0.005822
  30
0
  11
68.5
  21
-0.005384
  31
0
  0
LINE
  5
145
  100
AcDbEntity
  8
1
  100
AcDbLine
  10
68.5
  20
-0.005384
  30
0
  11
68.4
  21
-0.004947
  31
0
  0
LINE
  5
146
  100
AcDbEntity
  8
1
  100
AcDbLine
  10
68.4
  20
-0.004947
  30
0
  11
68.3
  21
-0.004509
  31
0
  0
LINE
  5
147
  100
AcDbEntity
  8
1
  100
AcDbLine
  10
68.3
  20
-0.004509
  30
0
  11
68.2
  21
-0.004071
  31
0
  0
LINE
  5
148
  100
AcDbEntity
  8
1
  100
AcDbLine
  10
68.2
  20
-0.004071
  30
0
  11
68.1
  21
-0.003634
  31
0
  0
LINE
  5
149
  100
AcDbEntity
  8
1
  100
AcDbLine
  10
68.1
  20
-0.003634
  30
0
  11
68
  21
-0.003196
  31
0
  0
LINE
  5
14a
  100
AcDbEntity
  8
1
  100
AcDbLine
  10
68
  20
-0.003196
  30
0
  11
67.9
  21
-0.002759
  31
0
  0
LINE
  5
14b
  100
AcDbEntity
  8
1
  100
AcDbLine
  10
67.9
  20
-0.002759
  30
0
  11
67.8
  21
-0.002321
  31
0
  0
LINE
  5
14c
  100
AcDbEntity
  8
1
  100
AcDbLine
  10
67.8
  20
-0.002321
  30
0
  11
67.7
  21
-0.001884
  31
0
  0
LINE
  5
14d
  100
AcDbEntity
  8
1
  100
AcDbLine
  10
67.7
  20
-0.001884
  30
0
  11
67.6
  21
-0.001446
  31
0
  0
LINE
  5
14e
  100
AcDbEntity
  8
1
  100
AcDbLine
  10
67.6
  20
-0.001446
  30
0
  11
67.5
  21
-0.001009
  31
0
  0
LINE
  5
14f
  100
AcDbEntity
  8
1
  100
AcDbLine
  10
67.5
  20
-0.001009
  30
0
  11
67.4
  21
-0.000571
  31
0
  0
LINE
  5
150
  100
AcDbEntity
  8
1
  100
AcDbLine
  10
67.4
  20
-0.000571
  30
0
  11
67.3
  21
-0.000134
  31
0
  0
LINE
  5
151
  100
AcDbEntity
  8
1
  100
AcDbLine
  10
67.3
  20
-0.000134
  30
0
  11
67.2
  21
-0.085147
  31
0
  0
LINE
  5
152
  100
AcDbEntity
  8
1
  100
AcDbLine
  10
67.2
  20
-0.085147
  30
0
  11
67.1
  21
-0.084253
  31
0
  0
LINE
  5
153
  100
AcDbEntity
  8
1
  100
AcDbLine
  10
67.1
  20
-0.084253
  30
0
  11
67
  21
-0.083007
  31
0
  0
LINE
  5
154
  100
AcDbEntity
  8
1
  100
AcDbLine
  10
67
  20
-0.083007
  30
0
  11
66.9
  21
-0.081407
  31
0
  0
LINE
  5
155
  100
AcDbEntity
  8
1
  100
AcDbLine
  10
66.9
  20
-0.081407
  30
0
  11
66.8
  21
-0.079451
  31
0
  0
LINE
  5
156
  100
AcDbEntity
  8
1
  100
AcDbLine
  10
66.8
  20
-0.079451
  30
0
  11
66.7
  21
-0.07714
  31
0
  0
LINE
  5
157
  100
AcDbEntity
  8
1
  100
AcDbLine
  10
66.7
  20
-0.07714
  30
0
  11
66.6
  21
-0.074471
  31
0
  0
LINE
  5
158
  100
AcDbEntity
  8
1
  100
AcDbLine
  10
66.6
  20
-0.074471
  30
0
  11
66.5
  21
-0.071445
  31
0
  0
LINE
  5
159
  100
AcDbEntity
  8
1
  100
AcDbLine
  10
66.5
  20
-0.071445
  30
0
  11
66.4
  21
-0.068061
  31
0
  0
LINE
  5
15a
  100
AcDbEntity
  8
1
  100
AcDbLine
  10
66.4
  20
-0.068061
  30
0
  11
66.3
  21
-0.064317
  31
0
  0
LINE
  5
15b
  100
AcDbEntity
  8
1
  100
AcDbLine
  10
66.3
  20
-0.064317
  30
0
  11
66.2
  21
-0.060214
  31
0
  0
LINE
  5
15c
  100
AcDbEntity
  8
1
  100
AcDbLine
  10
66.2
  20
-0.060214
  30
0
  11
66.1
  21
-0.055751
  31
0
  0
LINE
  5
15d
  100
AcDbEntity
  8
1
  100
AcDbLine
  10
66.1
  20
-0.055751
  30
0
  11
66
  21
-0.050929
  31
0
  0
LINE
  5
15e
  100
AcDbEntity
  8
1
  100
AcDbLine
  10
66
  20
-0.050929
  30
0
  11
65.9
  21
-0.045746
  31
0
  0
LINE
  5
15f
  100
AcDbEntity
  8
1
  100
AcDbLine
  10
65.9
  20
-0.045746
  30
0
  11
65.8
  21
-0.040204
  31
0
  0
LINE
  5
160
  100
AcDbEntity
  8
1
  100
AcDbLine
  10
65.8
  20
-0.040204
  30
0
  11
65.7
  21
-0.034302
  31
0
  0
LINE
  5
161
  100
AcDbEntity
  8
1
  100
AcDbLine
  10
65.7
  20
-0.034302
  30
0
  11
65.6
  21
-0.02804
  31
0
  0
LINE
  5
162
  100
AcDbEntity
  8
1
  100
AcDbLine
  10
65.6
  20
-0.02804
  30
0
  11
65.5
  21
-0.02142
  31
0
  0
LINE
  5
163
  100
AcDbEntity
  8
1
  100
AcDbLine
  10
65.5
  20
-0.02142
  30
0
  11
65.4
  21
-0.014441
  31
0
  0
LINE
  5
164
  100
AcDbEntity
  8
1
  100
AcDbLine
  10
65.4
  20
-0.014441
  30
0
  11
65.3
  21
-0.007105
  31
0
  0
LINE
  5
165
  100
AcDbEntity
  8
1
  100
AcDbLine
  10
65.3
  20
-0.007105
  30
0
  11
65.2
  21
0.000589
  31
0
  0
LINE
  5
166
  100
AcDbEntity
  8
1
  100
AcDbLine
  10
65.2
  20
0.000589
  30
0
  11
65.1
  21
0.008638
  31
0
  0
LINE
  5
167
  100
AcDbEntity
  8
1
  100
AcDbLine
  10
65.1
  20
0.008638
  30
0
  11
65
  21
0.017042
  31
0
  0
LINE
  5
168
  100
AcDbEntity
  8
1
  100
AcDbLine
  10
65
  20
0.017042
  30
0
  11
64.9
  21
0.025799
  31
0
  0
LINE
  5
169
  100
AcDbEntity
  8
1
  100
AcDbLine
  10
64.9
  20
0.025799
  30
0
  11
64.8
  21
0.034909
  31
0
  0
LINE
  5
16a
  100
AcDbEntity
  8
1
  100
AcDbLine
  10
64.8
  20
0.034909
  30
0
  11
64.7
  21
0.044369
  31
0
  0
LINE
  5
16b
  100
AcDbEntity
  8
1
  100
AcDbLine
  10
64.7
  20
0.044369
  30
0
  11
64.6
  21
0.054178
  31
0
  0
LINE
  5
16c
  100
AcDbEntity
  8
1
  100
AcDbLine
  10
64.6
  20
0.054178
  30
0
  11
64.5
  21
0.064334
  31
0
  0
LINE
  5
16d
  100
AcDbEntity
  8
1
  100
AcDbLine
  10
64.5
  20
0.064334
  30
0
  11
64.4
  21
0.074835
  31
0
  0
LINE
  5
16e
  100
AcDbEntity
  8
1
  100
AcDbLine
  10
64.4
  20
0.074835
  30
0
  11
64.3
  21
0.085678
  31
0
  0
LINE
  5
16f
  100
AcDbEntity
  8
1
  100
AcDbLine
  10
64.3
  20
0.085678
  30
0
  11
64.2
  21
0.096862
  31
0
  0
LINE
  5
170
  100
AcDbEntity
  8
1
  100
AcDbLine
  10
64.2
  20
0.096862
  30
0
  11
64.1
  21
0.108385
  31
0
  0
LINE
  5
171
  100
AcDbEntity
  8
1
  100
AcDbLine
  10
64.1
  20
0.108385
  30
0
  11
64
  21
0.120242
  31
0
  0
LINE
  5
172
  100
AcDbEntity
  8
1
  100
AcDbLine
  10
64
  20
0.120242
  30
0
  11
63.9
  21
0.132432
  31
0
  0
LINE
  5
173
  100
AcDbEntity
  8
1
  100
AcDbLine
  10
63.9
  20
0.132432
  30
0
  11
63.8
  21
0.144952
  31
0
  0
LINE
  5
174
  100
AcDbEntity
  8
1
  100
AcDbLine
  10
63.8
  20
0.144952
  30
0
  11
63.7
  21
0.157798
  31
0
  0
LINE
  5
175
  100
AcDbEntity
  8
1
  100
AcDbLine
  10
63.7
  20
0.157798
  30
0
  11
63.6
  21
0.170968
  31
0
  0
LINE
  5
176
  100
AcDbEntity
  8
1
  100
AcDbLine
  10
63.6
  20
0.170968
  30
0
  11
63.5
  21
0.184457
  31
0
  0
LINE
  5
177
  100
AcDbEntity
  8
1
  100
AcDbLine
  10
63.5
  20
0.184457
  30
0
  11
63.4
  21
0.198262
  31
0
  0
LINE
  5
178
  100
AcDbEntity
  8
1
  100
AcDbLine
  10
63.4
  20
0.198262
  30
0
  11
63.3
  21
0.212379
  31
0
  0
LINE
  5
179
  100
AcDbEntity
  8
1
  100
AcDbLine
  10
63.3
  20
0.212379
  30
0
  11
63.2
  21
0.226805
  31
0
  0
LINE
  5
17a
  100
AcDbEntity
  8
1
  100
AcDbLine
  10
63.2
  20
0.226805
  30
0
  11
63.1
  21
0.241535
  31
0
  0
LINE
  5
17b
  100
AcDbEntity
  8
1
  100
AcDbLine
  10
63.1
  20
0.241535
  30
0
  11
63
  21
0.256564
  31
0
  0
LINE
  5
17c
  100
AcDbEntity
  8
1
  100
AcDbLine
  10
63
  20
0.256564
  30
0
  11
62.9
  21
0.271889
  31
0
  0
LINE
  5
17d
  100
AcDbEntity
  8
1
  100
AcDbLine
  10
62.9
  20
0.271889
  30
0
  11
62.8
  21
0.287504
  31
0
  0
LINE
  5
17e
  100
AcDbEntity
  8
1
  100
AcDbLine
  10
62.8
  20
0.287504
  30
0
  11
62.7
  21
0.303406
  31
0
  0
LINE
  5
17f
  100
AcDbEntity
  8
1
  100
AcDbLine
  10
62.7
  20
0.303406
  30
0
  11
62.6
  21
0.319588
  31
0
  0
LINE
  5
180
  100
AcDbEntity
  8
1
  100
AcDbLine
  10
62.6
  20
0.319588
  30
0
  11
62.5
  21
0.336046
  31
0
  0
LINE
  5
181
  100
AcDbEntity
  8
1
  100
AcDbLine
  10
62.5
  20
0.336046
  30
0
  11
62.4
  21
0.352774
  31
0
  0
LINE
  5
182
  100
AcDbEntity
  8
1
  100
AcDbLine
  10
62.4
  20
0.352774
  30
0
  11
62.3
  21
0.369766
  31
0
  0
LINE
  5
183
  100
AcDbEntity
  8
1
  100
AcDbLine
  10
62.3
  20
0.369766
  30
0
  11
62.2
  21
0.387018
  31
0
  0
LINE
  5
184
  100
AcDbEntity
  8
1
  100
AcDbLine
  10
62.2
  20
0.387018
  30
0
  11
62.1
  21
0.404523
  31
0
  0
LINE
  5
185
  100
AcDbEntity
  8
1
  100
AcDbLine
  10
62.1
  20
0.404523
  30
0
  11
62
  21
0.422276
  31
0
  0
LINE
  5
186
  100
AcDbEntity
  8
1
  100
AcDbLine
  10
62
  20
0.422276
  30
0
  11
61.9
  21
0.44027
  31
0
  0
LINE
  5
187
  100
AcDbEntity
  8
1
  100
AcDbLine
  10
61.9
  20
0.44027
  30
0
  11
61.8
  21
0.458498
  31
0
  0
LINE
  5
188
  100
AcDbEntity
  8
1
  100
AcDbLine
  10
61.8
  20
0.458498
  30
0
  11
61.7
  21
0.476955
  31
0
  0
LINE
  5
189
  100
AcDbEntity
  8
1
  100
AcDbLine
  10
61.7
  20
0.476955
  30
0
  11
61.6
  21
0.495633
  31
0
  0
LINE
  5
18a
  100
AcDbEntity
  8
1
  100
AcDbLine
  10
61.6
  20
0.495633
  30
0
  11
61.5
  21
0.514527
  31
0
  0
LINE
  5
18b
  100
AcDbEntity
  8
1
  100
AcDbLine
  10
61.5
  20
0.514527
  30
0
  11
61.4
  21
0.533629
  31
0
  0
LINE
  5
18c
  100
AcDbEntity
  8
1
  100
AcDbLine
  10
61.4
  20
0.533629
  30
0
  11
61.3
  21
0.552932
  31
0
  0
LINE
  5
18d
  100
AcDbEntity
  8
1
  100
AcDbLine
  10
61.3
  20
0.552932
  30
0
  11
61.2
  21
0.572428
  31
0
  0
LINE
  5
18e
  100
AcDbEntity
  8
1
  100
AcDbLine
  10
61.2
  20
0.572428
  30
0
  11
61.1
  21
0.592112
  31
0
  0
LINE
  5
18f
  100
AcDbEntity
  8
1
  100
AcDbLine
  10
61.1
  20
0.592112
  30
0
  11
61
  21
0.611974
  31
0
  0
LINE
  5
190
  100
AcDbEntity
  8
1
  100
AcDbLine
  10
61
  20
0.611974
  30
0
  11
60.9
  21
0.632009
  31
0
  0
LINE
  5
191
  100
AcDbEntity
  8
1
  100
AcDbLine
  10
60.9
  20
0.632009
  30
0
  11
60.8
  21
0.652207
  31
0
  0
LINE
  5
192
  100
AcDbEntity
  8
1
  100
AcDbLine
  10
60.8
  20
0.652207
  30
0
  11
60.7
  21
0.672562
  31
0
  0
LINE
  5
193
  100
AcDbEntity
  8
1
  100
AcDbLine
  10
60.7
  20
0.672562
  30
0
  11
60.6
  21
0.693065
  31
0
  0
LINE
  5
194
  100
AcDbEntity
  8
1
  100
AcDbLine
  10
60.6
  20
0.693065
  30
0
  11
60.5
  21
0.713708
  31
0
  0
LINE
  5
195
  100
AcDbEntity
  8
1
  100
AcDbLine
  10
60.5
  20
0.713708
  30
0
  11
60.4
  21
0.734485
  31
0
  0
LINE
  5
196
  100
AcDbEntity
  8
1
  100
AcDbLine
  10
60.4
  20
0.734485
  30
0
  11
60.3
  21
0.755385
  31
0
  0
LINE
  5
197
  100
AcDbEntity
  8
1
  100
AcDbLine
  10
60.3
  20
0.755385
  30
0
  11
60.2
  21
0.776402
  31
0
  0
LINE
  5
198
  100
AcDbEntity
  8
1
  100
AcDbLine
  10
60.2
  20
0.776402
  30
0
  11
60.1
  21
0.797526
  31
0
  0
LINE
  5
199
  100
AcDbEntity
  8
1
  100
AcDbLine
  10
60.1
  20
0.797526
  30
0
  11
60
  21
0.818751
  31
0
  0
LINE
  5
19a
  100
AcDbEntity
  8
1
  100
AcDbLine
  10
60
  20
0.818751
  30
0
  11
59.9
  21
0.840066
  31
0
  0
LINE
  5
19b
  100
AcDbEntity
  8
1
  100
AcDbLine
  10
59.9
  20
0.840066
  30
0
  11
59.8
  21
0.861464
  31
0
  0
LINE
  5
19c
  100
AcDbEntity
  8
1
  100
AcDbLine
  10
59.8
  20
0.861464
  30
0
  11
59.7
  21
0.882937
  31
0
  0
LINE
  5
19d
  100
AcDbEntity
  8
1
  100
AcDbLine
  10
59.7
  20
0.882937
  30
0
  11
59.6
  21
0.904476
  31
0
  0
LINE
  5
19e
  100
AcDbEntity
  8
1
  100
AcDbLine
  10
59.6
  20
0.904476
  30
0
  11
59.5
  21
0.926072
  31
0
  0
LINE
  5
19f
  100
AcDbEntity
  8
1
  100
AcDbLine
  10
59.5
  20
0.926072
  30
0
  11
59.4
  21
0.947717
  31
0
  0
LINE
  5
1a0
  100
AcDbEntity
  8
1
  100
AcDbLine
  10
59.4
  20
0.947717
  30
0
  11
59.3
  21
0.969402
  31
0
  0
LINE
  5
1a1
  100
AcDbEntity
  8
1
  100
AcDbLine
  10
59.3
  20
0.969402
  30
0
  11
59.2
  21
0.991119
  31
0
  0
LINE
  5
1a2
  100
AcDbEntity
  8
1
  100
AcDbLine
  10
59.2
  20
0.991119
  30
0
  11
59.1
  21
1.012859
  31
0
  0
LINE
  5
1a3
  100
AcDbEntity
  8
1
  100
AcDbLine
  10
59.1
  20
1.012859
  30
0
  11
59
  21
1.034614
  31
0
  0
LINE
  5
1a4
  100
AcDbEntity
  8
1
  100
AcDbLine
  10
59
  20
1.034614
  30
0
  11
58.9
  21
1.056376
  31
0
  0
LINE
  5
1a5
  100
AcDbEntity
  8
1
  100
AcDbLine
  10
58.9
  20
1.056376
  30
0
  11
58.8
  21
1.078135
  31
0
  0
LINE
  5
1a6
  100
AcDbEntity
  8
1
  100
AcDbLine
  10
58.8
  20
1.078135
  30
0
  11
58.7
  21
1.099885
  31
0
  0
LINE
  5
1a7
  100
AcDbEntity
  8
1
  100
AcDbLine
  10
58.7
  20
1.099885
  30
0
  11
58.6
  21
1.121615
  31
0
  0
LINE
  5
1a8
  100
AcDbEntity
  8
1
  100
AcDbLine
  10
58.6
  20
1.121615
  30
0
  11
58.5
  21
1.143318
  31
0
  0
LINE
  5
1a9
  100
AcDbEntity
  8
1
  100
AcDbLine
  10
58.5
  20
1.143318
  30
0
  11
58.4
  21
1.164986
  31
0
  0
LINE
  5
1aa
  100
AcDbEntity
  8
1
  100
AcDbLine
  10
58.4
  20
1.164986
  30
0
  11
58.4
  21
1.149029
  31
0
  0
LINE
  5
1ab
  100
AcDbEntity
  8
1
  100
AcDbLine
  10
58.4
  20
1.149029
  30
0
  11
58.5
  21
1.176312
  31
0
  0
LINE
  5
1ac
  100
AcDbEntity
  8
1
  100
AcDbLine
  10
58.5
  20
1.176312
  30
0
  11
58.6
  21
1.203327
  31
0
  0
LINE
  5
1ad
  100
AcDbEntity
  8
1
  100
AcDbLine
  10
58.6
  20
1.203327
  30
0
  11
58.7
  21
1.230061
  31
0
  0
LINE
  5
1ae
  100
AcDbEntity
  8
1
  100
AcDbLine
  10
58.7
  20
1.230061
  30
0
  11
58.8
  21
1.256502
  31
0
  0
LINE
  5
1af
  100
AcDbEntity
  8
1
  100
AcDbLine
  10
58.8
  20
1.256502
  30
0
  11
58.9
  21
1.282638
  31
0
  0
LINE
  5
1b0
  100
AcDbEntity
  8
1
  100
AcDbLine
  10
58.9
  20
1.282638
  30
0
  11
59
  21
1.308458
  31
0
  0
LINE
  5
1b1
  100
AcDbEntity
  8
1
  100
AcDbLine
  10
59
  20
1.308458
  30
0
  11
59.1
  21
1.333949
  31
0
  0
LINE
  5
1b2
  100
AcDbEntity
  8
1
  100
AcDbLine
  10
59.1
  20
1.333949
  30
0
  11
59.2
  21
1.359103
  31
0
  0
LINE
  5
1b3
  100
AcDbEntity
  8
1
  100
AcDbLine
  10
59.2
  20
1.359103
  30
0
  11
59.3
  21
1.383907
  31
0
  0
LINE
  5
1b4
  100
AcDbEntity
  8
1
  100
AcDbLine
  10
59.3
  20
1.383907
  30
0
  11
59.4
  21
1.408353
  31
0
  0
LINE
  5
1b5
  100
AcDbEntity
  8
1
  100
AcDbLine
  10
59.4
  20
1.408353
  30
0
  11
59.5
  21
1.432431
  31
0
  0
LINE
  5
1b6
  100
AcDbEntity
  8
1
  100
AcDbLine
  10
59.5
  20
1.432431
  30
0
  11
59.6
  21
1.456132
  31
0
  0
LINE
  5
1b7
  100
AcDbEntity
  8
1
  100
AcDbLine
  10
59.6
  20
1.456132
  30
0
  11
59.7
  21
1.479448
  31
0
  0
LINE
  5
1b8
  100
AcDbEntity
  8
1
  100
AcDbLine
  10
59.7
  20
1.479448
  30
0
  11
59.8
  21
1.502371
  31
0
  0
LINE
  5
1b9
  100
AcDbEntity
  8
1
  100
AcDbLine
  10
59.8
  20
1.502371
  30
0
  11
59.9
  21
1.524892
  31
0
  0
LINE
  5
1ba
  100
AcDbEntity
  8
1
  100
AcDbLine
  10
59.9
  20
1.524892
  30
0
  11
60
  21
1.547006
  31
0
  0
LINE
  5
1bb
  100
AcDbEntity
  8
1
  100
AcDbLine
  10
60
  20
1.547006
  30
0
  11
60.1
  21
1.568706
  31
0
  0
LINE
  5
1bc
  100
AcDbEntity
  8
1
  100
AcDbLine
  10
60.1
  20
1.568706
  30
0
  11
60.2
  21
1.589985
  31
0
  0
LINE
  5
1bd
  100
AcDbEntity
  8
1
  100
AcDbLine
  10
60.2
  20
1.589985
  30
0
  11
60.3
  21
1.610839
  31
0
  0
LINE
  5
1be
  100
AcDbEntity
  8
1
  100
AcDbLine
  10
60.3
  20
1.610839
  30
0
  11
60.4
  21
1.631262
  31
0
  0
LINE
  5
1bf
  100
AcDbEntity
  8
1
  100
AcDbLine
  10
60.4
  20
1.631262
  30
0
  11
60.5
  21
1.65125
  31
0
  0
LINE
  5
1c0
  100
AcDbEntity
  8
1
  100
AcDbLine
  10
60.5
  20
1.65125
  30
0
  11
60.6
  21
1.670799
  31
0
  0
LINE
  5
1c1
  100
AcDbEntity
  8
1
  100
AcDbLine
  10
60.6
  20
1.670799
  30
0
  11
60.7
  21
1.689904
  31
0
  0
LINE
  5
1c2
  100
AcDbEntity
  8
1
  100
AcDbLine
  10
60.7
  20
1.689904
  30
0
  11
60.8
  21
1.708565
  31
0
  0
LINE
  5
1c3
  100
AcDbEntity
  8
1
  100
AcDbLine
  10
60.8
  20
1.708565
  30
0
  11
60.9
  21
1.726777
  31
0
  0
LINE
  5
1c4
  100
AcDbEntity
  8
1
  100
AcDbLine
  10
60.9
  20
1.726777
  30
0
  11
61
  21
1.744538
  31
0
  0
LINE
  5
1c5
  100
AcDbEntity
  8
1
  100
AcDbLine
  10
61
  20
1.744538
  30
0
  11
61.1
  21
1.761848
  31
0
  0
LINE
  5
1c6
  100
AcDbEntity
  8
1
  100
AcDbLine
  10
61.1
  20
1.761848
  30
0
  11
61.2
  21
1.778704
  31
0
  0
LINE
  5
1c7
  100
AcDbEntity
  8
1
  100
AcDbLine
  10
61.2
  20
1.778704
  30
0
  11
61.3
  21
1.795108
  31
0
  0
LINE
  5
1c8
  100
AcDbEntity
  8
1
  100
AcDbLine
  10
61.3
  20
1.795108
  30
0
  11
61.4
  21
1.811057
  31
0
  0
LINE
  5
1c9
  100
AcDbEntity
  8
1
  100
AcDbLine
  10
61.4
  20
1.811057
  30
0
  11
61.5
  21
1.826552
  31
0
  0
LINE
  5
1ca
  100
AcDbEntity
  8
1
  100
AcDbLine
  10
61.5
  20
1.826552
  30
0
  11
61.6
  21
1.841595
  31
0
  0
LINE
  5
1cb
  100
AcDbEntity
  8
1
  100
AcDbLine
  10
61.6
  20
1.841595
  30
0
  11
61.7
  21
1.856186
  31
0
  0
LINE
  5
1cc
  100
AcDbEntity
  8
1
  100
AcDbLine
  10
61.7
  20
1.856186
  30
0
  11
61.8
  21
1.870326
  31
0
  0
LINE
  5
1cd
  100
AcDbEntity
  8
1
  100
AcDbLine
  10
61.8
  20
1.870326
  30
0
  11
61.9
  21
1.884019
  31
0
  0
LINE
  5
1ce
  100
AcDbEntity
  8
1
  100
AcDbLine
  10
61.9
  20
1.884019
  30
0
  11
62
  21
1.897264
  31
0
  0
LINE
  5
1cf
  100
AcDbEntity
  8
1
  100
AcDbLine
  10
62
  20
1.897264
  30
0
  11
62.1
  21
1.910066
  31
0
  0
LINE
  5
1d0
  100
AcDbEntity
  8
1
  100
AcDbLine
  10
62.1
  20
1.910066
  30
0
  11
62.2
  21
1.922428
  31
0
  0
LINE
  5
1d1
  100
AcDbEntity
  8
1
  100
AcDbLine
  10
62.2
  20
1.922428
  30
0
  11
62.3
  21
1.934352
  31
0
  0
LINE
  5
1d2
  100
AcDbEntity
  8
1
  100
AcDbLine
  10
62.3
  20
1.934352
  30
0
  11
62.4
  21
1.945843
  31
0
  0
LINE
  5
1d3
  100
AcDbEntity
  8
1
  100
AcDbLine
  10
62.4
  20
1.945843
  30
0
  11
62.5
  21
1.956903
  31
0
  0
LINE
  5
1d4
  100
AcDbEntity
  8
1
  100
AcDbLine
  10
62.5
  20
1.956903
  30
0
  11
62.6
  21
1.967538
  31
0
  0
LINE
  5
1d5
  100
AcDbEntity
  8
1
  100
AcDbLine
  10
62.6
  20
1.967538
  30
0
  11
62.7
  21
1.977752
  31
0
  0
LINE
  5
1d6
  100
AcDbEntity
  8
1
  100
AcDbLine
  10
62.7
  20
1.977752
  30
0
  11
62.8
  21
1.987549
  31
0
  0
LINE
  5
1d7
  100
AcDbEntity
  8
1
  100
AcDbLine
  10
62.8
  20
1.987549
  30
0
  11
62.9
  21
1.996934
  31
0
  0
LINE
  5
1d8
  100
AcDbEntity
  8
1
  100
AcDbLine
  10
62.9
  20
1.996934
  30
0
  11
63
  21
2.005913
  31
0
  0
LINE
  5
1d9
  100
AcDbEntity
  8
1
  100
AcDbLine
  10
63
  20
2.005913
  30
0
  11
63.1
  21
2.014491
  31
0
  0
LINE
  5
1da
  100
AcDbEntity
  8
1
  100
AcDbLine
  10
63.1
  20
2.014491
  30
0
  11
63.2
  21
2.022674
  31
0
  0
LINE
  5
1db
  100
AcDbEntity
  8
1
  100
AcDbLine
  10
63.2
  20
2.022674
  30
0
  11
63.3
  21
2.030466
  31
0
  0
LINE
  5
1dc
  100
AcDbEntity
  8
1
  100
AcDbLine
  10
63.3
  20
2.030466
  30
0
  11
63.4
  21
2.037874
  31
0
  0
LINE
  5
1dd
  100
AcDbEntity
  8
1
  100
AcDbLine
  10
63.4
  20
2.037874
  30
0
  11
63.5
  21
2.044904
  31
0
  0
LINE
  5
1de
  100
AcDbEntity
  8
1
  100
AcDbLine
  10
63.5
  20
2.044904
  30
0
  11
63.6
  21
2.051561
  31
0
  0
LINE
  5
1df
  100
AcDbEntity
  8
1
  100
AcDbLine
  10
63.6
  20
2.051561
  30
0
  11
63.7
  21
2.057853
  31
0
  0
LINE
  5
1e0
  100
AcDbEntity
  8
1
  100
AcDbLine
  10
63.7
  20
2.057853
  30
0
  11
63.8
  21
2.063784
  31
0
  0
LINE
  5
1e1
  100
AcDbEntity
  8
1
  100
AcDbLine
  10
63.8
  20
2.063784
  30
0
  11
63.9
  21
2.069362
  31
0
  0
LINE
  5
1e2
  100
AcDbEntity
  8
1
  100
AcDbLine
  10
63.9
  20
2.069362
  30
0
  11
64
  21
2.074592
  31
0
  0
LINE
  5
1e3
  100
AcDbEntity
  8
1
  100
AcDbLine
  10
64
  20
2.074592
  30
0
  11
64.1
  21
2.07948
  31
0
  0
LINE
  5
1e4
  100
AcDbEntity
  8
1
  100
AcDbLine
  10
64.1
  20
2.07948
  30
0
  11
64.2
  21
2.084034
  31
0
  0
LINE
  5
1e5
  100
AcDbEntity
  8
1
  100
AcDbLine
  10
64.2
  20
2.084034
  30
0
  11
64.3
  21
2.088258
  31
0
  0
LINE
  5
1e6
  100
AcDbEntity
  8
1
  100
AcDbLine
  10
64.3
  20
2.088258
  30
0
  11
64.4
  21
2.09216
  31
0
  0
LINE
  5
1e7
  100
AcDbEntity
  8
1
  100
AcDbLine
  10
64.4
  20
2.09216
  30
0
  11
64.5
  21
2.095745
  31
0
  0
LINE
  5
1e8
  100
AcDbEntity
  8
1
  100
AcDbLine
  10
64.5
  20
2.095745
  30
0
  11
64.6
  21
2.09902
  31
0
  0
LINE
  5
1e9
  100
AcDbEntity
  8
1
  100
AcDbLine
  10
64.6
  20
2.09902
  30
0
  11
64.7
  21
2.10199
  31
0
  0
LINE
  5
1ea
  100
AcDbEntity
  8
1
  100
AcDbLine
  10
64.7
  20
2.10199
  30
0
  11
64.8
  21
2.104661
  31
0
  0
LINE
  5
1eb
  100
AcDbEntity
  8
1
  100
AcDbLine
  10
64.8
  20
2.104661
  30
0
  11
64.9
  21
2.10704
  31
0
  0
LINE
  5
1ec
  100
AcDbEntity
  8
1
  100
AcDbLine
  10
64.9
  20
2.10704
  30
0
  11
65
  21
2.109131
  31
0
  0
LINE
  5
1ed
  100
AcDbEntity
  8
1
  100
AcDbLine
  10
65
  20
2.109131
  30
0
  11
65.1
  21
2.11094
  31
0
  0
LINE
  5
1ee
  100
AcDbEntity
  8
1
  100
AcDbLine
  10
65.1
  20
2.11094
  30
0
  11
65.2
  21
2.112472
  31
0
  0
LINE
  5
1ef
  100
AcDbEntity
  8
1
  100
AcDbLine
  10
65.2
  20
2.112472
  30
0
  11
65.3
  21
2.113733
  31
0
  0
LINE
  5
1f0
  100
AcDbEntity
  8
1
  100
AcDbLine
  10
65.3
  20
2.113733
  30
0
  11
65.4
  21
2.114727
  31
0
  0
LINE
  5
1f1
  100
AcDbEntity
  8
1
  100
AcDbLine
  10
65.4
  20
2.114727
  30
0
  11
65.5
  21
2.11546
  31
0
  0
LINE
  5
1f2
  100
AcDbEntity
  8
1
  100
AcDbLine
  10
65.5
  20
2.11546
  30
0
  11
65.6
  21
2.115935
  31
0
  0
LINE
  5
1f3
  100
AcDbEntity
  8
1
  100
AcDbLine
  10
65.6
  20
2.115935
  30
0
  11
65.7
  21
2.116158
  31
0
  0
LINE
  5
1f4
  100
AcDbEntity
  8
1
  100
AcDbLine
  10
65.7
  20
2.116158
  30
0
  11
65.8
  21
2.116132
  31
0
  0
LINE
  5
1f5
  100
AcDbEntity
  8
1
  100
AcDbLine
  10
65.8
  20
2.116132
  30
0
  11
65.9
  21
2.115861
  31
0
  0
LINE
  5
1f6
  100
AcDbEntity
  8
1
  100
AcDbLine
  10
65.9
  20
2.115861
  30
0
  11
66
  21
2.115349
  31
0
  0
LINE
  5
1f7
  100
AcDbEntity
  8
1
  100
AcDbLine
  10
66
  20
2.115349
  30
0
  11
66.1
  21
2.1146
  31
0
  0
LINE
  5
1f8
  100
AcDbEntity
  8
1
  100
AcDbLine
  10
66.1
  20
2.1146
  30
0
  11
66.2
  21
2.113616
  31
0
  0
LINE
  5
1f9
  100
AcDbEntity
  8
1
  100
AcDbLine
  10
66.2
  20
2.113616
  30
0
  11
66.3
  21
2.1124
  31
0
  0
LINE
  5
1fa
  100
AcDbEntity
  8
1
  100
AcDbLine
  10
66.3
  20
2.1124
  30
0
  11
66.4
  21
2.110956
  31
0
  0
LINE
  5
1fb
  100
AcDbEntity
  8
1
  100
AcDbLine
  10
66.4
  20
2.110956
  30
0
  11
66.5
  21
2.109285
  31
0
  0
LINE
  5
1fc
  100
AcDbEntity
  8
1
  100
AcDbLine
  10
66.5
  20
2.109285
  30
0
  11
66.6
  21
2.107389
  31
0
  0
LINE
  5
1fd
  100
AcDbEntity
  8
1
  100
AcDbLine
  10
66.6
  20
2.107389
  30
0
  11
66.7
  21
2.105272
  31
0
  0
LINE
  5
1fe
  100
AcDbEntity
  8
1
  100
AcDbLine
  10
66.7
  20
2.105272
  30
0
  11
66.8
  21
2.102933
  31
0
  0
LINE
  5
1ff
  100
AcDbEntity
  8
1
  100
AcDbLine
  10
66.8
  20
2.102933
  30
0
  11
66.9
  21
2.100374
  31
0
  0
LINE
  5
200
  100
AcDbEntity
  8
1
  100
AcDbLine
  10
66.9
  20
2.100374
  30
0
  11
67
  21
2.097598
  31
0
  0
LINE
  5
201
  100
AcDbEntity
  8
1
  100
AcDbLine
  10
67
  20
2.097598
  30
0
  11
67.1
  21
2.094603
  31
0
  0
LINE
  5
202
  100
AcDbEntity
  8
1
  100
AcDbLine
  10
67.1
  20
2.094603
  30
0
  11
67.2
  21
2.091391
  31
0
  0
LINE
  5
203
  100
AcDbEntity
  8
1
  100
AcDbLine
  10
67.2
  20
2.091391
  30
0
  11
67.3
  21
2.75134
  31
0
  0
LINE
  5
204
  100
AcDbEntity
  8
1
  100
AcDbLine
  10
67.3
  20
2.75134
  30
0
  11
67.4
  21
2.748007
  31
0
  0
LINE
  5
205
  100
AcDbEntity
  8
1
  100
AcDbLine
  10
67.4
  20
2.748007
  30
0
  11
67.5
  21
2.744675
  31
0
  0
LINE
  5
206
  100
AcDbEntity
  8
1
  100
AcDbLine
  10
67.5
  20
2.744675
  30
0
  11
67.6
  21
2.741341
  31
0
  0
LINE
  5
207
  100
AcDbEntity
  8
1
  100
AcDbLine
  10
67.6
  20
2.741341
  30
0
  11
67.7
  21
2.738007
  31
0
  0
LINE
  5
208
  100
AcDbEntity
  8
1
  100
AcDbLine
  10
67.7
  20
2.738007
  30
0
  11
67.8
  21
2.734673
  31
0
  0
LINE
  5
209
  100
AcDbEntity
  8
1
  100
AcDbLine
  10
67.8
  20
2.734673
  30
0
  11
67.9
  21
2.731338
  31
0
  0
LINE
  5
20a
  100
AcDbEntity
  8
1
  100
AcDbLine
  10
67.9
  20
2.731338
  30
0
  11
68
  21
2.728003
  31
0
  0
LINE
  5
20b
  100
AcDbEntity
  8
1
  100
AcDbLine
  10
68
  20
2.728003
  30
0
  11
68.1
  21
2.724667
  31
0
  0
LINE
  5
20c
  100
AcDbEntity
  8
1
  100
AcDbLine
  10
68.1
  20
2.724667
  30
0
  11
68.2
  21
2.72133
  31
0
  0
LINE
  5
20d
  100
AcDbEntity
  8
1
  100
AcDbLine
  10
68.2
  20
2.72133
  30
0
  11
68.3
  21
2.717993
  31
0
  0
LINE
  5
20e
  100
AcDbEntity
  8
1
  100
AcDbLine
  10
68.3
  20
2.717993
  30
0
  11
68.4
  21
2.714655
  31
0
  0
LINE
  5
20f
  100
AcDbEntity
  8
1
  100
AcDbLine
  10
68.4
  20
2.714655
  30
0
  11
68.5
  21
2.711317
  31
0
  0
LINE
  5
210
  100
AcDbEntity
  8
1
  100
AcDbLine
  10
68.5
  20
2.711317
  30
0
  11
68.6
  21
2.707978
  31
0
  0
LINE
  5
211
  100
AcDbEntity
  8
1
  100
AcDbLine
  10
68.6
  20
2.707978
  30
0
  11
68.7
  21
2.704639
  31
0
  0
LINE
  5
212
  100
AcDbEntity
  8
1
  100
AcDbLine
  10
68.7
  20
2.704639
  30
0
  11
68.8
  21
2.701299
  31
0
  0
LINE
  5
213
  100
AcDbEntity
  8
1
  100
AcDbLine
  10
68.8
  20
2.701299
  30
0
  11
68.9
  21
2.697958
  31
0
  0
LINE
  5
214
  100
AcDbEntity
  8
1
  100
AcDbLine
  10
68.9
  20
2.697958
  30
0
  11
69
  21
2.694617
  31
0
  0
LINE
  5
215
  100
AcDbEntity
  8
1
  100
AcDbLine
  10
69
  20
2.694617
  30
0
  11
69.1
  21
2.691275
  31
0
  0
LINE
  5
216
  100
AcDbEntity
  8
1
  100
AcDbLine
  10
69.1
  20
2.691275
  30
0
  11
69.2
  21
2.687933
  31
0
  0
LINE
  5
217
  100
AcDbEntity
  8
1
  100
AcDbLine
  10
69.2
  20
2.687933
  30
0
  11
69.3
  21
2.68459
  31
0
  0
LINE
  5
218
  100
AcDbEntity
  8
1
  100
AcDbLine
  10
69.3
  20
2.68459
  30
0
  11
69.4
  21
2.681247
  31
0
  0
LINE
  5
219
  100
AcDbEntity
  8
1
  100
AcDbLine
  10
69.4
  20
2.681247
  30
0
  11
69.5
  21
2.677903
  31
0
  0
LINE
  5
21a
  100
AcDbEntity
  8
1
  100
AcDbLine
  10
69.5
  20
2.677903
  30
0
  11
69.6
  21
2.674559
  31
0
  0
LINE
  5
21b
  100
AcDbEntity
  8
1
  100
AcDbLine
  10
69.6
  20
2.674559
  30
0
  11
69.7
  21
2.671213
  31
0
  0
LINE
  5
21c
  100
AcDbEntity
  8
1
  100
AcDbLine
  10
69.7
  20
2.671213
  30
0
  11
69.8
  21
2.667868
  31
0
  0
LINE
  5
21d
  100
AcDbEntity
  8
1
  100
AcDbLine
  10
69.8
  20
2.667868
  30
0
  11
69.9
  21
2.664522
  31
0
  0
LINE
  5
21e
  100
AcDbEntity
  8
1
  100
AcDbLine
  10
69.9
  20
2.664522
  30
0
  11
70
  21
2.661175
  31
0
  0
LINE
  5
21f
  100
AcDbEntity
  8
SK1
  100
AcDbLine
  10
49.297
  20
3
  30
0
  11
0.4
  21
3
  31
0
  0
LINE
  5
220
  100
AcDbEntity
  8
SK1
  100
AcDbLine
  10
0.4
  20
3
  30
0
  11
0
  21
2.6
  31
0
  0
LINE
  5
221
  100
AcDbEntity
  8
SK1
  100
AcDbLine
  10
49.297
  20
-3
  30
0
  11
0.4
  21
-3
  31
0
  0
LINE
  5
222
  100
AcDbEntity
  8
SK1
  100
AcDbLine
  10
0.4
  20
-3
  30
0
  11
0
  21
-2.6
  31
0
  0
LINE
  5
223
  100
AcDbEntity
  8
SK1
  100
AcDbLine
  10
0.4
  20
3
  30
0
  11
0.4
  21
-3
  31
0
  0
LINE
  5
224
  100
AcDbEntity
  8
SK1
  100
AcDbLine
  10
0
  20
2.6
  30
0
  11
0
  21
-2.6
  31
0
  0
LINE
  5
225
  100
AcDbEntity
  8
SK1
  100
AcDbLine
  10
50.3371
  20
1.40688
  30
0
  11
50.7039
  21
1.0401
  31
0
  0
LINE
  5
226
  100
AcDbEntity
  8
SK1
  100
AcDbLine
  10
49.8298
  20
1.66666
  30
0
  11
50.9637
  21
0.532833
  31
0
  0
LINE
  5
227
  100
AcDbEntity
  8
SK1
  100
AcDbLine
  10
49.5124
  20
1.73657
  30
0
  11
51.0336
  21
0.215434
  31
0
  0
LINE
  5
228
  100
AcDbEntity
  8
SK1
  100
AcDbLine
  10
49.297
  20
1.70452
  30
0
  11
51.0015
  21
0
  31
0
  0
LINE
  5
229
  100
AcDbEntity
  8
SK1
  100
AcDbLine
  10
49.297
  20
1.45703
  30
0
  11
50.754
  21
0
  31
0
  0
LINE
  5
22a
  100
AcDbEntity
  8
SK1
  100
AcDbLine
  10
49.297
  20
1.20954
  30
0
  11
50.5065
  21
0
  31
0
  0
LINE
  5
22b
  100
AcDbEntity
  8
SK1
  100
AcDbLine
  10
49.297
  20
0.962054
  30
0
  11
50.2591
  21
0
  31
0
  0
LINE
  5
22c
  100
AcDbEntity
  8
SK1
  100
AcDbLine
  10
49.297
  20
0.714566
  30
0
  11
50.0116
  21
0
  31
0
  0
LINE
  5
22d
  100
AcDbEntity
  8
SK1
  100
AcDbLine
  10
49.297
  20
0.467079
  30
0
  11
49.7641
  21
0
  31
0
  0
LINE
  5
22e
  100
AcDbEntity
  8
SK1
  100
AcDbLine
  10
49.297
  20
0.219592
  30
0
  11
49.5166
  21
0
  31
0
  0
LINE
  5
22f
  100
AcDbEntity
  8
SK1
  100
AcDbLine
  10
49.297
  20
1.70452
  30
0
  11
49.3411
  21
1.74861
  31
0
  0
LINE
  5
230
  100
AcDbEntity
  8
SK1
  100
AcDbLine
  10
49.297
  20
1.45703
  30
0
  11
49.568
  21
1.72802
  31
0
  0
LINE
  5
231
  100
AcDbEntity
  8
SK1
  100
AcDbLine
  10
49.297
  20
1.20954
  30
0
  11
49.7712
  21
1.6837
  31
0
  0
LINE
  5
232
  100
AcDbEntity
  8
SK1
  100
AcDbLine
  10
49.297
  20
0.962054
  30
0
  11
49.9558
  21
1.62082
  31
0
  0
LINE
  5
233
  100
AcDbEntity
  8
SK1
  100
AcDbLine
  10
49.297
  20
0.714566
  30
0
  11
50.1241
  21
1.54167
  31
0
  0
LINE
  5
234
  100
AcDbEntity
  8
SK1
  100
AcDbLine
  10
49.297
  20
0.467079
  30
0
  11
50.278
  21
1.44812
  31
0
  0
LINE
  5
235
  100
AcDbEntity
  8
SK1
  100
AcDbLine
  10
49.297
  20
0.219592
  30
0
  11
50.4196
  21
1.34216
  31
0
  0
LINE
  5
236
  100
AcDbEntity
  8
SK1
  100
AcDbLine
  10
49.3249
  20
0
  30
0
  11
50.5478
  21
1.22288
  31
0
  0
LINE
  5
237
  100
AcDbEntity
  8
SK1
  100
AcDbLine
  10
49.5724
  20
0
  30
0
  11
50.664
  21
1.09157
  31
0
  0
LINE
  5
238
  100
AcDbEntity
  8
SK1
  100
AcDbLine
  10
49.8199
  20
0
  30
0
  11
50.7677
  21
0.947822
  31
0
  0
LINE
  5
239
  100
AcDbEntity
  8
SK1
  100
AcDbLine
  10
50.0674
  20
0
  30
0
  11
50.8575
  21
0.790145
  31
0
  0
LINE
  5
23a
  100
AcDbEntity
  8
SK1
  100
AcDbLine
  10
50.3148
  20
0
  30
0
  11
50.9334
  21
0.618517
  31
0
  0
LINE
  5
23b
  100
AcDbEntity
  8
SK1
  100
AcDbLine
  10
50.5623
  20
0
  30
0
  11
50.993
  21
0.430696
  31
0
  0
LINE
  5
23c
  100
AcDbEntity
  8
SK1
  100
AcDbLine
  10
50.8098
  20
0
  30
0
  11
51.0326
  21
0.222827
  31
0
  0
LINE
  5
23d
  100
AcDbEntity
  8
SK1
  100
AcDbLine
  10
49.297
  20
0
  30
0
  11
49.297
  21
1.75
  31
0
  0
LINE
  5
23e
  100
AcDbEntity
  8
SK1
  100
AcDbLine
  10
49.297
  20
0
  30
0
  11
51.047
  21
0
  31
0
  0
ARC
  5
23f
  100
AcDbEntity
  8
SK1
  100
AcDbCircle
  10
49.297
  20
0
  30
0
  40
1.75
  100
AcDbArc
  50
0
  51
90
  0
ARC
  5
240
  100
AcDbEntity
  8
SK1
  100
AcDbCircle
  10
49.297
  20
0
  30
0
  40
1.75
  100
AcDbArc
  50
90
  51
180
  0
LINE
  5
241
  100
AcDbEntity
  8
SK1
  100
AcDbLine
  10
49.2691
  20
0
  30
0
  11
49.297
  21
-0.027896
  31
0
  0
LINE
  5
242
  100
AcDbEntity
  8
SK1
  100
AcDbLine
  10
49.0216
  20
0
  30
0
  11
49.297
  21
-0.275383
  31
0
  0
LINE
  5
243
  100
AcDbEntity
  8
SK1
  100
AcDbLine
  10
48.7741
  20
0
  30
0
  11
49.297
  21
-0.522871
  31
0
  0
LINE
  5
244
  100
AcDbEntity
  8
SK1
  100
AcDbLine
  10
48.5266
  20
0
  30
0
  11
49.297
  21
-0.770358
  31
0
  0
LINE
  5
245
  100
AcDbEntity
  8
SK1
  100
AcDbLine
  10
48.2792
  20
0
  30
0
  11
49.297
  21
-1.01785
  31
0
  0
LINE
  5
246
  100
AcDbEntity
  8
SK1
  100
AcDbLine
  10
48.0317
  20
0
  30
0
  11
49.297
  21
-1.26533
  31
0
  0
LINE
  5
247
  100
AcDbEntity
  8
SK1
  100
AcDbLine
  10
47.7842
  20
0
  30
0
  11
49.297
  21
-1.51282
  31
0
  0
LINE
  5
248
  100
AcDbEntity
  8
SK1
  100
AcDbLine
  10
47.5473
  20
-0.010642
  30
0
  11
49.2864
  21
-1.74967
  31
0
  0
LINE
  5
249
  100
AcDbEntity
  8
SK1
  100
AcDbLine
  10
47.5706
  20
-0.281429
  30
0
  11
49.0156
  21
-1.72637
  31
0
  0
LINE
  5
24a
  100
AcDbEntity
  8
SK1
  100
AcDbLine
  10
47.6609
  20
-0.619147
  30
0
  11
48.6779
  21
-1.63613
  31
0
  0
LINE
  5
24b
  100
AcDbEntity
  8
SK1
  100
AcDbLine
  10
47.5484
  20
-0.044098
  30
0
  11
47.5925
  21
0
  31
0
  0
LINE
  5
24c
  100
AcDbEntity
  8
SK1
  100
AcDbLine
  10
47.569
  20
-0.270991
  30
0
  11
47.84
  21
0
  31
0
  0
LINE
  5
24d
  100
AcDbEntity
  8
SK1
  100
AcDbLine
  10
47.6133
  20
-0.474162
  30
0
  11
48.0875
  21
0
  31
0
  0
LINE
  5
24e
  100
AcDbEntity
  8
SK1
  100
AcDbLine
  10
47.6762
  20
-0.658762
  30
0
  11
48.3349
  21
0
  31
0
  0
LINE
  5
24f
  100
AcDbEntity
  8
SK1
  100
AcDbLine
  10
47.7553
  20
-0.827105
  30
0
  11
48.5824
  21
0
  31
0
  0
LINE
  5
250
  100
AcDbEntity
  8
SK1
  100
AcDbLine
  10
47.8489
  20
-0.981039
  30
0
  11
48.8299
  21
0
  31
0
  0
LINE
  5
251
  100
AcDbEntity
  8
SK1
  100
AcDbLine
  10
47.9548
  20
-1.12257
  30
0
  11
49.0774
  21
0
  31
0
  0
LINE
  5
252
  100
AcDbEntity
  8
SK1
  100
AcDbLine
  10
48.0741
  20
-1.25077
  30
0
  11
49.297
  21
-0.027896
  31
0
  0
LINE
  5
253
  100
AcDbEntity
  8
SK1
  100
AcDbLine
  10
48.2054
  20
-1.36695
  30
0
  11
49.297
  21
-0.275383
  31
0
  0
LINE
  5
254
  100
AcDbEntity
  8
SK1
  100
AcDbLine
  10
48.3492
  20
-1.47069
  30
0
  11
49.297
  21
-0.522871
  31
0
  0
LINE
  5
255
  100
AcDbEntity
  8
SK1
  100
AcDbLine
  10
48.5069
  20
-1.5605
  30
0
  11
49.297
  21
-0.770358
  31
0
  0
LINE
  5
256
  100
AcDbEntity
  8
SK1
  100
AcDbLine
  10
48.6785
  20
-1.63636
  30
0
  11
49.297
  21
-1.01785
  31
0
  0
LINE
  5
257
  100
AcDbEntity
  8
SK1
  100
AcDbLine
  10
48.8663
  20
-1.69603
  30
0
  11
49.297
  21
-1.26533
  31
0
  0
LINE
  5
258
  100
AcDbEntity
  8
SK1
  100
AcDbLine
  10
49.0742
  20
-1.73565
  30
0
  11
49.297
  21
-1.51282
  31
0
  0
LINE
  5
259
  100
AcDbEntity
  8
SK1
  100
AcDbLine
  10
49.297
  20
0
  30
0
  11
47.547
  21
0
  31
0
  0
LINE
  5
25a
  100
AcDbEntity
  8
SK1
  100
AcDbLine
  10
49.297
  20
-1.75
  30
0
  11
49.297
  21
0
  31
0
  0
ARC
  5
25b
  100
AcDbEntity
  8
SK1
  100
AcDbCircle
  10
49.297
  20
0
  30
0
  40
1.75
  100
AcDbArc
  50
180
  51
270
  0
ARC
  5
25c
  100
AcDbEntity
  8
SK1
  100
AcDbCircle
  10
49.297
  20
0
  30
0
  40
1.75
  100
AcDbArc
  50
270
  51
0
  0
LINE
  5
2b1
  100
AcDbEntity
  8
NOCUT
  100
AcDbLine
  10
67.279
  20
0
  30
0
  11
67.279
  21
2.2865
  31
0
  0
LINE
  5
2b2
  100
AcDbEntity
  8
NOCUT
  100
AcDbLine
  10
67.279
  20
2.2865
  30
0
  11
51
  21
2.793253
  31
0
  0
ARC
  5
2b3
  100
AcDbEntity
  8
NOCUT
  100
AcDbCircle
  10
51
  20
3.793253
  30
0
  40
1
  100
AcDbArc
  50
250
  51
270
  0
LINE
  5
2b4
  100
AcDbEntity
  8
NOCUT
  100
AcDbLine
  10
50.65798
  20
2.853561
  30
0
  11
50.255641
  21
3
  31
0
  0
LINE
  5
2b5
  100
AcDbEntity
  8
NOCUT
  100
AcDbLine
  10
50.255641
  20
3
  30
0
  11
49.297
  21
3
  31
0
  0
LINE
  5
2b6
  100
AcDbEntity
  8
NOCUT
  100
AcDbLine
  10
49.297
  20
3
  30
0
  11
49.297
  21
0
  31
0
  0
LINE
  5
2b7
  100
AcDbEntity
  8
NOCUT
  100
AcDbLine
  10
49.297
  20
0
  30
0
  11
67.279
  21
0
  31
0
  0
LINE
  5
2b8
  100
AcDbEntity
  8
CUT
  100
AcDbLine
  10
70
  20
0
  30
0
  11
70
  21
2.809
  31
0
  0
LINE
  5
2b9
  100
AcDbEntity
  8
CUT
  100
AcDbLine
  10
70
  20
2.809
  30
0
  11
67.279
  21
2.893703
  31
0
  0
LINE
  5
2ba
  100
AcDbEntity
  8
CUT
  100
AcDbLine
  10
67.279
  20
2.893703
  30
0
  11
67.279
  21
0
  31
0
  0
LINE
  5
2bb
  100
AcDbEntity
  8
CUT
  100
AcDbLine
  10
67.279
  20
0
  30
0
  11
70
  21
0
  31
0
  0
LINE
  5
2bc
  100
AcDbEntity
  8
4
  100
AcDbLine
  10
49.297
  20
0
  30
0
  11
70
  21
0
  31
0
  0
LINE
  5
2bd
  100
AcDbEntity
  8
SK4
  100
AcDbLine
  10
-1
  20
0
  30
0
  11
71
  21
0
  31
0
  0
LINE
  5
2be
  100
AcDbEntity
  8
INFTOTAL
  100
AcDbLine
  10
-16.7
  20
22.505024
  30
0
  11
86.7
  21
22.505024
  31
0
  0
LINE
  5
2bf
  100
AcDbEntity
  8
INFTOTAL
  100
AcDbLine
  10
86.7
  20
22.505024
  30
0
  11
86.7
  21
-31.477175
  31
0
  0
LINE
  5
2c0
  100
AcDbEntity
  8
INFTOTAL
  100
AcDbLine
  10
86.7
  20
-31.477175
  30
0
  11
-16.7
  21
-31.477175
  31
0
  0
LINE
  5
2c1
  100
AcDbEntity
  8
INFTOTAL
  100
AcDbLine
  10
-16.7
  20
-31.477175
  30
0
  11
-16.7
  21
22.505024
  31
0
  0
ENDSEC
  0
SECTION
  2
OBJECTS
  0
DICTIONARY
  5
2c2
  330
0
100
AcDbDictionary
281
    1
  3
ACAD_GROUP
  350
2c3
  0
DICTIONARY
  5
2c3
102
{ACAD_REACTORS
  330
2c2
102
}
  330
2c2
100
AcDbDictionary
281
    1
  0
ENDSEC
  0
EOF
