  0
SECTION
  2
HEADER
  9
$ACADVER
  1
AC1015
  9
$DWGCODEPAGE
  3
ANSI_932
  9
$HANDSEED
  5
106AB90
  0
ENDSEC
  0
SECTION
  2
CLASSES
  0
CLASS
  1
IMAGEDEF
  2
AcDbRasterImageDef
  3
ISM
  90
0
  91
4
  280
0
  281
0
  0
CLASS
  1
IMAGE
  2
AcDbRasterImage
  3
ISM
  90
127
  91
5
  280
0
  281
1
  0
CLASS
  1
IMAGEDEF_REACTOR
  2
AcDbRasterImageDefReactor
  3
ISM
  90
1
  91
4
  280
0
  281
0
  0
ENDSEC
  0
SECTION
  2
TABLES
  0
TABLE
  2
VPORT
  5
2
  330
0
  100
AcDbSymbolTable
  70
    0
  0
ENDTAB
  0
TABLE
  2
LTYPE
  5
3
  330
0
  100
AcDbSymbolTable
  70
    4
  0
LTYPE
  5
4
  330
3
  100
AcDbSymbolTableRecord
  100
AcDbLinetypeTableRecord
  2
ByBlock
  70
    0
  3

  72
65
  73
    0
  40
0
  0
LTYPE
  5
5
  330
3
  100
AcDbSymbolTableRecord
  100
AcDbLinetypeTableRecord
  2
ByLayer
  70
    0
  3

  72
65
  73
    0
  40
0
  0
LTYPE
  5
6
  330
3
  100
AcDbSymbolTableRecord
  100
AcDbLinetypeTableRecord
  2
CONTINUOUS
  70
    0
  3
Solid Line
  72
65
  73
    0
  40
0
  0
LTYPE
  5
7
  330
3
  100
AcDbSymbolTableRecord
  100
AcDbLinetypeTableRecord
  2
DASH
  70
    0
  3
Hidden
  72
65
  73
2
  40
2.5
  49
1.5
  74
0
  49
-1
  74
0
  0
LTYPE
  5
8
  330
3
  100
AcDbSymbolTableRecord
  100
AcDbLinetypeTableRecord
  2
LONGDASHDASH
  70
    0
  3
__ . __
  72
65
  73
    4
  40
7
  49
4
  74
    0
  49
-1
  74
    0
  49
1
  74
    0
  49
-1
  74
    0
  0
ENDTAB
  0
TABLE
  2
LAYER
  5
9
  330
0
  100
AcDbSymbolTable
  70
    40
  0
LAYER
  5
a
  330
9
  100
AcDbSymbolTableRecord
  100
AcDbLayerTableRecord
  2
0
  70
    0
  62
    0
  6
CONTINUOUS
  390
0
  0
LAYER
  5
c
  330
9
  100
AcDbSymbolTableRecord
  100
AcDbLayerTableRecord
  2
1
  70
    0
  62
    4
  6
CONTINUOUS
  370
50
  390
0
  0
LAYER
  5
d
  330
9
  100
AcDbSymbolTableRecord
  100
AcDbLayerTableRecord
  2
2
  70
    0
  62
    7
  6
CONTINUOUS
  370
25
  390
0
  0
LAYER
  5
f
  330
9
  100
AcDbSymbolTableRecord
  100
AcDbLayerTableRecord
  2
4
  70
    0
  62
    2
  6
LONGDASHDASH
  370
25
  390
0
  0
LAYER
  5
13
  330
9
  100
AcDbSymbolTableRecord
  100
AcDbLayerTableRecord
  2
SK1
  70
    0
  62
    4
  6
CONTINUOUS
  370
50
  390
0
  0
LAYER
  5
14
  330
9
  100
AcDbSymbolTableRecord
  100
AcDbLayerTableRecord
  2
SK2
  70
    0
  62
    7
  6
CONTINUOUS
  370
25
  390
0
  0
LAYER
  5
16
  330
9
  100
AcDbSymbolTableRecord
  100
AcDbLayerTableRecord
  2
SK4
  70
    0
  62
    2
  6
LONGDASHDASH
  370
25
  390
0
  0
LAYER
  5
21
  330
9
  100
AcDbSymbolTableRecord
  100
AcDbLayerTableRecord
  2
NOCUT
  70
    0
  62
    7
  6
CONTINUOUS
  370
25
  390
0
  0
LAYER
  5
22
  330
9
  100
AcDbSymbolTableRecord
  100
AcDbLayerTableRecord
  2
CUT
  70
    0
  62
    1
  6
CONTINUOUS
  370
25
  390
0
  0
LAYER
  5
26
  330
9
  100
AcDbSymbolTableRecord
  100
AcDbLayerTableRecord
  2
INFTOTAL
  70
    0
  62
    9
  6
CONTINUOUS
  370
18
  390
0
  0
ENDTAB
  0
TABLE
  2
STYLE
  5
27
  330
0
  100
AcDbSymbolTable
  70
    1
  0
STYLE
  5
28
  330
27
  100
AcDbSymbolTableRecord
  100
AcDbTextStyleTableRecord
  2
Monospac821 BT
  70
    0
  40
    3.5
  41
1
  50
0
  71
0
  42
3
  3

  4

  1001
ACAD
  1000
Monospac821 BT
  1071
256
  0
ENDTAB
  0
TABLE
  2
VIEW
  5
29
  330
0
  100
AcDbSymbolTable
  70
    0
  0
ENDTAB
  0
TABLE
  2
UCS
  5
2a
  330
0
  100
AcDbSymbolTable
  70
    0
  0
ENDTAB
  0
TABLE
  2
APPID
  5
2b
  330
0
  100
AcDbSymbolTable
  70
    1
  0
APPID
  5
2c
  330
2b
  100
AcDbSymbolTableRecord
  100
AcDbRegAppTableRecord
  2
ACAD
  70
    0
  0
ENDTAB
  0
TABLE
  2
DIMSTYLE
  5
2d
  330
0
  100
AcDbSymbolTable
  70
    1
  100
AcDbDimStyleTable
  0
DIMSTYLE
  105
2e
  330
2d
  100
AcDbSymbolTableRecord
  100
AcDbDimStyleTableRecord
  2
STANDARD
  70
    0
  41
    3
  42
0.5
  44
1
  73
0
  77
1
  78
1
  140
3.5
  141
2.5
  143
0.03937
  147
0.8
  172
1
  174
1
  178
0
  179
1
  271
2
  279
1
  284
1
  340
28
  0
ENDTAB
  0
TABLE
  2
BLOCK_RECORD
  5
2f
  330
0
  100
AcDbSymbolTable
  70
    2
  0
BLOCK_RECORD
  5
30
  330
2f
  100
AcDbSymbolTableRecord
  100
AcDbBlockTableRecord
  2
*Model_Space
  0
BLOCK_RECORD
  5
31
  330
2f
  100
AcDbSymbolTableRecord
  100
AcDbBlockTableRecord
  2
*Paper_Space
  0
BLOCK_RECORD
  5
2be
  330
2f
  100
AcDbSymbolTableRecord
  100
AcDbBlockTableRecord
  2
*D2bd
  340
0
  0
BLOCK_RECORD
  5
2cc
  330
2f
  100
AcDbSymbolTableRecord
  100
AcDbBlockTableRecord
  2
*D2cb
  340
0
  0
BLOCK_RECORD
  5
2da
  330
2f
  100
AcDbSymbolTableRecord
  100
AcDbBlockTableRecord
  2
*D2d9
  340
0
  0
BLOCK_RECORD
  5
2e8
  330
2f
  100
AcDbSymbolTableRecord
  100
AcDbBlockTableRecord
  2
*D2e7
  340
0
  0
BLOCK_RECORD
  5
2f6
  330
2f
  100
AcDbSymbolTableRecord
  100
AcDbBlockTableRecord
  2
*D2f5
  340
0
  0
BLOCK_RECORD
  5
304
  330
2f
  100
AcDbSymbolTableRecord
  100
AcDbBlockTableRecord
  2
*D303
  340
0
  0
ENDTAB
  0
ENDSEC
  0
SECTION
  2
BLOCKS
  0
BLOCK
  5
32
  330
30
  100
AcDbEntity
  8
0
  100
AcDbBlockBegin
  2
*Model_Space
  70
    0
  10
0
  20
0
  30
0
  3
*Model_Space
  1

  0
ENDBLK
  5
33
  330
30
  100
AcDbEntity
  8
0
  100
AcDbBlockEnd
  0
BLOCK
  5
34
  330
31
  100
AcDbEntity
  8
0
  100
AcDbBlockBegin
  2
*Paper_Space
  70
    0
  10
0
  20
0
  30
0
  3
*Paper_Space
  1

  0
ENDBLK
  5
35
  330
31
  100
AcDbEntity
  8
0
  100
AcDbBlockEnd
  0
BLOCK
  5
2bc
  330
2be
  100
AcDbEntity
  8
SK2
  100
AcDbBlockBegin
  2
*D2bd
  70
1
  10
0
  20
0
  30
0
  3
*D2bd
  1

  0
LINE
  5
2bf
  330
2be
  100
AcDbEntity
  8
SK2
  100
AcDbLine
  10
0
  20
-26.777175
  30
0
  11
0
  21
4.6
  31
0
  0
LINE
  5
2c0
  330
2be
  100
AcDbEntity
  8
SK2
  100
AcDbLine
  10
80
  20
-26.777175
  30
0
  11
80
  21
17.805024
  31
0
  0
LINE
  5
2c1
  330
2be
  100
AcDbEntity
  8
SK2
  100
AcDbLine
  10
0
  20
-24.777175
  30
0
  11
80
  21
-24.777175
  31
0
  0
SOLID
  5
2c2
  330
2be
  100
AcDbEntity
  8
SK2
  100
AcDbTrace
  10
0
  20
-24.777175
  30
0
  11
2.478612
  21
-24.45086
  31
0
  12
2.478612
  22
-25.103491
  32
0
  13
2.478612
  23
-25.103491
  33
0
  0
SOLID
  5
2c3
  330
2be
  100
AcDbEntity
  8
SK2
  100
AcDbTrace
  10
80
  20
-24.777175
  30
0
  11
77.521388
  21
-25.103491
  31
0
  12
77.521388
  22
-24.45086
  32
0
  13
77.521388
  23
-24.45086
  33
0
  0
MTEXT
  5
2c4
  330
2be
  100
AcDbEntity
  8
SK2
  100
AcDbMText
  10
40
  20
-24.777175
  30
0
  11
1
  21
0
  31
0
  40
2
  41
0
  71
8
  72
1
  1
80
  0
POINT
  5
2c5
  330
2be
  100
AcDbEntity
  8
SK2
  62
0
  100
AcDbPoint
  10
0
  20
4.6
  30
0
  0
POINT
  5
2c6
  330
2be
  100
AcDbEntity
  8
SK2
  62
0
  100
AcDbPoint
  10
80
  20
17.805024
  30
0
  0
POINT
  5
2c7
  330
2be
  100
AcDbEntity
  8
SK2
  62
0
  100
AcDbPoint
  10
80
  20
-24.777175
  30
0
  0
ENDBLK
  5
2c8
  330
2be
  100
AcDbEntity
  8
SK2
  100
AcDbBlockEnd
  0
BLOCK
  5
2ca
  330
2cc
  100
AcDbEntity
  8
SK2
  100
AcDbBlockBegin
  2
*D2cb
  70
1
  10
0
  20
0
  30
0
  3
*D2cb
  1

  0
LINE
  5
2cd
  330
2cc
  100
AcDbEntity
  8
SK2
  100
AcDbLine
  10
48.758203
  20
-17.424056
  30
0
  11
48.758203
  21
5
  31
0
  0
LINE
  5
2ce
  330
2cc
  100
AcDbEntity
  8
SK2
  100
AcDbLine
  10
0
  20
-26.777175
  30
0
  11
0
  21
4.6
  31
0
  0
LINE
  5
2cf
  330
2cc
  100
AcDbEntity
  8
SK2
  100
AcDbLine
  10
48.758203
  20
-15.424056
  30
0
  11
0
  21
-15.424056
  31
0
  0
SOLID
  5
2d0
  330
2cc
  100
AcDbEntity
  8
SK2
  100
AcDbTrace
  10
48.758203
  20
-15.424056
  30
0
  11
51.236815
  21
-15.097741
  31
0
  12
51.236815
  22
-15.750372
  32
0
  13
51.236815
  23
-15.750372
  33
0
  0
SOLID
  5
2d1
  330
2cc
  100
AcDbEntity
  8
SK2
  100
AcDbTrace
  10
0
  20
-15.424056
  30
0
  11
-2.478612
  21
-15.750372
  31
0
  12
-2.478612
  22
-15.097741
  32
0
  13
-2.478612
  23
-15.097741
  33
0
  0
MTEXT
  5
2d2
  330
2cc
  100
AcDbEntity
  8
SK2
  100
AcDbMText
  10
24.233975
  20
-15.424056
  30
0
  11
1
  21
-0
  31
0
  40
2
  41
0
  71
8
  72
1
  1
48.758
  0
POINT
  5
2d3
  330
2cc
  100
AcDbEntity
  8
SK2
  62
0
  100
AcDbPoint
  10
48.758203
  20
5
  30
0
  0
POINT
  5
2d4
  330
2cc
  100
AcDbEntity
  8
SK2
  62
0
  100
AcDbPoint
  10
0
  20
4.6
  30
0
  0
POINT
  5
2d5
  330
2cc
  100
AcDbEntity
  8
SK2
  62
0
  100
AcDbPoint
  10
0
  20
-15.424056
  30
0
  0
ENDBLK
  5
2d6
  330
2cc
  100
AcDbEntity
  8
SK2
  100
AcDbBlockEnd
  0
BLOCK
  5
2d8
  330
2da
  100
AcDbEntity
  8
SK2
  100
AcDbBlockBegin
  2
*D2d9
  70
1
  10
0
  20
0
  30
0
  3
*D2d9
  1

  0
LINE
  5
2db
  330
2da
  100
AcDbEntity
  8
SK2
  100
AcDbLine
  10
0.4
  20
-5
  30
0
  11
-17
  21
-5
  31
0
  0
LINE
  5
2dc
  330
2da
  100
AcDbEntity
  8
SK2
  100
AcDbLine
  10
0.4
  20
5
  30
0
  11
-17
  21
5
  31
0
  0
LINE
  5
2dd
  330
2da
  100
AcDbEntity
  8
SK2
  100
AcDbLine
  10
-15
  20
-5
  30
0
  11
-15
  21
5
  31
0
  0
SOLID
  5
2de
  330
2da
  100
AcDbEntity
  8
SK2
  100
AcDbTrace
  10
-15
  20
-5
  30
0
  11
-15.326315
  21
-2.521388
  31
0
  12
-14.673685
  22
-2.521388
  32
0
  13
-14.673685
  23
-2.521388
  33
0
  0
SOLID
  5
2df
  330
2da
  100
AcDbEntity
  8
SK2
  100
AcDbTrace
  10
-15
  20
5
  30
0
  11
-14.673685
  21
2.521388
  31
0
  12
-15.326315
  22
2.521388
  32
0
  13
-15.326315
  23
2.521388
  33
0
  0
MTEXT
  5
2e0
  330
2da
  100
AcDbEntity
  8
SK2
  100
AcDbMText
  10
-15
  20
-0.127894
  30
0
  11
0
  21
1
  31
0
  40
2
  41
0
  71
8
  72
1
  1
Ø10
  0
POINT
  5
2e1
  330
2da
  100
AcDbEntity
  8
SK2
  62
0
  100
AcDbPoint
  10
0.4
  20
-5
  30
0
  0
POINT
  5
2e2
  330
2da
  100
AcDbEntity
  8
SK2
  62
0
  100
AcDbPoint
  10
0.4
  20
5
  30
0
  0
POINT
  5
2e3
  330
2da
  100
AcDbEntity
  8
SK2
  62
0
  100
AcDbPoint
  10
-15
  20
5
  30
0
  0
ENDBLK
  5
2e4
  330
2da
  100
AcDbEntity
  8
SK2
  100
AcDbBlockEnd
  0
BLOCK
  5
2e6
  330
2e8
  100
AcDbEntity
  8
2
  100
AcDbBlockBegin
  2
*D2e7
  70
1
  10
0
  20
0
  30
0
  3
*D2e7
  1

  0
LINE
  5
2e9
  330
2e8
  100
AcDbEntity
  8
2
  100
AcDbLine
  10
80
  20
-3.8855
  30
0
  11
92
  21
-3.8855
  31
0
  0
LINE
  5
2ea
  330
2e8
  100
AcDbEntity
  8
2
  100
AcDbLine
  10
80
  20
3.8855
  30
0
  11
92
  21
3.8855
  31
0
  0
LINE
  5
2eb
  330
2e8
  100
AcDbEntity
  8
2
  100
AcDbLine
  10
90
  20
-3.987342
  30
0
  11
90
  21
8.095512
  31
0
  0
SOLID
  5
2ec
  330
2e8
  100
AcDbEntity
  8
2
  100
AcDbTrace
  10
90
  20
-3.8855
  30
0
  11
89.673685
  21
-1.406888
  31
0
  12
90.326315
  22
-1.406888
  32
0
  13
90.326315
  23
-1.406888
  33
0
  0
SOLID
  5
2ed
  330
2e8
  100
AcDbEntity
  8
2
  100
AcDbTrace
  10
90
  20
3.8855
  30
0
  11
90.326315
  21
1.406888
  31
0
  12
89.673685
  22
1.406888
  32
0
  13
89.673685
  23
1.406888
  33
0
  0
MTEXT
  5
2ee
  330
2e8
  100
AcDbEntity
  8
2
  100
AcDbMText
  10
90
  20
8.242801
  30
0
  11
0
  21
1
  31
0
  40
2
  41
0
  71
8
  72
1
  1
Ø7.771
  0
POINT
  5
2ef
  330
2e8
  100
AcDbEntity
  8
2
  62
0
  100
AcDbPoint
  10
80
  20
-3.8855
  30
0
  0
POINT
  5
2f0
  330
2e8
  100
AcDbEntity
  8
2
  62
0
  100
AcDbPoint
  10
80
  20
3.8855
  30
0
  0
POINT
  5
2f1
  330
2e8
  100
AcDbEntity
  8
2
  62
0
  100
AcDbPoint
  10
90
  20
8.095512
  30
0
  0
ENDBLK
  5
2f2
  330
2e8
  100
AcDbEntity
  8
2
  100
AcDbBlockEnd
  0
BLOCK
  5
2f4
  330
2f6
  100
AcDbEntity
  8
2
  100
AcDbBlockBegin
  2
*D2f5
  70
1
  10
0
  20
0
  30
0
  3
*D2f5
  1

  0
LINE
  5
2f7
  330
2f6
  100
AcDbEntity
  8
2
  100
AcDbLine
  10
75.989
  20
-3.1375
  30
0
  11
75.989
  21
-17.424056
  31
0
  0
LINE
  5
2f8
  330
2f6
  100
AcDbEntity
  8
2
  100
AcDbLine
  10
80
  20
-26.777175
  30
0
  11
80
  21
17.805024
  31
0
  0
LINE
  5
2f9
  330
2f6
  100
AcDbEntity
  8
2
  100
AcDbLine
  10
75.989
  20
-15.424056
  30
0
  11
86.754891
  21
-15.424056
  31
0
  0
SOLID
  5
2fa
  330
2f6
  100
AcDbEntity
  8
2
  100
AcDbTrace
  10
75.989
  20
-15.424056
  30
0
  11
78.467612
  21
-15.097741
  31
0
  12
78.467612
  22
-15.750372
  32
0
  13
78.467612
  23
-15.750372
  33
0
  0
SOLID
  5
2fb
  330
2f6
  100
AcDbEntity
  8
2
  100
AcDbTrace
  10
80
  20
-15.424056
  30
0
  11
77.521388
  21
-15.750372
  31
0
  12
77.521388
  22
-15.097741
  32
0
  13
77.521388
  23
-15.097741
  33
0
  0
MTEXT
  5
2fc
  330
2f6
  100
AcDbEntity
  8
2
  100
AcDbMText
  10
86.828951
  20
-15.424056
  30
0
  11
1
  21
0
  31
0
  40
2
  41
0
  71
8
  72
1
  1
4.011
  0
POINT
  5
2fd
  330
2f6
  100
AcDbEntity
  8
2
  62
0
  100
AcDbPoint
  10
75.989
  20
-3.1375
  30
0
  0
POINT
  5
2fe
  330
2f6
  100
AcDbEntity
  8
2
  62
0
  100
AcDbPoint
  10
80
  20
17.805024
  30
0
  0
POINT
  5
2ff
  330
2f6
  100
AcDbEntity
  8
2
  62
0
  100
AcDbPoint
  10
86.754891
  20
-15.424056
  30
0
  0
ENDBLK
  5
300
  330
2f6
  100
AcDbEntity
  8
2
  100
AcDbBlockEnd
  0
BLOCK
  5
302
  330
304
  100
AcDbEntity
  8
2
  100
AcDbBlockBegin
  2
*D303
  70
1
  10
0
  20
0
  30
0
  3
*D303
  1

  0
LINE
  5
305
  330
304
  100
AcDbEntity
  8
2
  100
AcDbLine
  10
47.804
  20
17.805024
  30
0
  11
47.804
  21
-5
  31
0
  0
LINE
  5
306
  330
304
  100
AcDbEntity
  8
2
  100
AcDbLine
  10
80
  20
-26.777175
  30
0
  11
80
  21
17.805024
  31
0
  0
LINE
  5
307
  330
304
  100
AcDbEntity
  8
2
  100
AcDbLine
  10
47.804
  20
15.805024
  30
0
  11
80
  21
15.805024
  31
0
  0
SOLID
  5
308
  330
304
  100
AcDbEntity
  8
2
  100
AcDbTrace
  10
47.804
  20
15.805024
  30
0
  11
50.282612
  21
16.131339
  31
0
  12
50.282612
  22
15.478708
  32
0
  13
50.282612
  23
15.478708
  33
0
  0
SOLID
  5
309
  330
304
  100
AcDbEntity
  8
2
  100
AcDbTrace
  10
80
  20
15.805024
  30
0
  11
77.521388
  21
15.478708
  31
0
  12
77.521388
  22
16.131339
  32
0
  13
77.521388
  23
16.131339
  33
0
  0
MTEXT
  5
30a
  330
304
  100
AcDbEntity
  8
2
  100
AcDbMText
  10
63.768868
  20
15.805024
  30
0
  11
1
  21
0
  31
0
  40
2
  41
0
  71
8
  72
1
  1
32.196
  0
POINT
  5
30b
  330
304
  100
AcDbEntity
  8
2
  62
0
  100
AcDbPoint
  10
47.804
  20
-5
  30
0
  0
POINT
  5
30c
  330
304
  100
AcDbEntity
  8
2
  62
0
  100
AcDbPoint
  10
80
  20
-26.777175
  30
0
  0
POINT
  5
30d
  330
304
  100
AcDbEntity
  8
2
  62
0
  100
AcDbPoint
  10
80
  20
15.805024
  30
0
  0
ENDBLK
  5
30e
  330
304
  100
AcDbEntity
  8
2
  100
AcDbBlockEnd
  0
ENDSEC
  0
SECTION
  2
ENTITIES
  0
DIMENSION
  5
2c9
  100
AcDbEntity
  8
SK2
  100
AcDbDimension
  2
*D2bd
  10
80
  20
-24.777175
  30
0
  11
40
  21
-24.777175
  31
0
  70
160
  1
<>
  71
5
  3
STANDARD
  42
80
  100
AcDbAlignedDimension
  13
0
  23
4.6
  33
0
  14
80
  24
17.805024
  34
0
  50
0
  100
AcDbRotatedDimension
  0
DIMENSION
  5
2d7
  100
AcDbEntity
  8
SK2
  100
AcDbDimension
  2
*D2cb
  10
0
  20
-15.424056
  30
0
  11
24.233975
  21
-15.424056
  31
0
  70
160
  1
<>
  71
5
  3
STANDARD
  42
48.758203
  100
AcDbAlignedDimension
  13
48.758203
  23
5
  33
0
  14
0
  24
4.6
  34
0
  50
0
  100
AcDbRotatedDimension
  0
DIMENSION
  5
2e5
  100
AcDbEntity
  8
SK2
  100
AcDbDimension
  2
*D2d9
  10
-15
  20
5
  30
0
  11
-15
  21
-0.127894
  31
0
  70
160
  1
%%c<>
  71
5
  3
STANDARD
  42
10
  100
AcDbAlignedDimension
  13
0.4
  23
-5
  33
0
  14
0.4
  24
5
  34
0
  50
-90
  100
AcDbRotatedDimension
  0
DIMENSION
  5
2f3
  100
AcDbEntity
  8
2
  100
AcDbDimension
  2
*D2e7
  10
90
  20
8.095512
  30
0
  11
90
  21
8.242801
  31
0
  70
160
  1
%%c<>
  71
5
  3
STANDARD
  42
7.771
  100
AcDbAlignedDimension
  13
80
  23
-3.8855
  33
0
  14
80
  24
3.8855
  34
0
  50
-90
  100
AcDbRotatedDimension
  0
DIMENSION
  5
301
  100
AcDbEntity
  8
2
  100
AcDbDimension
  2
*D2f5
  10
86.754891
  20
-15.424056
  30
0
  11
86.828951
  21
-15.424056
  31
0
  70
160
  1
<>
  71
5
  3
STANDARD
  42
4.011
  100
AcDbAlignedDimension
  13
75.989
  23
-3.1375
  33
0
  14
80
  24
17.805024
  34
0
  50
0
  100
AcDbRotatedDimension
  0
DIMENSION
  5
30f
  100
AcDbEntity
  8
2
  100
AcDbDimension
  2
*D303
  10
80
  20
15.805024
  30
0
  11
63.768868
  21
15.805024
  31
0
  70
160
  1
<>
  71
5
  3
STANDARD
  42
32.196
  100
AcDbAlignedDimension
  13
47.804
  23
-5
  33
0
  14
80
  24
-26.777175
  34
0
  50
0
  100
AcDbRotatedDimension
  0
ARC
  5
36
  100
AcDbEntity
  8
1
  100
AcDbCircle
  10
52
  20
-4.88426
  30
0
  40
1
  100
AcDbArc
  50
90
  51
110
  0
LINE
  5
37
  100
AcDbEntity
  8
1
  100
AcDbLine
  10
52
  20
-3.88426
  30
0
  11
75.989
  21
-3.1375
  31
0
  0
LINE
  5
38
  100
AcDbEntity
  8
1
  100
AcDbLine
  10
75.989
  20
-3.1375
  30
0
  11
75.989
  21
-4.01036
  31
0
  0
LINE
  5
39
  100
AcDbEntity
  8
1
  100
AcDbLine
  10
75.989
  20
-4.01036
  30
0
  11
80
  21
-3.8855
  31
0
  0
LINE
  5
3a
  100
AcDbEntity
  8
1
  100
AcDbLine
  10
80
  20
-3.8855
  30
0
  11
80
  21
0
  31
0
  0
LINE
  5
3b
  100
AcDbEntity
  8
1
  100
AcDbLine
  10
80
  20
0
  30
0
  11
80
  21
3.8855
  31
0
  0
LINE
  5
3c
  100
AcDbEntity
  8
1
  100
AcDbLine
  10
80
  20
3.8855
  30
0
  11
75.989
  21
4.01036
  31
0
  0
LINE
  5
3d
  100
AcDbEntity
  8
1
  100
AcDbLine
  10
75.989
  20
4.01036
  30
0
  11
75.989
  21
3.1375
  31
0
  0
LINE
  5
3e
  100
AcDbEntity
  8
1
  100
AcDbLine
  10
75.989
  20
3.1375
  30
0
  11
52
  21
3.88426
  31
0
  0
ARC
  5
3f
  100
AcDbEntity
  8
1
  100
AcDbCircle
  10
52
  20
4.88426
  30
0
  40
1
  100
AcDbArc
  50
250
  51
270
  0
LINE
  5
40
  100
AcDbEntity
  8
1
  100
AcDbLine
  10
51.65798
  20
3.944567
  30
0
  11
48.758203
  21
5
  31
0
  0
LINE
  5
41
  100
AcDbEntity
  8
1
  100
AcDbLine
  10
48.758203
  20
5
  30
0
  11
47.804
  21
5
  31
0
  0
LINE
  5
42
  100
AcDbEntity
  8
1
  100
AcDbLine
  10
47.804
  20
5
  30
0
  11
47.804
  21
-5
  31
0
  0
LINE
  5
43
  100
AcDbEntity
  8
1
  100
AcDbLine
  10
47.804
  20
-5
  30
0
  11
48.758203
  21
-5
  31
0
  0
LINE
  5
44
  100
AcDbEntity
  8
1
  100
AcDbLine
  10
48.758203
  20
-5
  30
0
  11
51.65798
  21
-3.944567
  31
0
  0
LINE
  5
45
  100
AcDbEntity
  8
1
  100
AcDbLine
  10
80
  20
0.138997
  30
0
  11
79.9
  21
0.139432
  31
0
  0
LINE
  5
46
  100
AcDbEntity
  8
1
  100
AcDbLine
  10
79.9
  20
0.139432
  30
0
  11
79.8
  21
0.139868
  31
0
  0
LINE
  5
47
  100
AcDbEntity
  8
1
  100
AcDbLine
  10
79.8
  20
0.139868
  30
0
  11
79.7
  21
0.140303
  31
0
  0
LINE
  5
48
  100
AcDbEntity
  8
1
  100
AcDbLine
  10
79.7
  20
0.140303
  30
0
  11
79.6
  21
0.140739
  31
0
  0
LINE
  5
49
  100
AcDbEntity
  8
1
  100
AcDbLine
  10
79.6
  20
0.140739
  30
0
  11
79.5
  21
0.141175
  31
0
  0
LINE
  5
4a
  100
AcDbEntity
  8
1
  100
AcDbLine
  10
79.5
  20
0.141175
  30
0
  11
79.4
  21
0.14161
  31
0
  0
LINE
  5
4b
  100
AcDbEntity
  8
1
  100
AcDbLine
  10
79.4
  20
0.14161
  30
0
  11
79.3
  21
0.142046
  31
0
  0
LINE
  5
4c
  100
AcDbEntity
  8
1
  100
AcDbLine
  10
79.3
  20
0.142046
  30
0
  11
79.2
  21
0.142481
  31
0
  0
LINE
  5
4d
  100
AcDbEntity
  8
1
  100
AcDbLine
  10
79.2
  20
0.142481
  30
0
  11
79.1
  21
0.142917
  31
0
  0
LINE
  5
4e
  100
AcDbEntity
  8
1
  100
AcDbLine
  10
79.1
  20
0.142917
  30
0
  11
79
  21
0.143352
  31
0
  0
LINE
  5
4f
  100
AcDbEntity
  8
1
  100
AcDbLine
  10
79
  20
0.143352
  30
0
  11
78.9
  21
0.143788
  31
0
  0
LINE
  5
50
  100
AcDbEntity
  8
1
  100
AcDbLine
  10
78.9
  20
0.143788
  30
0
  11
78.8
  21
0.144223
  31
0
  0
LINE
  5
51
  100
AcDbEntity
  8
1
  100
AcDbLine
  10
78.8
  20
0.144223
  30
0
  11
78.7
  21
0.144659
  31
0
  0
LINE
  5
52
  100
AcDbEntity
  8
1
  100
AcDbLine
  10
78.7
  20
0.144659
  30
0
  11
78.6
  21
0.145095
  31
0
  0
LINE
  5
53
  100
AcDbEntity
  8
1
  100
AcDbLine
  10
78.6
  20
0.145095
  30
0
  11
78.5
  21
0.14553
  31
0
  0
LINE
  5
54
  100
AcDbEntity
  8
1
  100
AcDbLine
  10
78.5
  20
0.14553
  30
0
  11
78.4
  21
0.145966
  31
0
  0
LINE
  5
55
  100
AcDbEntity
  8
1
  100
AcDbLine
  10
78.4
  20
0.145966
  30
0
  11
78.3
  21
0.146401
  31
0
  0
LINE
  5
56
  100
AcDbEntity
  8
1
  100
AcDbLine
  10
78.3
  20
0.146401
  30
0
  11
78.2
  21
0.146837
  31
0
  0
LINE
  5
57
  100
AcDbEntity
  8
1
  100
AcDbLine
  10
78.2
  20
0.146837
  30
0
  11
78.1
  21
0.147272
  31
0
  0
LINE
  5
58
  100
AcDbEntity
  8
1
  100
AcDbLine
  10
78.1
  20
0.147272
  30
0
  11
78
  21
0.147708
  31
0
  0
LINE
  5
59
  100
AcDbEntity
  8
1
  100
AcDbLine
  10
78
  20
0.147708
  30
0
  11
77.9
  21
0.148143
  31
0
  0
LINE
  5
5a
  100
AcDbEntity
  8
1
  100
AcDbLine
  10
77.9
  20
0.148143
  30
0
  11
77.8
  21
0.148579
  31
0
  0
LINE
  5
5b
  100
AcDbEntity
  8
1
  100
AcDbLine
  10
77.8
  20
0.148579
  30
0
  11
77.7
  21
0.149014
  31
0
  0
LINE
  5
5c
  100
AcDbEntity
  8
1
  100
AcDbLine
  10
77.7
  20
0.149014
  30
0
  11
77.6
  21
0.14945
  31
0
  0
LINE
  5
5d
  100
AcDbEntity
  8
1
  100
AcDbLine
  10
77.6
  20
0.14945
  30
0
  11
77.5
  21
0.149885
  31
0
  0
LINE
  5
5e
  100
AcDbEntity
  8
1
  100
AcDbLine
  10
77.5
  20
0.149885
  30
0
  11
77.4
  21
0.150321
  31
0
  0
LINE
  5
5f
  100
AcDbEntity
  8
1
  100
AcDbLine
  10
77.4
  20
0.150321
  30
0
  11
77.3
  21
0.150756
  31
0
  0
LINE
  5
60
  100
AcDbEntity
  8
1
  100
AcDbLine
  10
77.3
  20
0.150756
  30
0
  11
77.2
  21
0.151192
  31
0
  0
LINE
  5
61
  100
AcDbEntity
  8
1
  100
AcDbLine
  10
77.2
  20
0.151192
  30
0
  11
77.1
  21
0.151627
  31
0
  0
LINE
  5
62
  100
AcDbEntity
  8
1
  100
AcDbLine
  10
77.1
  20
0.151627
  30
0
  11
77
  21
0.152063
  31
0
  0
LINE
  5
63
  100
AcDbEntity
  8
1
  100
AcDbLine
  10
77
  20
0.152063
  30
0
  11
76.9
  21
0.152498
  31
0
  0
LINE
  5
64
  100
AcDbEntity
  8
1
  100
AcDbLine
  10
76.9
  20
0.152498
  30
0
  11
76.8
  21
0.152933
  31
0
  0
LINE
  5
65
  100
AcDbEntity
  8
1
  100
AcDbLine
  10
76.8
  20
0.152933
  30
0
  11
76.7
  21
0.153369
  31
0
  0
LINE
  5
66
  100
AcDbEntity
  8
1
  100
AcDbLine
  10
76.7
  20
0.153369
  30
0
  11
76.6
  21
0.153804
  31
0
  0
LINE
  5
67
  100
AcDbEntity
  8
1
  100
AcDbLine
  10
76.6
  20
0.153804
  30
0
  11
76.5
  21
0.15424
  31
0
  0
LINE
  5
68
  100
AcDbEntity
  8
1
  100
AcDbLine
  10
76.5
  20
0.15424
  30
0
  11
76.4
  21
0.154675
  31
0
  0
LINE
  5
69
  100
AcDbEntity
  8
1
  100
AcDbLine
  10
76.4
  20
0.154675
  30
0
  11
76.3
  21
0.155111
  31
0
  0
LINE
  5
6a
  100
AcDbEntity
  8
1
  100
AcDbLine
  10
76.3
  20
0.155111
  30
0
  11
76.2
  21
0.155546
  31
0
  0
LINE
  5
6b
  100
AcDbEntity
  8
1
  100
AcDbLine
  10
76.2
  20
0.155546
  30
0
  11
76.1
  21
0.155982
  31
0
  0
LINE
  5
6c
  100
AcDbEntity
  8
1
  100
AcDbLine
  10
76.1
  20
0.155982
  30
0
  11
76
  21
0.156417
  31
0
  0
LINE
  5
6d
  100
AcDbEntity
  8
1
  100
AcDbLine
  10
76
  20
0.156417
  30
0
  11
75.9
  21
0.034743
  31
0
  0
LINE
  5
6e
  100
AcDbEntity
  8
1
  100
AcDbLine
  10
75.9
  20
0.034743
  30
0
  11
75.8
  21
0.035737
  31
0
  0
LINE
  5
6f
  100
AcDbEntity
  8
1
  100
AcDbLine
  10
75.8
  20
0.035737
  30
0
  11
75.7
  21
0.037134
  31
0
  0
LINE
  5
70
  100
AcDbEntity
  8
1
  100
AcDbLine
  10
75.7
  20
0.037134
  30
0
  11
75.6
  21
0.038934
  31
0
  0
LINE
  5
71
  100
AcDbEntity
  8
1
  100
AcDbLine
  10
75.6
  20
0.038934
  30
0
  11
75.5
  21
0.041139
  31
0
  0
LINE
  5
72
  100
AcDbEntity
  8
1
  100
AcDbLine
  10
75.5
  20
0.041139
  30
0
  11
75.4
  21
0.043748
  31
0
  0
LINE
  5
73
  100
AcDbEntity
  8
1
  100
AcDbLine
  10
75.4
  20
0.043748
  30
0
  11
75.3
  21
0.046763
  31
0
  0
LINE
  5
74
  100
AcDbEntity
  8
1
  100
AcDbLine
  10
75.3
  20
0.046763
  30
0
  11
75.2
  21
0.050183
  31
0
  0
LINE
  5
75
  100
AcDbEntity
  8
1
  100
AcDbLine
  10
75.2
  20
0.050183
  30
0
  11
75.1
  21
0.054011
  31
0
  0
LINE
  5
76
  100
AcDbEntity
  8
1
  100
AcDbLine
  10
75.1
  20
0.054011
  30
0
  11
75
  21
0.058245
  31
0
  0
LINE
  5
77
  100
AcDbEntity
  8
1
  100
AcDbLine
  10
75
  20
0.058245
  30
0
  11
74.9
  21
0.062886
  31
0
  0
LINE
  5
78
  100
AcDbEntity
  8
1
  100
AcDbLine
  10
74.9
  20
0.062886
  30
0
  11
74.8
  21
0.067934
  31
0
  0
LINE
  5
79
  100
AcDbEntity
  8
1
  100
AcDbLine
  10
74.8
  20
0.067934
  30
0
  11
74.7
  21
0.073389
  31
0
  0
LINE
  5
7a
  100
AcDbEntity
  8
1
  100
AcDbLine
  10
74.7
  20
0.073389
  30
0
  11
74.6
  21
0.079252
  31
0
  0
LINE
  5
7b
  100
AcDbEntity
  8
1
  100
AcDbLine
  10
74.6
  20
0.079252
  30
0
  11
74.5
  21
0.085521
  31
0
  0
LINE
  5
7c
  100
AcDbEntity
  8
1
  100
AcDbLine
  10
74.5
  20
0.085521
  30
0
  11
74.4
  21
0.092196
  31
0
  0
LINE
  5
7d
  100
AcDbEntity
  8
1
  100
AcDbLine
  10
74.4
  20
0.092196
  30
0
  11
74.3
  21
0.099278
  31
0
  0
LINE
  5
7e
  100
AcDbEntity
  8
1
  100
AcDbLine
  10
74.3
  20
0.099278
  30
0
  11
74.2
  21
0.106764
  31
0
  0
LINE
  5
7f
  100
AcDbEntity
  8
1
  100
AcDbLine
  10
74.2
  20
0.106764
  30
0
  11
74.1
  21
0.114655
  31
0
  0
LINE
  5
80
  100
AcDbEntity
  8
1
  100
AcDbLine
  10
74.1
  20
0.114655
  30
0
  11
74
  21
0.122951
  31
0
  0
LINE
  5
81
  100
AcDbEntity
  8
1
  100
AcDbLine
  10
74
  20
0.122951
  30
0
  11
73.9
  21
0.131648
  31
0
  0
LINE
  5
82
  100
AcDbEntity
  8
1
  100
AcDbLine
  10
73.9
  20
0.131648
  30
0
  11
73.8
  21
0.140748
  31
0
  0
LINE
  5
83
  100
AcDbEntity
  8
1
  100
AcDbLine
  10
73.8
  20
0.140748
  30
0
  11
73.7
  21
0.150248
  31
0
  0
LINE
  5
84
  100
AcDbEntity
  8
1
  100
AcDbLine
  10
73.7
  20
0.150248
  30
0
  11
73.6
  21
0.160148
  31
0
  0
LINE
  5
85
  100
AcDbEntity
  8
1
  100
AcDbLine
  10
73.6
  20
0.160148
  30
0
  11
73.5
  21
0.170445
  31
0
  0
LINE
  5
86
  100
AcDbEntity
  8
1
  100
AcDbLine
  10
73.5
  20
0.170445
  30
0
  11
73.4
  21
0.181138
  31
0
  0
LINE
  5
87
  100
AcDbEntity
  8
1
  100
AcDbLine
  10
73.4
  20
0.181138
  30
0
  11
73.3
  21
0.192225
  31
0
  0
LINE
  5
88
  100
AcDbEntity
  8
1
  100
AcDbLine
  10
73.3
  20
0.192225
  30
0
  11
73.2
  21
0.203706
  31
0
  0
LINE
  5
89
  100
AcDbEntity
  8
1
  100
AcDbLine
  10
73.2
  20
0.203706
  30
0
  11
73.1
  21
0.215576
  31
0
  0
LINE
  5
8a
  100
AcDbEntity
  8
1
  100
AcDbLine
  10
73.1
  20
0.215576
  30
0
  11
73
  21
0.227835
  31
0
  0
LINE
  5
8b
  100
AcDbEntity
  8
1
  100
AcDbLine
  10
73
  20
0.227835
  30
0
  11
72.9
  21
0.240481
  31
0
  0
LINE
  5
8c
  100
AcDbEntity
  8
1
  100
AcDbLine
  10
72.9
  20
0.240481
  30
0
  11
72.8
  21
0.253509
  31
0
  0
LINE
  5
8d
  100
AcDbEntity
  8
1
  100
AcDbLine
  10
72.8
  20
0.253509
  30
0
  11
72.7
  21
0.266919
  31
0
  0
LINE
  5
8e
  100
AcDbEntity
  8
1
  100
AcDbLine
  10
72.7
  20
0.266919
  30
0
  11
72.6
  21
0.280708
  31
0
  0
LINE
  5
8f
  100
AcDbEntity
  8
1
  100
AcDbLine
  10
72.6
  20
0.280708
  30
0
  11
72.5
  21
0.294872
  31
0
  0
LINE
  5
90
  100
AcDbEntity
  8
1
  100
AcDbLine
  10
72.5
  20
0.294872
  30
0
  11
72.4
  21
0.309409
  31
0
  0
LINE
  5
91
  100
AcDbEntity
  8
1
  100
AcDbLine
  10
72.4
  20
0.309409
  30
0
  11
72.3
  21
0.324315
  31
0
  0
LINE
  5
92
  100
AcDbEntity
  8
1
  100
AcDbLine
  10
72.3
  20
0.324315
  30
0
  11
72.2
  21
0.339587
  31
0
  0
LINE
  5
93
  100
AcDbEntity
  8
1
  100
AcDbLine
  10
72.2
  20
0.339587
  30
0
  11
72.1
  21
0.355222
  31
0
  0
LINE
  5
94
  100
AcDbEntity
  8
1
  100
AcDbLine
  10
72.1
  20
0.355222
  30
0
  11
72
  21
0.371216
  31
0
  0
LINE
  5
95
  100
AcDbEntity
  8
1
  100
AcDbLine
  10
72
  20
0.371216
  30
0
  11
71.9
  21
0.387565
  31
0
  0
LINE
  5
96
  100
AcDbEntity
  8
1
  100
AcDbLine
  10
71.9
  20
0.387565
  30
0
  11
71.8
  21
0.404266
  31
0
  0
LINE
  5
97
  100
AcDbEntity
  8
1
  100
AcDbLine
  10
71.8
  20
0.404266
  30
0
  11
71.7
  21
0.421314
  31
0
  0
LINE
  5
98
  100
AcDbEntity
  8
1
  100
AcDbLine
  10
71.7
  20
0.421314
  30
0
  11
71.6
  21
0.438706
  31
0
  0
LINE
  5
99
  100
AcDbEntity
  8
1
  100
AcDbLine
  10
71.6
  20
0.438706
  30
0
  11
71.5
  21
0.456436
  31
0
  0
LINE
  5
9a
  100
AcDbEntity
  8
1
  100
AcDbLine
  10
71.5
  20
0.456436
  30
0
  11
71.4
  21
0.474501
  31
0
  0
LINE
  5
9b
  100
AcDbEntity
  8
1
  100
AcDbLine
  10
71.4
  20
0.474501
  30
0
  11
71.3
  21
0.492895
  31
0
  0
LINE
  5
9c
  100
AcDbEntity
  8
1
  100
AcDbLine
  10
71.3
  20
0.492895
  30
0
  11
71.2
  21
0.511614
  31
0
  0
LINE
  5
9d
  100
AcDbEntity
  8
1
  100
AcDbLine
  10
71.2
  20
0.511614
  30
0
  11
71.1
  21
0.530654
  31
0
  0
LINE
  5
9e
  100
AcDbEntity
  8
1
  100
AcDbLine
  10
71.1
  20
0.530654
  30
0
  11
71
  21
0.550008
  31
0
  0
LINE
  5
9f
  100
AcDbEntity
  8
1
  100
AcDbLine
  10
71
  20
0.550008
  30
0
  11
70.9
  21
0.569671
  31
0
  0
LINE
  5
a0
  100
AcDbEntity
  8
1
  100
AcDbLine
  10
70.9
  20
0.569671
  30
0
  11
70.8
  21
0.589639
  31
0
  0
LINE
  5
a1
  100
AcDbEntity
  8
1
  100
AcDbLine
  10
70.8
  20
0.589639
  30
0
  11
70.7
  21
0.609905
  31
0
  0
LINE
  5
a2
  100
AcDbEntity
  8
1
  100
AcDbLine
  10
70.7
  20
0.609905
  30
0
  11
70.6
  21
0.630464
  31
0
  0
LINE
  5
a3
  100
AcDbEntity
  8
1
  100
AcDbLine
  10
70.6
  20
0.630464
  30
0
  11
70.5
  21
0.65131
  31
0
  0
LINE
  5
a4
  100
AcDbEntity
  8
1
  100
AcDbLine
  10
70.5
  20
0.65131
  30
0
  11
70.4
  21
0.672437
  31
0
  0
LINE
  5
a5
  100
AcDbEntity
  8
1
  100
AcDbLine
  10
70.4
  20
0.672437
  30
0
  11
70.3
  21
0.693838
  31
0
  0
LINE
  5
a6
  100
AcDbEntity
  8
1
  100
AcDbLine
  10
70.3
  20
0.693838
  30
0
  11
70.2
  21
0.715509
  31
0
  0
LINE
  5
a7
  100
AcDbEntity
  8
1
  100
AcDbLine
  10
70.2
  20
0.715509
  30
0
  11
70.1
  21
0.737441
  31
0
  0
LINE
  5
a8
  100
AcDbEntity
  8
1
  100
AcDbLine
  10
70.1
  20
0.737441
  30
0
  11
70
  21
0.759629
  31
0
  0
LINE
  5
a9
  100
AcDbEntity
  8
1
  100
AcDbLine
  10
70
  20
0.759629
  30
0
  11
69.9
  21
0.782066
  31
0
  0
LINE
  5
aa
  100
AcDbEntity
  8
1
  100
AcDbLine
  10
69.9
  20
0.782066
  30
0
  11
69.8
  21
0.804744
  31
0
  0
LINE
  5
ab
  100
AcDbEntity
  8
1
  100
AcDbLine
  10
69.8
  20
0.804744
  30
0
  11
69.7
  21
0.827658
  31
0
  0
LINE
  5
ac
  100
AcDbEntity
  8
1
  100
AcDbLine
  10
69.7
  20
0.827658
  30
0
  11
69.6
  21
0.8508
  31
0
  0
LINE
  5
ad
  100
AcDbEntity
  8
1
  100
AcDbLine
  10
69.6
  20
0.8508
  30
0
  11
69.5
  21
0.874162
  31
0
  0
LINE
  5
ae
  100
AcDbEntity
  8
1
  100
AcDbLine
  10
69.5
  20
0.874162
  30
0
  11
69.4
  21
0.897738
  31
0
  0
LINE
  5
af
  100
AcDbEntity
  8
1
  100
AcDbLine
  10
69.4
  20
0.897738
  30
0
  11
69.3
  21
0.92152
  31
0
  0
LINE
  5
b0
  100
AcDbEntity
  8
1
  100
AcDbLine
  10
69.3
  20
0.92152
  30
0
  11
69.2
  21
0.9455
  31
0
  0
LINE
  5
b1
  100
AcDbEntity
  8
1
  100
AcDbLine
  10
69.2
  20
0.9455
  30
0
  11
69.1
  21
0.969672
  31
0
  0
LINE
  5
b2
  100
AcDbEntity
  8
1
  100
AcDbLine
  10
69.1
  20
0.969672
  30
0
  11
69
  21
0.994026
  31
0
  0
LINE
  5
b3
  100
AcDbEntity
  8
1
  100
AcDbLine
  10
69
  20
0.994026
  30
0
  11
68.9
  21
1.018556
  31
0
  0
LINE
  5
b4
  100
AcDbEntity
  8
1
  100
AcDbLine
  10
68.9
  20
1.018556
  30
0
  11
68.8
  21
1.043252
  31
0
  0
LINE
  5
b5
  100
AcDbEntity
  8
1
  100
AcDbLine
  10
68.8
  20
1.043252
  30
0
  11
68.7
  21
1.068108
  31
0
  0
LINE
  5
b6
  100
AcDbEntity
  8
1
  100
AcDbLine
  10
68.7
  20
1.068108
  30
0
  11
68.6
  21
1.093116
  31
0
  0
LINE
  5
b7
  100
AcDbEntity
  8
1
  100
AcDbLine
  10
68.6
  20
1.093116
  30
0
  11
68.5
  21
1.118266
  31
0
  0
LINE
  5
b8
  100
AcDbEntity
  8
1
  100
AcDbLine
  10
68.5
  20
1.118266
  30
0
  11
68.4
  21
1.143551
  31
0
  0
LINE
  5
b9
  100
AcDbEntity
  8
1
  100
AcDbLine
  10
68.4
  20
1.143551
  30
0
  11
68.3
  21
1.168962
  31
0
  0
LINE
  5
ba
  100
AcDbEntity
  8
1
  100
AcDbLine
  10
68.3
  20
1.168962
  30
0
  11
68.2
  21
1.194492
  31
0
  0
LINE
  5
bb
  100
AcDbEntity
  8
1
  100
AcDbLine
  10
68.2
  20
1.194492
  30
0
  11
68.1
  21
1.220131
  31
0
  0
LINE
  5
bc
  100
AcDbEntity
  8
1
  100
AcDbLine
  10
68.1
  20
1.220131
  30
0
  11
68
  21
1.245871
  31
0
  0
LINE
  5
bd
  100
AcDbEntity
  8
1
  100
AcDbLine
  10
68
  20
1.245871
  30
0
  11
67.9
  21
1.271704
  31
0
  0
LINE
  5
be
  100
AcDbEntity
  8
1
  100
AcDbLine
  10
67.9
  20
1.271704
  30
0
  11
67.8
  21
1.297621
  31
0
  0
LINE
  5
bf
  100
AcDbEntity
  8
1
  100
AcDbLine
  10
67.8
  20
1.297621
  30
0
  11
67.7
  21
1.323613
  31
0
  0
LINE
  5
c0
  100
AcDbEntity
  8
1
  100
AcDbLine
  10
67.7
  20
1.323613
  30
0
  11
67.6
  21
1.349673
  31
0
  0
LINE
  5
c1
  100
AcDbEntity
  8
1
  100
AcDbLine
  10
67.6
  20
1.349673
  30
0
  11
67.5
  21
1.37579
  31
0
  0
LINE
  5
c2
  100
AcDbEntity
  8
1
  100
AcDbLine
  10
67.5
  20
1.37579
  30
0
  11
67.4
  21
1.401958
  31
0
  0
LINE
  5
c3
  100
AcDbEntity
  8
1
  100
AcDbLine
  10
67.4
  20
1.401958
  30
0
  11
67.3
  21
1.428166
  31
0
  0
LINE
  5
c4
  100
AcDbEntity
  8
1
  100
AcDbLine
  10
67.3
  20
1.428166
  30
0
  11
67.2
  21
1.454407
  31
0
  0
LINE
  5
c5
  100
AcDbEntity
  8
1
  100
AcDbLine
  10
67.2
  20
1.454407
  30
0
  11
67.1
  21
1.480672
  31
0
  0
LINE
  5
c6
  100
AcDbEntity
  8
1
  100
AcDbLine
  10
67.1
  20
1.480672
  30
0
  11
67
  21
1.506951
  31
0
  0
LINE
  5
c7
  100
AcDbEntity
  8
1
  100
AcDbLine
  10
67
  20
1.506951
  30
0
  11
66.9
  21
1.533238
  31
0
  0
LINE
  5
c8
  100
AcDbEntity
  8
1
  100
AcDbLine
  10
66.9
  20
1.533238
  30
0
  11
66.8
  21
1.559522
  31
0
  0
LINE
  5
c9
  100
AcDbEntity
  8
1
  100
AcDbLine
  10
66.8
  20
1.559522
  30
0
  11
66.7
  21
1.585797
  31
0
  0
LINE
  5
ca
  100
AcDbEntity
  8
1
  100
AcDbLine
  10
66.7
  20
1.585797
  30
0
  11
66.6
  21
1.612052
  31
0
  0
LINE
  5
cb
  100
AcDbEntity
  8
1
  100
AcDbLine
  10
66.6
  20
1.612052
  30
0
  11
66.5
  21
1.63828
  31
0
  0
LINE
  5
cc
  100
AcDbEntity
  8
1
  100
AcDbLine
  10
66.5
  20
1.63828
  30
0
  11
66.4
  21
1.664473
  31
0
  0
LINE
  5
cd
  100
AcDbEntity
  8
1
  100
AcDbLine
  10
66.4
  20
1.664473
  30
0
  11
66.3
  21
1.690622
  31
0
  0
LINE
  5
ce
  100
AcDbEntity
  8
1
  100
AcDbLine
  10
66.3
  20
1.690622
  30
0
  11
66.2
  21
1.716718
  31
0
  0
LINE
  5
cf
  100
AcDbEntity
  8
1
  100
AcDbLine
  10
66.2
  20
1.716718
  30
0
  11
66.1
  21
1.742755
  31
0
  0
LINE
  5
d0
  100
AcDbEntity
  8
1
  100
AcDbLine
  10
66.1
  20
1.742755
  30
0
  11
66
  21
1.768723
  31
0
  0
LINE
  5
d1
  100
AcDbEntity
  8
1
  100
AcDbLine
  10
66
  20
1.768723
  30
0
  11
66
  21
1.765227
  31
0
  0
LINE
  5
d2
  100
AcDbEntity
  8
1
  100
AcDbLine
  10
66
  20
1.765227
  30
0
  11
66.1
  21
1.798988
  31
0
  0
LINE
  5
d3
  100
AcDbEntity
  8
1
  100
AcDbLine
  10
66.1
  20
1.798988
  30
0
  11
66.2
  21
1.832417
  31
0
  0
LINE
  5
d4
  100
AcDbEntity
  8
1
  100
AcDbLine
  10
66.2
  20
1.832417
  30
0
  11
66.3
  21
1.865501
  31
0
  0
LINE
  5
d5
  100
AcDbEntity
  8
1
  100
AcDbLine
  10
66.3
  20
1.865501
  30
0
  11
66.4
  21
1.898226
  31
0
  0
LINE
  5
d6
  100
AcDbEntity
  8
1
  100
AcDbLine
  10
66.4
  20
1.898226
  30
0
  11
66.5
  21
1.930582
  31
0
  0
LINE
  5
d7
  100
AcDbEntity
  8
1
  100
AcDbLine
  10
66.5
  20
1.930582
  30
0
  11
66.6
  21
1.962555
  31
0
  0
LINE
  5
d8
  100
AcDbEntity
  8
1
  100
AcDbLine
  10
66.6
  20
1.962555
  30
0
  11
66.7
  21
1.994136
  31
0
  0
LINE
  5
d9
  100
AcDbEntity
  8
1
  100
AcDbLine
  10
66.7
  20
1.994136
  30
0
  11
66.8
  21
2.025313
  31
0
  0
LINE
  5
da
  100
AcDbEntity
  8
1
  100
AcDbLine
  10
66.8
  20
2.025313
  30
0
  11
66.9
  21
2.056076
  31
0
  0
LINE
  5
db
  100
AcDbEntity
  8
1
  100
AcDbLine
  10
66.9
  20
2.056076
  30
0
  11
67
  21
2.086414
  31
0
  0
LINE
  5
dc
  100
AcDbEntity
  8
1
  100
AcDbLine
  10
67
  20
2.086414
  30
0
  11
67.1
  21
2.116319
  31
0
  0
LINE
  5
dd
  100
AcDbEntity
  8
1
  100
AcDbLine
  10
67.1
  20
2.116319
  30
0
  11
67.2
  21
2.145781
  31
0
  0
LINE
  5
de
  100
AcDbEntity
  8
1
  100
AcDbLine
  10
67.2
  20
2.145781
  30
0
  11
67.3
  21
2.174792
  31
0
  0
LINE
  5
df
  100
AcDbEntity
  8
1
  100
AcDbLine
  10
67.3
  20
2.174792
  30
0
  11
67.4
  21
2.203343
  31
0
  0
LINE
  5
e0
  100
AcDbEntity
  8
1
  100
AcDbLine
  10
67.4
  20
2.203343
  30
0
  11
67.5
  21
2.231426
  31
0
  0
LINE
  5
e1
  100
AcDbEntity
  8
1
  100
AcDbLine
  10
67.5
  20
2.231426
  30
0
  11
67.6
  21
2.259036
  31
0
  0
LINE
  5
e2
  100
AcDbEntity
  8
1
  100
AcDbLine
  10
67.6
  20
2.259036
  30
0
  11
67.7
  21
2.286164
  31
0
  0
LINE
  5
e3
  100
AcDbEntity
  8
1
  100
AcDbLine
  10
67.7
  20
2.286164
  30
0
  11
67.8
  21
2.312806
  31
0
  0
LINE
  5
e4
  100
AcDbEntity
  8
1
  100
AcDbLine
  10
67.8
  20
2.312806
  30
0
  11
67.9
  21
2.338954
  31
0
  0
LINE
  5
e5
  100
AcDbEntity
  8
1
  100
AcDbLine
  10
67.9
  20
2.338954
  30
0
  11
68
  21
2.364605
  31
0
  0
LINE
  5
e6
  100
AcDbEntity
  8
1
  100
AcDbLine
  10
68
  20
2.364605
  30
0
  11
68.1
  21
2.389752
  31
0
  0
LINE
  5
e7
  100
AcDbEntity
  8
1
  100
AcDbLine
  10
68.1
  20
2.389752
  30
0
  11
68.2
  21
2.414393
  31
0
  0
LINE
  5
e8
  100
AcDbEntity
  8
1
  100
AcDbLine
  10
68.2
  20
2.414393
  30
0
  11
68.3
  21
2.438522
  31
0
  0
LINE
  5
e9
  100
AcDbEntity
  8
1
  100
AcDbLine
  10
68.3
  20
2.438522
  30
0
  11
68.4
  21
2.462138
  31
0
  0
LINE
  5
ea
  100
AcDbEntity
  8
1
  100
AcDbLine
  10
68.4
  20
2.462138
  30
0
  11
68.5
  21
2.485237
  31
0
  0
LINE
  5
eb
  100
AcDbEntity
  8
1
  100
AcDbLine
  10
68.5
  20
2.485237
  30
0
  11
68.6
  21
2.507818
  31
0
  0
LINE
  5
ec
  100
AcDbEntity
  8
1
  100
AcDbLine
  10
68.6
  20
2.507818
  30
0
  11
68.7
  21
2.529877
  31
0
  0
LINE
  5
ed
  100
AcDbEntity
  8
1
  100
AcDbLine
  10
68.7
  20
2.529877
  30
0
  11
68.8
  21
2.551415
  31
0
  0
LINE
  5
ee
  100
AcDbEntity
  8
1
  100
AcDbLine
  10
68.8
  20
2.551415
  30
0
  11
68.9
  21
2.572429
  31
0
  0
LINE
  5
ef
  100
AcDbEntity
  8
1
  100
AcDbLine
  10
68.9
  20
2.572429
  30
0
  11
69
  21
2.592921
  31
0
  0
LINE
  5
f0
  100
AcDbEntity
  8
1
  100
AcDbLine
  10
69
  20
2.592921
  30
0
  11
69.1
  21
2.612889
  31
0
  0
LINE
  5
f1
  100
AcDbEntity
  8
1
  100
AcDbLine
  10
69.1
  20
2.612889
  30
0
  11
69.2
  21
2.632335
  31
0
  0
LINE
  5
f2
  100
AcDbEntity
  8
1
  100
AcDbLine
  10
69.2
  20
2.632335
  30
0
  11
69.3
  21
2.65126
  31
0
  0
LINE
  5
f3
  100
AcDbEntity
  8
1
  100
AcDbLine
  10
69.3
  20
2.65126
  30
0
  11
69.4
  21
2.669664
  31
0
  0
LINE
  5
f4
  100
AcDbEntity
  8
1
  100
AcDbLine
  10
69.4
  20
2.669664
  30
0
  11
69.5
  21
2.68755
  31
0
  0
LINE
  5
f5
  100
AcDbEntity
  8
1
  100
AcDbLine
  10
69.5
  20
2.68755
  30
0
  11
69.6
  21
2.70492
  31
0
  0
LINE
  5
f6
  100
AcDbEntity
  8
1
  100
AcDbLine
  10
69.6
  20
2.70492
  30
0
  11
69.7
  21
2.721776
  31
0
  0
LINE
  5
f7
  100
AcDbEntity
  8
1
  100
AcDbLine
  10
69.7
  20
2.721776
  30
0
  11
69.8
  21
2.738122
  31
0
  0
LINE
  5
f8
  100
AcDbEntity
  8
1
  100
AcDbLine
  10
69.8
  20
2.738122
  30
0
  11
69.9
  21
2.753961
  31
0
  0
LINE
  5
f9
  100
AcDbEntity
  8
1
  100
AcDbLine
  10
69.9
  20
2.753961
  30
0
  11
70
  21
2.769297
  31
0
  0
LINE
  5
fa
  100
AcDbEntity
  8
1
  100
AcDbLine
  10
70
  20
2.769297
  30
0
  11
70.1
  21
2.784134
  31
0
  0
LINE
  5
fb
  100
AcDbEntity
  8
1
  100
AcDbLine
  10
70.1
  20
2.784134
  30
0
  11
70.2
  21
2.798476
  31
0
  0
LINE
  5
fc
  100
AcDbEntity
  8
1
  100
AcDbLine
  10
70.2
  20
2.798476
  30
0
  11
70.3
  21
2.812328
  31
0
  0
LINE
  5
fd
  100
AcDbEntity
  8
1
  100
AcDbLine
  10
70.3
  20
2.812328
  30
0
  11
70.4
  21
2.825696
  31
0
  0
LINE
  5
fe
  100
AcDbEntity
  8
1
  100
AcDbLine
  10
70.4
  20
2.825696
  30
0
  11
70.5
  21
2.838584
  31
0
  0
LINE
  5
ff
  100
AcDbEntity
  8
1
  100
AcDbLine
  10
70.5
  20
2.838584
  30
0
  11
70.6
  21
2.850998
  31
0
  0
LINE
  5
100
  100
AcDbEntity
  8
1
  100
AcDbLine
  10
70.6
  20
2.850998
  30
0
  11
70.7
  21
2.862944
  31
0
  0
LINE
  5
101
  100
AcDbEntity
  8
1
  100
AcDbLine
  10
70.7
  20
2.862944
  30
0
  11
70.8
  21
2.874428
  31
0
  0
LINE
  5
102
  100
AcDbEntity
  8
1
  100
AcDbLine
  10
70.8
  20
2.874428
  30
0
  11
70.9
  21
2.885457
  31
0
  0
LINE
  5
103
  100
AcDbEntity
  8
1
  100
AcDbLine
  10
70.9
  20
2.885457
  30
0
  11
71
  21
2.896037
  31
0
  0
LINE
  5
104
  100
AcDbEntity
  8
1
  100
AcDbLine
  10
71
  20
2.896037
  30
0
  11
71.1
  21
2.906175
  31
0
  0
LINE
  5
105
  100
AcDbEntity
  8
1
  100
AcDbLine
  10
71.1
  20
2.906175
  30
0
  11
71.2
  21
2.915878
  31
0
  0
LINE
  5
106
  100
AcDbEntity
  8
1
  100
AcDbLine
  10
71.2
  20
2.915878
  30
0
  11
71.3
  21
2.925153
  31
0
  0
LINE
  5
107
  100
AcDbEntity
  8
1
  100
AcDbLine
  10
71.3
  20
2.925153
  30
0
  11
71.4
  21
2.934008
  31
0
  0
LINE
  5
108
  100
AcDbEntity
  8
1
  100
AcDbLine
  10
71.4
  20
2.934008
  30
0
  11
71.5
  21
2.942448
  31
0
  0
LINE
  5
109
  100
AcDbEntity
  8
1
  100
AcDbLine
  10
71.5
  20
2.942448
  30
0
  11
71.6
  21
2.950483
  31
0
  0
LINE
  5
10a
  100
AcDbEntity
  8
1
  100
AcDbLine
  10
71.6
  20
2.950483
  30
0
  11
71.7
  21
2.95812
  31
0
  0
LINE
  5
10b
  100
AcDbEntity
  8
1
  100
AcDbLine
  10
71.7
  20
2.95812
  30
0
  11
71.8
  21
2.965367
  31
0
  0
LINE
  5
10c
  100
AcDbEntity
  8
1
  100
AcDbLine
  10
71.8
  20
2.965367
  30
0
  11
71.9
  21
2.97223
  31
0
  0
LINE
  5
10d
  100
AcDbEntity
  8
1
  100
AcDbLine
  10
71.9
  20
2.97223
  30
0
  11
72
  21
2.978719
  31
0
  0
LINE
  5
10e
  100
AcDbEntity
  8
1
  100
AcDbLine
  10
72
  20
2.978719
  30
0
  11
72.1
  21
2.98484
  31
0
  0
LINE
  5
10f
  100
AcDbEntity
  8
1
  100
AcDbLine
  10
72.1
  20
2.98484
  30
0
  11
72.2
  21
2.990602
  31
0
  0
LINE
  5
110
  100
AcDbEntity
  8
1
  100
AcDbLine
  10
72.2
  20
2.990602
  30
0
  11
72.3
  21
2.996013
  31
0
  0
LINE
  5
111
  100
AcDbEntity
  8
1
  100
AcDbLine
  10
72.3
  20
2.996013
  30
0
  11
72.4
  21
3.00108
  31
0
  0
LINE
  5
112
  100
AcDbEntity
  8
1
  100
AcDbLine
  10
72.4
  20
3.00108
  30
0
  11
72.5
  21
3.005812
  31
0
  0
LINE
  5
113
  100
AcDbEntity
  8
1
  100
AcDbLine
  10
72.5
  20
3.005812
  30
0
  11
72.6
  21
3.010215
  31
0
  0
LINE
  5
114
  100
AcDbEntity
  8
1
  100
AcDbLine
  10
72.6
  20
3.010215
  30
0
  11
72.7
  21
3.014298
  31
0
  0
LINE
  5
115
  100
AcDbEntity
  8
1
  100
AcDbLine
  10
72.7
  20
3.014298
  30
0
  11
72.8
  21
3.018069
  31
0
  0
LINE
  5
116
  100
AcDbEntity
  8
1
  100
AcDbLine
  10
72.8
  20
3.018069
  30
0
  11
72.9
  21
3.021534
  31
0
  0
LINE
  5
117
  100
AcDbEntity
  8
1
  100
AcDbLine
  10
72.9
  20
3.021534
  30
0
  11
73
  21
3.024702
  31
0
  0
LINE
  5
118
  100
AcDbEntity
  8
1
  100
AcDbLine
  10
73
  20
3.024702
  30
0
  11
73.1
  21
3.02758
  31
0
  0
LINE
  5
119
  100
AcDbEntity
  8
1
  100
AcDbLine
  10
73.1
  20
3.02758
  30
0
  11
73.2
  21
3.030174
  31
0
  0
LINE
  5
11a
  100
AcDbEntity
  8
1
  100
AcDbLine
  10
73.2
  20
3.030174
  30
0
  11
73.3
  21
3.032493
  31
0
  0
LINE
  5
11b
  100
AcDbEntity
  8
1
  100
AcDbLine
  10
73.3
  20
3.032493
  30
0
  11
73.4
  21
3.034543
  31
0
  0
LINE
  5
11c
  100
AcDbEntity
  8
1
  100
AcDbLine
  10
73.4
  20
3.034543
  30
0
  11
73.5
  21
3.03633
  31
0
  0
LINE
  5
11d
  100
AcDbEntity
  8
1
  100
AcDbLine
  10
73.5
  20
3.03633
  30
0
  11
73.6
  21
3.037861
  31
0
  0
LINE
  5
11e
  100
AcDbEntity
  8
1
  100
AcDbLine
  10
73.6
  20
3.037861
  30
0
  11
73.7
  21
3.039144
  31
0
  0
LINE
  5
11f
  100
AcDbEntity
  8
1
  100
AcDbLine
  10
73.7
  20
3.039144
  30
0
  11
73.8
  21
3.040183
  31
0
  0
LINE
  5
120
  100
AcDbEntity
  8
1
  100
AcDbLine
  10
73.8
  20
3.040183
  30
0
  11
73.9
  21
3.040985
  31
0
  0
LINE
  5
121
  100
AcDbEntity
  8
1
  100
AcDbLine
  10
73.9
  20
3.040985
  30
0
  11
74
  21
3.041556
  31
0
  0
LINE
  5
122
  100
AcDbEntity
  8
1
  100
AcDbLine
  10
74
  20
3.041556
  30
0
  11
74.1
  21
3.041901
  31
0
  0
LINE
  5
123
  100
AcDbEntity
  8
1
  100
AcDbLine
  10
74.1
  20
3.041901
  30
0
  11
74.2
  21
3.042026
  31
0
  0
LINE
  5
124
  100
AcDbEntity
  8
1
  100
AcDbLine
  10
74.2
  20
3.042026
  30
0
  11
74.3
  21
3.041935
  31
0
  0
LINE
  5
125
  100
AcDbEntity
  8
1
  100
AcDbLine
  10
74.3
  20
3.041935
  30
0
  11
74.4
  21
3.041634
  31
0
  0
LINE
  5
126
  100
AcDbEntity
  8
1
  100
AcDbLine
  10
74.4
  20
3.041634
  30
0
  11
74.5
  21
3.041128
  31
0
  0
LINE
  5
127
  100
AcDbEntity
  8
1
  100
AcDbLine
  10
74.5
  20
3.041128
  30
0
  11
74.6
  21
3.04042
  31
0
  0
LINE
  5
128
  100
AcDbEntity
  8
1
  100
AcDbLine
  10
74.6
  20
3.04042
  30
0
  11
74.7
  21
3.039514
  31
0
  0
LINE
  5
129
  100
AcDbEntity
  8
1
  100
AcDbLine
  10
74.7
  20
3.039514
  30
0
  11
74.8
  21
3.038415
  31
0
  0
LINE
  5
12a
  100
AcDbEntity
  8
1
  100
AcDbLine
  10
74.8
  20
3.038415
  30
0
  11
74.9
  21
3.037126
  31
0
  0
LINE
  5
12b
  100
AcDbEntity
  8
1
  100
AcDbLine
  10
74.9
  20
3.037126
  30
0
  11
75
  21
3.035651
  31
0
  0
LINE
  5
12c
  100
AcDbEntity
  8
1
  100
AcDbLine
  10
75
  20
3.035651
  30
0
  11
75.1
  21
3.033991
  31
0
  0
LINE
  5
12d
  100
AcDbEntity
  8
1
  100
AcDbLine
  10
75.1
  20
3.033991
  30
0
  11
75.2
  21
3.03215
  31
0
  0
LINE
  5
12e
  100
AcDbEntity
  8
1
  100
AcDbLine
  10
75.2
  20
3.03215
  30
0
  11
75.3
  21
3.030131
  31
0
  0
LINE
  5
12f
  100
AcDbEntity
  8
1
  100
AcDbLine
  10
75.3
  20
3.030131
  30
0
  11
75.4
  21
3.027934
  31
0
  0
LINE
  5
130
  100
AcDbEntity
  8
1
  100
AcDbLine
  10
75.4
  20
3.027934
  30
0
  11
75.5
  21
3.025563
  31
0
  0
LINE
  5
131
  100
AcDbEntity
  8
1
  100
AcDbLine
  10
75.5
  20
3.025563
  30
0
  11
75.6
  21
3.023019
  31
0
  0
LINE
  5
132
  100
AcDbEntity
  8
1
  100
AcDbLine
  10
75.6
  20
3.023019
  30
0
  11
75.7
  21
3.020302
  31
0
  0
LINE
  5
133
  100
AcDbEntity
  8
1
  100
AcDbLine
  10
75.7
  20
3.020302
  30
0
  11
75.8
  21
3.017414
  31
0
  0
LINE
  5
134
  100
AcDbEntity
  8
1
  100
AcDbLine
  10
75.8
  20
3.017414
  30
0
  11
75.9
  21
3.014356
  31
0
  0
LINE
  5
135
  100
AcDbEntity
  8
1
  100
AcDbLine
  10
75.9
  20
3.014356
  30
0
  11
76
  21
3.923005
  31
0
  0
LINE
  5
136
  100
AcDbEntity
  8
1
  100
AcDbLine
  10
76
  20
3.923005
  30
0
  11
76.1
  21
3.919786
  31
0
  0
LINE
  5
137
  100
AcDbEntity
  8
1
  100
AcDbLine
  10
76.1
  20
3.919786
  30
0
  11
76.2
  21
3.916566
  31
0
  0
LINE
  5
138
  100
AcDbEntity
  8
1
  100
AcDbLine
  10
76.2
  20
3.916566
  30
0
  11
76.3
  21
3.913347
  31
0
  0
LINE
  5
139
  100
AcDbEntity
  8
1
  100
AcDbLine
  10
76.3
  20
3.913347
  30
0
  11
76.4
  21
3.910127
  31
0
  0
LINE
  5
13a
  100
AcDbEntity
  8
1
  100
AcDbLine
  10
76.4
  20
3.910127
  30
0
  11
76.5
  21
3.906908
  31
0
  0
LINE
  5
13b
  100
AcDbEntity
  8
1
  100
AcDbLine
  10
76.5
  20
3.906908
  30
0
  11
76.6
  21
3.903688
  31
0
  0
LINE
  5
13c
  100
AcDbEntity
  8
1
  100
AcDbLine
  10
76.6
  20
3.903688
  30
0
  11
76.7
  21
3.900468
  31
0
  0
LINE
  5
13d
  100
AcDbEntity
  8
1
  100
AcDbLine
  10
76.7
  20
3.900468
  30
0
  11
76.8
  21
3.897247
  31
0
  0
LINE
  5
13e
  100
AcDbEntity
  8
1
  100
AcDbLine
  10
76.8
  20
3.897247
  30
0
  11
76.9
  21
3.894027
  31
0
  0
LINE
  5
13f
  100
AcDbEntity
  8
1
  100
AcDbLine
  10
76.9
  20
3.894027
  30
0
  11
77
  21
3.890806
  31
0
  0
LINE
  5
140
  100
AcDbEntity
  8
1
  100
AcDbLine
  10
77
  20
3.890806
  30
0
  11
77.1
  21
3.887585
  31
0
  0
LINE
  5
141
  100
AcDbEntity
  8
1
  100
AcDbLine
  10
77.1
  20
3.887585
  30
0
  11
77.2
  21
3.884364
  31
0
  0
LINE
  5
142
  100
AcDbEntity
  8
1
  100
AcDbLine
  10
77.2
  20
3.884364
  30
0
  11
77.3
  21
3.881143
  31
0
  0
LINE
  5
143
  100
AcDbEntity
  8
1
  100
AcDbLine
  10
77.3
  20
3.881143
  30
0
  11
77.4
  21
3.877922
  31
0
  0
LINE
  5
144
  100
AcDbEntity
  8
1
  100
AcDbLine
  10
77.4
  20
3.877922
  30
0
  11
77.5
  21
3.8747
  31
0
  0
LINE
  5
145
  100
AcDbEntity
  8
1
  100
AcDbLine
  10
77.5
  20
3.8747
  30
0
  11
77.6
  21
3.871478
  31
0
  0
LINE
  5
146
  100
AcDbEntity
  8
1
  100
AcDbLine
  10
77.6
  20
3.871478
  30
0
  11
77.7
  21
3.868256
  31
0
  0
LINE
  5
147
  100
AcDbEntity
  8
1
  100
AcDbLine
  10
77.7
  20
3.868256
  30
0
  11
77.8
  21
3.865034
  31
0
  0
LINE
  5
148
  100
AcDbEntity
  8
1
  100
AcDbLine
  10
77.8
  20
3.865034
  30
0
  11
77.9
  21
3.861812
  31
0
  0
LINE
  5
149
  100
AcDbEntity
  8
1
  100
AcDbLine
  10
77.9
  20
3.861812
  30
0
  11
78
  21
3.858589
  31
0
  0
LINE
  5
14a
  100
AcDbEntity
  8
1
  100
AcDbLine
  10
78
  20
3.858589
  30
0
  11
78.1
  21
3.855366
  31
0
  0
LINE
  5
14b
  100
AcDbEntity
  8
1
  100
AcDbLine
  10
78.1
  20
3.855366
  30
0
  11
78.2
  21
3.852143
  31
0
  0
LINE
  5
14c
  100
AcDbEntity
  8
1
  100
AcDbLine
  10
78.2
  20
3.852143
  30
0
  11
78.3
  21
3.84892
  31
0
  0
LINE
  5
14d
  100
AcDbEntity
  8
1
  100
AcDbLine
  10
78.3
  20
3.84892
  30
0
  11
78.4
  21
3.845697
  31
0
  0
LINE
  5
14e
  100
AcDbEntity
  8
1
  100
AcDbLine
  10
78.4
  20
3.845697
  30
0
  11
78.5
  21
3.842474
  31
0
  0
LINE
  5
14f
  100
AcDbEntity
  8
1
  100
AcDbLine
  10
78.5
  20
3.842474
  30
0
  11
78.6
  21
3.83925
  31
0
  0
LINE
  5
150
  100
AcDbEntity
  8
1
  100
AcDbLine
  10
78.6
  20
3.83925
  30
0
  11
78.7
  21
3.836026
  31
0
  0
LINE
  5
151
  100
AcDbEntity
  8
1
  100
AcDbLine
  10
78.7
  20
3.836026
  30
0
  11
78.8
  21
3.832802
  31
0
  0
LINE
  5
152
  100
AcDbEntity
  8
1
  100
AcDbLine
  10
78.8
  20
3.832802
  30
0
  11
78.9
  21
3.829578
  31
0
  0
LINE
  5
153
  100
AcDbEntity
  8
1
  100
AcDbLine
  10
78.9
  20
3.829578
  30
0
  11
79
  21
3.826353
  31
0
  0
LINE
  5
154
  100
AcDbEntity
  8
1
  100
AcDbLine
  10
79
  20
3.826353
  30
0
  11
79.1
  21
3.823128
  31
0
  0
LINE
  5
155
  100
AcDbEntity
  8
1
  100
AcDbLine
  10
79.1
  20
3.823128
  30
0
  11
79.2
  21
3.819904
  31
0
  0
LINE
  5
156
  100
AcDbEntity
  8
1
  100
AcDbLine
  10
79.2
  20
3.819904
  30
0
  11
79.3
  21
3.816679
  31
0
  0
LINE
  5
157
  100
AcDbEntity
  8
1
  100
AcDbLine
  10
79.3
  20
3.816679
  30
0
  11
79.4
  21
3.813453
  31
0
  0
LINE
  5
158
  100
AcDbEntity
  8
1
  100
AcDbLine
  10
79.4
  20
3.813453
  30
0
  11
79.5
  21
3.810228
  31
0
  0
LINE
  5
159
  100
AcDbEntity
  8
1
  100
AcDbLine
  10
79.5
  20
3.810228
  30
0
  11
79.6
  21
3.807002
  31
0
  0
LINE
  5
15a
  100
AcDbEntity
  8
1
  100
AcDbLine
  10
79.6
  20
3.807002
  30
0
  11
79.7
  21
3.803776
  31
0
  0
LINE
  5
15b
  100
AcDbEntity
  8
1
  100
AcDbLine
  10
79.7
  20
3.803776
  30
0
  11
79.8
  21
3.80055
  31
0
  0
LINE
  5
15c
  100
AcDbEntity
  8
1
  100
AcDbLine
  10
79.8
  20
3.80055
  30
0
  11
79.9
  21
3.797324
  31
0
  0
LINE
  5
15d
  100
AcDbEntity
  8
1
  100
AcDbLine
  10
79.9
  20
3.797324
  30
0
  11
80
  21
3.794098
  31
0
  0
LINE
  5
15e
  100
AcDbEntity
  8
1
  100
AcDbLine
  10
80
  20
3.8855
  30
0
  11
80
  21
-3.8855
  31
0
  0
LINE
  5
15f
  100
AcDbEntity
  8
1
  100
AcDbLine
  10
80
  20
-3.883013
  30
0
  11
79.9
  21
-3.886112
  31
0
  0
LINE
  5
160
  100
AcDbEntity
  8
1
  100
AcDbLine
  10
79.9
  20
-3.886112
  30
0
  11
79.8
  21
-3.889212
  31
0
  0
LINE
  5
161
  100
AcDbEntity
  8
1
  100
AcDbLine
  10
79.8
  20
-3.889212
  30
0
  11
79.7
  21
-3.892311
  31
0
  0
LINE
  5
162
  100
AcDbEntity
  8
1
  100
AcDbLine
  10
79.7
  20
-3.892311
  30
0
  11
79.6
  21
-3.89541
  31
0
  0
LINE
  5
163
  100
AcDbEntity
  8
1
  100
AcDbLine
  10
79.6
  20
-3.89541
  30
0
  11
79.5
  21
-3.898509
  31
0
  0
LINE
  5
164
  100
AcDbEntity
  8
1
  100
AcDbLine
  10
79.5
  20
-3.898509
  30
0
  11
79.4
  21
-3.901609
  31
0
  0
LINE
  5
165
  100
AcDbEntity
  8
1
  100
AcDbLine
  10
79.4
  20
-3.901609
  30
0
  11
79.3
  21
-3.904708
  31
0
  0
LINE
  5
166
  100
AcDbEntity
  8
1
  100
AcDbLine
  10
79.3
  20
-3.904708
  30
0
  11
79.2
  21
-3.907807
  31
0
  0
LINE
  5
167
  100
AcDbEntity
  8
1
  100
AcDbLine
  10
79.2
  20
-3.907807
  30
0
  11
79.1
  21
-3.910906
  31
0
  0
LINE
  5
168
  100
AcDbEntity
  8
1
  100
AcDbLine
  10
79.1
  20
-3.910906
  30
0
  11
79
  21
-3.914005
  31
0
  0
LINE
  5
169
  100
AcDbEntity
  8
1
  100
AcDbLine
  10
79
  20
-3.914005
  30
0
  11
78.9
  21
-3.917104
  31
0
  0
LINE
  5
16a
  100
AcDbEntity
  8
1
  100
AcDbLine
  10
78.9
  20
-3.917104
  30
0
  11
78.8
  21
-3.920203
  31
0
  0
LINE
  5
16b
  100
AcDbEntity
  8
1
  100
AcDbLine
  10
78.8
  20
-3.920203
  30
0
  11
78.7
  21
-3.923302
  31
0
  0
LINE
  5
16c
  100
AcDbEntity
  8
1
  100
AcDbLine
  10
78.7
  20
-3.923302
  30
0
  11
78.6
  21
-3.926401
  31
0
  0
LINE
  5
16d
  100
AcDbEntity
  8
1
  100
AcDbLine
  10
78.6
  20
-3.926401
  30
0
  11
78.5
  21
-3.9295
  31
0
  0
LINE
  5
16e
  100
AcDbEntity
  8
1
  100
AcDbLine
  10
78.5
  20
-3.9295
  30
0
  11
78.4
  21
-3.932599
  31
0
  0
LINE
  5
16f
  100
AcDbEntity
  8
1
  100
AcDbLine
  10
78.4
  20
-3.932599
  30
0
  11
78.3
  21
-3.935698
  31
0
  0
LINE
  5
170
  100
AcDbEntity
  8
1
  100
AcDbLine
  10
78.3
  20
-3.935698
  30
0
  11
78.2
  21
-3.938797
  31
0
  0
LINE
  5
171
  100
AcDbEntity
  8
1
  100
AcDbLine
  10
78.2
  20
-3.938797
  30
0
  11
78.1
  21
-3.941895
  31
0
  0
LINE
  5
172
  100
AcDbEntity
  8
1
  100
AcDbLine
  10
78.1
  20
-3.941895
  30
0
  11
78
  21
-3.944994
  31
0
  0
LINE
  5
173
  100
AcDbEntity
  8
1
  100
AcDbLine
  10
78
  20
-3.944994
  30
0
  11
77.9
  21
-3.948093
  31
0
  0
LINE
  5
174
  100
AcDbEntity
  8
1
  100
AcDbLine
  10
77.9
  20
-3.948093
  30
0
  11
77.8
  21
-3.951192
  31
0
  0
LINE
  5
175
  100
AcDbEntity
  8
1
  100
AcDbLine
  10
77.8
  20
-3.951192
  30
0
  11
77.7
  21
-3.954291
  31
0
  0
LINE
  5
176
  100
AcDbEntity
  8
1
  100
AcDbLine
  10
77.7
  20
-3.954291
  30
0
  11
77.6
  21
-3.957389
  31
0
  0
LINE
  5
177
  100
AcDbEntity
  8
1
  100
AcDbLine
  10
77.6
  20
-3.957389
  30
0
  11
77.5
  21
-3.960488
  31
0
  0
LINE
  5
178
  100
AcDbEntity
  8
1
  100
AcDbLine
  10
77.5
  20
-3.960488
  30
0
  11
77.4
  21
-3.963587
  31
0
  0
LINE
  5
179
  100
AcDbEntity
  8
1
  100
AcDbLine
  10
77.4
  20
-3.963587
  30
0
  11
77.3
  21
-3.966685
  31
0
  0
LINE
  5
17a
  100
AcDbEntity
  8
1
  100
AcDbLine
  10
77.3
  20
-3.966685
  30
0
  11
77.2
  21
-3.969784
  31
0
  0
LINE
  5
17b
  100
AcDbEntity
  8
1
  100
AcDbLine
  10
77.2
  20
-3.969784
  30
0
  11
77.1
  21
-3.972882
  31
0
  0
LINE
  5
17c
  100
AcDbEntity
  8
1
  100
AcDbLine
  10
77.1
  20
-3.972882
  30
0
  11
77
  21
-3.975981
  31
0
  0
LINE
  5
17d
  100
AcDbEntity
  8
1
  100
AcDbLine
  10
77
  20
-3.975981
  30
0
  11
76.9
  21
-3.97908
  31
0
  0
LINE
  5
17e
  100
AcDbEntity
  8
1
  100
AcDbLine
  10
76.9
  20
-3.97908
  30
0
  11
76.8
  21
-3.982178
  31
0
  0
LINE
  5
17f
  100
AcDbEntity
  8
1
  100
AcDbLine
  10
76.8
  20
-3.982178
  30
0
  11
76.7
  21
-3.985277
  31
0
  0
LINE
  5
180
  100
AcDbEntity
  8
1
  100
AcDbLine
  10
76.7
  20
-3.985277
  30
0
  11
76.6
  21
-3.988375
  31
0
  0
LINE
  5
181
  100
AcDbEntity
  8
1
  100
AcDbLine
  10
76.6
  20
-3.988375
  30
0
  11
76.5
  21
-3.991473
  31
0
  0
LINE
  5
182
  100
AcDbEntity
  8
1
  100
AcDbLine
  10
76.5
  20
-3.991473
  30
0
  11
76.4
  21
-3.994572
  31
0
  0
LINE
  5
183
  100
AcDbEntity
  8
1
  100
AcDbLine
  10
76.4
  20
-3.994572
  30
0
  11
76.3
  21
-3.99767
  31
0
  0
LINE
  5
184
  100
AcDbEntity
  8
1
  100
AcDbLine
  10
76.3
  20
-3.99767
  30
0
  11
76.2
  21
-4.000769
  31
0
  0
LINE
  5
185
  100
AcDbEntity
  8
1
  100
AcDbLine
  10
76.2
  20
-4.000769
  30
0
  11
76.1
  21
-4.003867
  31
0
  0
LINE
  5
186
  100
AcDbEntity
  8
1
  100
AcDbLine
  10
76.1
  20
-4.003867
  30
0
  11
76
  21
-4.006965
  31
0
  0
LINE
  5
187
  100
AcDbEntity
  8
1
  100
AcDbLine
  10
76
  20
-4.006965
  30
0
  11
75.9
  21
-3.140078
  31
0
  0
LINE
  5
188
  100
AcDbEntity
  8
1
  100
AcDbLine
  10
75.9
  20
-3.140078
  30
0
  11
75.8
  21
-3.14318
  31
0
  0
LINE
  5
189
  100
AcDbEntity
  8
1
  100
AcDbLine
  10
75.8
  20
-3.14318
  30
0
  11
75.7
  21
-3.146277
  31
0
  0
LINE
  5
18a
  100
AcDbEntity
  8
1
  100
AcDbLine
  10
75.7
  20
-3.146277
  30
0
  11
75.6
  21
-3.149369
  31
0
  0
LINE
  5
18b
  100
AcDbEntity
  8
1
  100
AcDbLine
  10
75.6
  20
-3.149369
  30
0
  11
75.5
  21
-3.152454
  31
0
  0
LINE
  5
18c
  100
AcDbEntity
  8
1
  100
AcDbLine
  10
75.5
  20
-3.152454
  30
0
  11
75.4
  21
-3.155532
  31
0
  0
LINE
  5
18d
  100
AcDbEntity
  8
1
  100
AcDbLine
  10
75.4
  20
-3.155532
  30
0
  11
75.3
  21
-3.158602
  31
0
  0
LINE
  5
18e
  100
AcDbEntity
  8
1
  100
AcDbLine
  10
75.3
  20
-3.158602
  30
0
  11
75.2
  21
-3.161663
  31
0
  0
LINE
  5
18f
  100
AcDbEntity
  8
1
  100
AcDbLine
  10
75.2
  20
-3.161663
  30
0
  11
75.1
  21
-3.164713
  31
0
  0
LINE
  5
190
  100
AcDbEntity
  8
1
  100
AcDbLine
  10
75.1
  20
-3.164713
  30
0
  11
75
  21
-3.167751
  31
0
  0
LINE
  5
191
  100
AcDbEntity
  8
1
  100
AcDbLine
  10
75
  20
-3.167751
  30
0
  11
74.9
  21
-3.170776
  31
0
  0
LINE
  5
192
  100
AcDbEntity
  8
1
  100
AcDbLine
  10
74.9
  20
-3.170776
  30
0
  11
74.8
  21
-3.173786
  31
0
  0
LINE
  5
193
  100
AcDbEntity
  8
1
  100
AcDbLine
  10
74.8
  20
-3.173786
  30
0
  11
74.7
  21
-3.176778
  31
0
  0
LINE
  5
194
  100
AcDbEntity
  8
1
  100
AcDbLine
  10
74.7
  20
-3.176778
  30
0
  11
74.6
  21
-3.179751
  31
0
  0
LINE
  5
195
  100
AcDbEntity
  8
1
  100
AcDbLine
  10
74.6
  20
-3.179751
  30
0
  11
74.5
  21
-3.182703
  31
0
  0
LINE
  5
196
  100
AcDbEntity
  8
1
  100
AcDbLine
  10
74.5
  20
-3.182703
  30
0
  11
74.4
  21
-3.185631
  31
0
  0
LINE
  5
197
  100
AcDbEntity
  8
1
  100
AcDbLine
  10
74.4
  20
-3.185631
  30
0
  11
74.3
  21
-3.188532
  31
0
  0
LINE
  5
198
  100
AcDbEntity
  8
1
  100
AcDbLine
  10
74.3
  20
-3.188532
  30
0
  11
74.2
  21
-3.191405
  31
0
  0
LINE
  5
199
  100
AcDbEntity
  8
1
  100
AcDbLine
  10
74.2
  20
-3.191405
  30
0
  11
74.1
  21
-3.194246
  31
0
  0
LINE
  5
19a
  100
AcDbEntity
  8
1
  100
AcDbLine
  10
74.1
  20
-3.194246
  30
0
  11
74
  21
-3.197053
  31
0
  0
LINE
  5
19b
  100
AcDbEntity
  8
1
  100
AcDbLine
  10
74
  20
-3.197053
  30
0
  11
73.9
  21
-3.199822
  31
0
  0
LINE
  5
19c
  100
AcDbEntity
  8
1
  100
AcDbLine
  10
73.9
  20
-3.199822
  30
0
  11
73.8
  21
-3.202551
  31
0
  0
LINE
  5
19d
  100
AcDbEntity
  8
1
  100
AcDbLine
  10
73.8
  20
-3.202551
  30
0
  11
73.7
  21
-3.205235
  31
0
  0
LINE
  5
19e
  100
AcDbEntity
  8
1
  100
AcDbLine
  10
73.7
  20
-3.205235
  30
0
  11
73.6
  21
-3.207873
  31
0
  0
LINE
  5
19f
  100
AcDbEntity
  8
1
  100
AcDbLine
  10
73.6
  20
-3.207873
  30
0
  11
73.5
  21
-3.210459
  31
0
  0
LINE
  5
1a0
  100
AcDbEntity
  8
1
  100
AcDbLine
  10
73.5
  20
-3.210459
  30
0
  11
73.4
  21
-3.212992
  31
0
  0
LINE
  5
1a1
  100
AcDbEntity
  8
1
  100
AcDbLine
  10
73.4
  20
-3.212992
  30
0
  11
73.3
  21
-3.215466
  31
0
  0
LINE
  5
1a2
  100
AcDbEntity
  8
1
  100
AcDbLine
  10
73.3
  20
-3.215466
  30
0
  11
73.2
  21
-3.217878
  31
0
  0
LINE
  5
1a3
  100
AcDbEntity
  8
1
  100
AcDbLine
  10
73.2
  20
-3.217878
  30
0
  11
73.1
  21
-3.220225
  31
0
  0
LINE
  5
1a4
  100
AcDbEntity
  8
1
  100
AcDbLine
  10
73.1
  20
-3.220225
  30
0
  11
73
  21
-3.222501
  31
0
  0
LINE
  5
1a5
  100
AcDbEntity
  8
1
  100
AcDbLine
  10
73
  20
-3.222501
  30
0
  11
72.9
  21
-3.224704
  31
0
  0
LINE
  5
1a6
  100
AcDbEntity
  8
1
  100
AcDbLine
  10
72.9
  20
-3.224704
  30
0
  11
72.8
  21
-3.226828
  31
0
  0
LINE
  5
1a7
  100
AcDbEntity
  8
1
  100
AcDbLine
  10
72.8
  20
-3.226828
  30
0
  11
72.7
  21
-3.22887
  31
0
  0
LINE
  5
1a8
  100
AcDbEntity
  8
1
  100
AcDbLine
  10
72.7
  20
-3.22887
  30
0
  11
72.6
  21
-3.230825
  31
0
  0
LINE
  5
1a9
  100
AcDbEntity
  8
1
  100
AcDbLine
  10
72.6
  20
-3.230825
  30
0
  11
72.5
  21
-3.232689
  31
0
  0
LINE
  5
1aa
  100
AcDbEntity
  8
1
  100
AcDbLine
  10
72.5
  20
-3.232689
  30
0
  11
72.4
  21
-3.234458
  31
0
  0
LINE
  5
1ab
  100
AcDbEntity
  8
1
  100
AcDbLine
  10
72.4
  20
-3.234458
  30
0
  11
72.3
  21
-3.236126
  31
0
  0
LINE
  5
1ac
  100
AcDbEntity
  8
1
  100
AcDbLine
  10
72.3
  20
-3.236126
  30
0
  11
72.2
  21
-3.237689
  31
0
  0
LINE
  5
1ad
  100
AcDbEntity
  8
1
  100
AcDbLine
  10
72.2
  20
-3.237689
  30
0
  11
72.1
  21
-3.239142
  31
0
  0
LINE
  5
1ae
  100
AcDbEntity
  8
1
  100
AcDbLine
  10
72.1
  20
-3.239142
  30
0
  11
72
  21
-3.240482
  31
0
  0
LINE
  5
1af
  100
AcDbEntity
  8
1
  100
AcDbLine
  10
72
  20
-3.240482
  30
0
  11
71.9
  21
-3.241702
  31
0
  0
LINE
  5
1b0
  100
AcDbEntity
  8
1
  100
AcDbLine
  10
71.9
  20
-3.241702
  30
0
  11
71.8
  21
-3.242799
  31
0
  0
LINE
  5
1b1
  100
AcDbEntity
  8
1
  100
AcDbLine
  10
71.8
  20
-3.242799
  30
0
  11
71.7
  21
-3.243767
  31
0
  0
LINE
  5
1b2
  100
AcDbEntity
  8
1
  100
AcDbLine
  10
71.7
  20
-3.243767
  30
0
  11
71.6
  21
-3.244602
  31
0
  0
LINE
  5
1b3
  100
AcDbEntity
  8
1
  100
AcDbLine
  10
71.6
  20
-3.244602
  30
0
  11
71.5
  21
-3.245299
  31
0
  0
LINE
  5
1b4
  100
AcDbEntity
  8
1
  100
AcDbLine
  10
71.5
  20
-3.245299
  30
0
  11
71.4
  21
-3.245853
  31
0
  0
LINE
  5
1b5
  100
AcDbEntity
  8
1
  100
AcDbLine
  10
71.4
  20
-3.245853
  30
0
  11
71.3
  21
-3.246259
  31
0
  0
LINE
  5
1b6
  100
AcDbEntity
  8
1
  100
AcDbLine
  10
71.3
  20
-3.246259
  30
0
  11
71.2
  21
-3.246513
  31
0
  0
LINE
  5
1b7
  100
AcDbEntity
  8
1
  100
AcDbLine
  10
71.2
  20
-3.246513
  30
0
  11
71.1
  21
-3.24661
  31
0
  0
LINE
  5
1b8
  100
AcDbEntity
  8
1
  100
AcDbLine
  10
71.1
  20
-3.24661
  30
0
  11
71
  21
-3.246544
  31
0
  0
LINE
  5
1b9
  100
AcDbEntity
  8
1
  100
AcDbLine
  10
71
  20
-3.246544
  30
0
  11
70.9
  21
-3.246312
  31
0
  0
LINE
  5
1ba
  100
AcDbEntity
  8
1
  100
AcDbLine
  10
70.9
  20
-3.246312
  30
0
  11
70.8
  21
-3.245909
  31
0
  0
LINE
  5
1bb
  100
AcDbEntity
  8
1
  100
AcDbLine
  10
70.8
  20
-3.245909
  30
0
  11
70.7
  21
-3.245329
  31
0
  0
LINE
  5
1bc
  100
AcDbEntity
  8
1
  100
AcDbLine
  10
70.7
  20
-3.245329
  30
0
  11
70.6
  21
-3.244569
  31
0
  0
LINE
  5
1bd
  100
AcDbEntity
  8
1
  100
AcDbLine
  10
70.6
  20
-3.244569
  30
0
  11
70.5
  21
-3.243624
  31
0
  0
LINE
  5
1be
  100
AcDbEntity
  8
1
  100
AcDbLine
  10
70.5
  20
-3.243624
  30
0
  11
70.4
  21
-3.24249
  31
0
  0
LINE
  5
1bf
  100
AcDbEntity
  8
1
  100
AcDbLine
  10
70.4
  20
-3.24249
  30
0
  11
70.3
  21
-3.241161
  31
0
  0
LINE
  5
1c0
  100
AcDbEntity
  8
1
  100
AcDbLine
  10
70.3
  20
-3.241161
  30
0
  11
70.2
  21
-3.239634
  31
0
  0
LINE
  5
1c1
  100
AcDbEntity
  8
1
  100
AcDbLine
  10
70.2
  20
-3.239634
  30
0
  11
70.1
  21
-3.237905
  31
0
  0
LINE
  5
1c2
  100
AcDbEntity
  8
1
  100
AcDbLine
  10
70.1
  20
-3.237905
  30
0
  11
70
  21
-3.235969
  31
0
  0
LINE
  5
1c3
  100
AcDbEntity
  8
1
  100
AcDbLine
  10
70
  20
-3.235969
  30
0
  11
69.9
  21
-3.233823
  31
0
  0
LINE
  5
1c4
  100
AcDbEntity
  8
1
  100
AcDbLine
  10
69.9
  20
-3.233823
  30
0
  11
69.8
  21
-3.231462
  31
0
  0
LINE
  5
1c5
  100
AcDbEntity
  8
1
  100
AcDbLine
  10
69.8
  20
-3.231462
  30
0
  11
69.7
  21
-3.228883
  31
0
  0
LINE
  5
1c6
  100
AcDbEntity
  8
1
  100
AcDbLine
  10
69.7
  20
-3.228883
  30
0
  11
69.6
  21
-3.226082
  31
0
  0
LINE
  5
1c7
  100
AcDbEntity
  8
1
  100
AcDbLine
  10
69.6
  20
-3.226082
  30
0
  11
69.5
  21
-3.223055
  31
0
  0
LINE
  5
1c8
  100
AcDbEntity
  8
1
  100
AcDbLine
  10
69.5
  20
-3.223055
  30
0
  11
69.4
  21
-3.2198
  31
0
  0
LINE
  5
1c9
  100
AcDbEntity
  8
1
  100
AcDbLine
  10
69.4
  20
-3.2198
  30
0
  11
69.3
  21
-3.216313
  31
0
  0
LINE
  5
1ca
  100
AcDbEntity
  8
1
  100
AcDbLine
  10
69.3
  20
-3.216313
  30
0
  11
69.2
  21
-3.21259
  31
0
  0
LINE
  5
1cb
  100
AcDbEntity
  8
1
  100
AcDbLine
  10
69.2
  20
-3.21259
  30
0
  11
69.1
  21
-3.208629
  31
0
  0
LINE
  5
1cc
  100
AcDbEntity
  8
1
  100
AcDbLine
  10
69.1
  20
-3.208629
  30
0
  11
69
  21
-3.204428
  31
0
  0
LINE
  5
1cd
  100
AcDbEntity
  8
1
  100
AcDbLine
  10
69
  20
-3.204428
  30
0
  11
68.9
  21
-3.199982
  31
0
  0
LINE
  5
1ce
  100
AcDbEntity
  8
1
  100
AcDbLine
  10
68.9
  20
-3.199982
  30
0
  11
68.8
  21
-3.195291
  31
0
  0
LINE
  5
1cf
  100
AcDbEntity
  8
1
  100
AcDbLine
  10
68.8
  20
-3.195291
  30
0
  11
68.7
  21
-3.190351
  31
0
  0
LINE
  5
1d0
  100
AcDbEntity
  8
1
  100
AcDbLine
  10
68.7
  20
-3.190351
  30
0
  11
68.6
  21
-3.185161
  31
0
  0
LINE
  5
1d1
  100
AcDbEntity
  8
1
  100
AcDbLine
  10
68.6
  20
-3.185161
  30
0
  11
68.5
  21
-3.179718
  31
0
  0
LINE
  5
1d2
  100
AcDbEntity
  8
1
  100
AcDbLine
  10
68.5
  20
-3.179718
  30
0
  11
68.4
  21
-3.174022
  31
0
  0
LINE
  5
1d3
  100
AcDbEntity
  8
1
  100
AcDbLine
  10
68.4
  20
-3.174022
  30
0
  11
68.3
  21
-3.168069
  31
0
  0
LINE
  5
1d4
  100
AcDbEntity
  8
1
  100
AcDbLine
  10
68.3
  20
-3.168069
  30
0
  11
68.2
  21
-3.16186
  31
0
  0
LINE
  5
1d5
  100
AcDbEntity
  8
1
  100
AcDbLine
  10
68.2
  20
-3.16186
  30
0
  11
68.1
  21
-3.155393
  31
0
  0
LINE
  5
1d6
  100
AcDbEntity
  8
1
  100
AcDbLine
  10
68.1
  20
-3.155393
  30
0
  11
68
  21
-3.148666
  31
0
  0
LINE
  5
1d7
  100
AcDbEntity
  8
1
  100
AcDbLine
  10
68
  20
-3.148666
  30
0
  11
67.9
  21
-3.14168
  31
0
  0
LINE
  5
1d8
  100
AcDbEntity
  8
1
  100
AcDbLine
  10
67.9
  20
-3.14168
  30
0
  11
67.8
  21
-3.134434
  31
0
  0
LINE
  5
1d9
  100
AcDbEntity
  8
1
  100
AcDbLine
  10
67.8
  20
-3.134434
  30
0
  11
67.7
  21
-3.126927
  31
0
  0
LINE
  5
1da
  100
AcDbEntity
  8
1
  100
AcDbLine
  10
67.7
  20
-3.126927
  30
0
  11
67.6
  21
-3.11916
  31
0
  0
LINE
  5
1db
  100
AcDbEntity
  8
1
  100
AcDbLine
  10
67.6
  20
-3.11916
  30
0
  11
67.5
  21
-3.111133
  31
0
  0
LINE
  5
1dc
  100
AcDbEntity
  8
1
  100
AcDbLine
  10
67.5
  20
-3.111133
  30
0
  11
67.4
  21
-3.102845
  31
0
  0
LINE
  5
1dd
  100
AcDbEntity
  8
1
  100
AcDbLine
  10
67.4
  20
-3.102845
  30
0
  11
67.3
  21
-3.094299
  31
0
  0
LINE
  5
1de
  100
AcDbEntity
  8
1
  100
AcDbLine
  10
67.3
  20
-3.094299
  30
0
  11
67.2
  21
-3.085494
  31
0
  0
LINE
  5
1df
  100
AcDbEntity
  8
1
  100
AcDbLine
  10
67.2
  20
-3.085494
  30
0
  11
67.1
  21
-3.076431
  31
0
  0
LINE
  5
1e0
  100
AcDbEntity
  8
1
  100
AcDbLine
  10
67.1
  20
-3.076431
  30
0
  11
67
  21
-3.067113
  31
0
  0
LINE
  5
1e1
  100
AcDbEntity
  8
1
  100
AcDbLine
  10
67
  20
-3.067113
  30
0
  11
66.9
  21
-3.05754
  31
0
  0
LINE
  5
1e2
  100
AcDbEntity
  8
1
  100
AcDbLine
  10
66.9
  20
-3.05754
  30
0
  11
66.8
  21
-3.047714
  31
0
  0
LINE
  5
1e3
  100
AcDbEntity
  8
1
  100
AcDbLine
  10
66.8
  20
-3.047714
  30
0
  11
66.7
  21
-3.037638
  31
0
  0
LINE
  5
1e4
  100
AcDbEntity
  8
1
  100
AcDbLine
  10
66.7
  20
-3.037638
  30
0
  11
66.6
  21
-3.027314
  31
0
  0
LINE
  5
1e5
  100
AcDbEntity
  8
1
  100
AcDbLine
  10
66.6
  20
-3.027314
  30
0
  11
66.5
  21
-3.016744
  31
0
  0
LINE
  5
1e6
  100
AcDbEntity
  8
1
  100
AcDbLine
  10
66.5
  20
-3.016744
  30
0
  11
66.4
  21
-3.00593
  31
0
  0
LINE
  5
1e7
  100
AcDbEntity
  8
1
  100
AcDbLine
  10
66.4
  20
-3.00593
  30
0
  11
66.3
  21
-2.994877
  31
0
  0
LINE
  5
1e8
  100
AcDbEntity
  8
1
  100
AcDbLine
  10
66.3
  20
-2.994877
  30
0
  11
66.2
  21
-2.983586
  31
0
  0
LINE
  5
1e9
  100
AcDbEntity
  8
1
  100
AcDbLine
  10
66.2
  20
-2.983586
  30
0
  11
66.1
  21
-2.972062
  31
0
  0
LINE
  5
1ea
  100
AcDbEntity
  8
1
  100
AcDbLine
  10
66.1
  20
-2.972062
  30
0
  11
66
  21
-2.960309
  31
0
  0
LINE
  5
1eb
  100
AcDbEntity
  8
1
  100
AcDbLine
  10
66
  20
-2.960309
  30
0
  11
66
  21
-2.962395
  31
0
  0
LINE
  5
1ec
  100
AcDbEntity
  8
1
  100
AcDbLine
  10
66
  20
-2.962395
  30
0
  11
66.1
  21
-2.938365
  31
0
  0
LINE
  5
1ed
  100
AcDbEntity
  8
1
  100
AcDbLine
  10
66.1
  20
-2.938365
  30
0
  11
66.2
  21
-2.913959
  31
0
  0
LINE
  5
1ee
  100
AcDbEntity
  8
1
  100
AcDbLine
  10
66.2
  20
-2.913959
  30
0
  11
66.3
  21
-2.889186
  31
0
  0
LINE
  5
1ef
  100
AcDbEntity
  8
1
  100
AcDbLine
  10
66.3
  20
-2.889186
  30
0
  11
66.4
  21
-2.864057
  31
0
  0
LINE
  5
1f0
  100
AcDbEntity
  8
1
  100
AcDbLine
  10
66.4
  20
-2.864057
  30
0
  11
66.5
  21
-2.838584
  31
0
  0
LINE
  5
1f1
  100
AcDbEntity
  8
1
  100
AcDbLine
  10
66.5
  20
-2.838584
  30
0
  11
66.6
  21
-2.812777
  31
0
  0
LINE
  5
1f2
  100
AcDbEntity
  8
1
  100
AcDbLine
  10
66.6
  20
-2.812777
  30
0
  11
66.7
  21
-2.78665
  31
0
  0
LINE
  5
1f3
  100
AcDbEntity
  8
1
  100
AcDbLine
  10
66.7
  20
-2.78665
  30
0
  11
66.8
  21
-2.760214
  31
0
  0
LINE
  5
1f4
  100
AcDbEntity
  8
1
  100
AcDbLine
  10
66.8
  20
-2.760214
  30
0
  11
66.9
  21
-2.733481
  31
0
  0
LINE
  5
1f5
  100
AcDbEntity
  8
1
  100
AcDbLine
  10
66.9
  20
-2.733481
  30
0
  11
67
  21
-2.706466
  31
0
  0
LINE
  5
1f6
  100
AcDbEntity
  8
1
  100
AcDbLine
  10
67
  20
-2.706466
  30
0
  11
67.1
  21
-2.679181
  31
0
  0
LINE
  5
1f7
  100
AcDbEntity
  8
1
  100
AcDbLine
  10
67.1
  20
-2.679181
  30
0
  11
67.2
  21
-2.65164
  31
0
  0
LINE
  5
1f8
  100
AcDbEntity
  8
1
  100
AcDbLine
  10
67.2
  20
-2.65164
  30
0
  11
67.3
  21
-2.623857
  31
0
  0
LINE
  5
1f9
  100
AcDbEntity
  8
1
  100
AcDbLine
  10
67.3
  20
-2.623857
  30
0
  11
67.4
  21
-2.595846
  31
0
  0
LINE
  5
1fa
  100
AcDbEntity
  8
1
  100
AcDbLine
  10
67.4
  20
-2.595846
  30
0
  11
67.5
  21
-2.567622
  31
0
  0
LINE
  5
1fb
  100
AcDbEntity
  8
1
  100
AcDbLine
  10
67.5
  20
-2.567622
  30
0
  11
67.6
  21
-2.539199
  31
0
  0
LINE
  5
1fc
  100
AcDbEntity
  8
1
  100
AcDbLine
  10
67.6
  20
-2.539199
  30
0
  11
67.7
  21
-2.510593
  31
0
  0
LINE
  5
1fd
  100
AcDbEntity
  8
1
  100
AcDbLine
  10
67.7
  20
-2.510593
  30
0
  11
67.8
  21
-2.481819
  31
0
  0
LINE
  5
1fe
  100
AcDbEntity
  8
1
  100
AcDbLine
  10
67.8
  20
-2.481819
  30
0
  11
67.9
  21
-2.452892
  31
0
  0
LINE
  5
1ff
  100
AcDbEntity
  8
1
  100
AcDbLine
  10
67.9
  20
-2.452892
  30
0
  11
68
  21
-2.423828
  31
0
  0
LINE
  5
200
  100
AcDbEntity
  8
1
  100
AcDbLine
  10
68
  20
-2.423828
  30
0
  11
68.1
  21
-2.394641
  31
0
  0
LINE
  5
201
  100
AcDbEntity
  8
1
  100
AcDbLine
  10
68.1
  20
-2.394641
  30
0
  11
68.2
  21
-2.365349
  31
0
  0
LINE
  5
202
  100
AcDbEntity
  8
1
  100
AcDbLine
  10
68.2
  20
-2.365349
  30
0
  11
68.3
  21
-2.335968
  31
0
  0
LINE
  5
203
  100
AcDbEntity
  8
1
  100
AcDbLine
  10
68.3
  20
-2.335968
  30
0
  11
68.4
  21
-2.306512
  31
0
  0
LINE
  5
204
  100
AcDbEntity
  8
1
  100
AcDbLine
  10
68.4
  20
-2.306512
  30
0
  11
68.5
  21
-2.276999
  31
0
  0
LINE
  5
205
  100
AcDbEntity
  8
1
  100
AcDbLine
  10
68.5
  20
-2.276999
  30
0
  11
68.6
  21
-2.247444
  31
0
  0
LINE
  5
206
  100
AcDbEntity
  8
1
  100
AcDbLine
  10
68.6
  20
-2.247444
  30
0
  11
68.7
  21
-2.217863
  31
0
  0
LINE
  5
207
  100
AcDbEntity
  8
1
  100
AcDbLine
  10
68.7
  20
-2.217863
  30
0
  11
68.8
  21
-2.188274
  31
0
  0
LINE
  5
208
  100
AcDbEntity
  8
1
  100
AcDbLine
  10
68.8
  20
-2.188274
  30
0
  11
68.9
  21
-2.158692
  31
0
  0
LINE
  5
209
  100
AcDbEntity
  8
1
  100
AcDbLine
  10
68.9
  20
-2.158692
  30
0
  11
69
  21
-2.129133
  31
0
  0
LINE
  5
20a
  100
AcDbEntity
  8
1
  100
AcDbLine
  10
69
  20
-2.129133
  30
0
  11
69.1
  21
-2.099613
  31
0
  0
LINE
  5
20b
  100
AcDbEntity
  8
1
  100
AcDbLine
  10
69.1
  20
-2.099613
  30
0
  11
69.2
  21
-2.070149
  31
0
  0
LINE
  5
20c
  100
AcDbEntity
  8
1
  100
AcDbLine
  10
69.2
  20
-2.070149
  30
0
  11
69.3
  21
-2.040757
  31
0
  0
LINE
  5
20d
  100
AcDbEntity
  8
1
  100
AcDbLine
  10
69.3
  20
-2.040757
  30
0
  11
69.4
  21
-2.011453
  31
0
  0
LINE
  5
20e
  100
AcDbEntity
  8
1
  100
AcDbLine
  10
69.4
  20
-2.011453
  30
0
  11
69.5
  21
-1.982252
  31
0
  0
LINE
  5
20f
  100
AcDbEntity
  8
1
  100
AcDbLine
  10
69.5
  20
-1.982252
  30
0
  11
69.6
  21
-1.95317
  31
0
  0
LINE
  5
210
  100
AcDbEntity
  8
1
  100
AcDbLine
  10
69.6
  20
-1.95317
  30
0
  11
69.7
  21
-1.924224
  31
0
  0
LINE
  5
211
  100
AcDbEntity
  8
1
  100
AcDbLine
  10
69.7
  20
-1.924224
  30
0
  11
69.8
  21
-1.895428
  31
0
  0
LINE
  5
212
  100
AcDbEntity
  8
1
  100
AcDbLine
  10
69.8
  20
-1.895428
  30
0
  11
69.9
  21
-1.866798
  31
0
  0
LINE
  5
213
  100
AcDbEntity
  8
1
  100
AcDbLine
  10
69.9
  20
-1.866798
  30
0
  11
70
  21
-1.838348
  31
0
  0
LINE
  5
214
  100
AcDbEntity
  8
1
  100
AcDbLine
  10
70
  20
-1.838348
  30
0
  11
70.1
  21
-1.810095
  31
0
  0
LINE
  5
215
  100
AcDbEntity
  8
1
  100
AcDbLine
  10
70.1
  20
-1.810095
  30
0
  11
70.2
  21
-1.782053
  31
0
  0
LINE
  5
216
  100
AcDbEntity
  8
1
  100
AcDbLine
  10
70.2
  20
-1.782053
  30
0
  11
70.3
  21
-1.754236
  31
0
  0
LINE
  5
217
  100
AcDbEntity
  8
1
  100
AcDbLine
  10
70.3
  20
-1.754236
  30
0
  11
70.4
  21
-1.726659
  31
0
  0
LINE
  5
218
  100
AcDbEntity
  8
1
  100
AcDbLine
  10
70.4
  20
-1.726659
  30
0
  11
70.5
  21
-1.699337
  31
0
  0
LINE
  5
219
  100
AcDbEntity
  8
1
  100
AcDbLine
  10
70.5
  20
-1.699337
  30
0
  11
70.6
  21
-1.672282
  31
0
  0
LINE
  5
21a
  100
AcDbEntity
  8
1
  100
AcDbLine
  10
70.6
  20
-1.672282
  30
0
  11
70.7
  21
-1.645508
  31
0
  0
LINE
  5
21b
  100
AcDbEntity
  8
1
  100
AcDbLine
  10
70.7
  20
-1.645508
  30
0
  11
70.8
  21
-1.61903
  31
0
  0
LINE
  5
21c
  100
AcDbEntity
  8
1
  100
AcDbLine
  10
70.8
  20
-1.61903
  30
0
  11
70.9
  21
-1.59286
  31
0
  0
LINE
  5
21d
  100
AcDbEntity
  8
1
  100
AcDbLine
  10
70.9
  20
-1.59286
  30
0
  11
71
  21
-1.567011
  31
0
  0
LINE
  5
21e
  100
AcDbEntity
  8
1
  100
AcDbLine
  10
71
  20
-1.567011
  30
0
  11
71.1
  21
-1.541496
  31
0
  0
LINE
  5
21f
  100
AcDbEntity
  8
1
  100
AcDbLine
  10
71.1
  20
-1.541496
  30
0
  11
71.2
  21
-1.516327
  31
0
  0
LINE
  5
220
  100
AcDbEntity
  8
1
  100
AcDbLine
  10
71.2
  20
-1.516327
  30
0
  11
71.3
  21
-1.491516
  31
0
  0
LINE
  5
221
  100
AcDbEntity
  8
1
  100
AcDbLine
  10
71.3
  20
-1.491516
  30
0
  11
71.4
  21
-1.467076
  31
0
  0
LINE
  5
222
  100
AcDbEntity
  8
1
  100
AcDbLine
  10
71.4
  20
-1.467076
  30
0
  11
71.5
  21
-1.443016
  31
0
  0
LINE
  5
223
  100
AcDbEntity
  8
1
  100
AcDbLine
  10
71.5
  20
-1.443016
  30
0
  11
71.6
  21
-1.419349
  31
0
  0
LINE
  5
224
  100
AcDbEntity
  8
1
  100
AcDbLine
  10
71.6
  20
-1.419349
  30
0
  11
71.7
  21
-1.396085
  31
0
  0
LINE
  5
225
  100
AcDbEntity
  8
1
  100
AcDbLine
  10
71.7
  20
-1.396085
  30
0
  11
71.8
  21
-1.373235
  31
0
  0
LINE
  5
226
  100
AcDbEntity
  8
1
  100
AcDbLine
  10
71.8
  20
-1.373235
  30
0
  11
71.9
  21
-1.35081
  31
0
  0
LINE
  5
227
  100
AcDbEntity
  8
1
  100
AcDbLine
  10
71.9
  20
-1.35081
  30
0
  11
72
  21
-1.328818
  31
0
  0
LINE
  5
228
  100
AcDbEntity
  8
1
  100
AcDbLine
  10
72
  20
-1.328818
  30
0
  11
72.1
  21
-1.30727
  31
0
  0
LINE
  5
229
  100
AcDbEntity
  8
1
  100
AcDbLine
  10
72.1
  20
-1.30727
  30
0
  11
72.2
  21
-1.286175
  31
0
  0
LINE
  5
22a
  100
AcDbEntity
  8
1
  100
AcDbLine
  10
72.2
  20
-1.286175
  30
0
  11
72.3
  21
-1.265541
  31
0
  0
LINE
  5
22b
  100
AcDbEntity
  8
1
  100
AcDbLine
  10
72.3
  20
-1.265541
  30
0
  11
72.4
  21
-1.245378
  31
0
  0
LINE
  5
22c
  100
AcDbEntity
  8
1
  100
AcDbLine
  10
72.4
  20
-1.245378
  30
0
  11
72.5
  21
-1.225694
  31
0
  0
LINE
  5
22d
  100
AcDbEntity
  8
1
  100
AcDbLine
  10
72.5
  20
-1.225694
  30
0
  11
72.6
  21
-1.206497
  31
0
  0
LINE
  5
22e
  100
AcDbEntity
  8
1
  100
AcDbLine
  10
72.6
  20
-1.206497
  30
0
  11
72.7
  21
-1.187794
  31
0
  0
LINE
  5
22f
  100
AcDbEntity
  8
1
  100
AcDbLine
  10
72.7
  20
-1.187794
  30
0
  11
72.8
  21
-1.169593
  31
0
  0
LINE
  5
230
  100
AcDbEntity
  8
1
  100
AcDbLine
  10
72.8
  20
-1.169593
  30
0
  11
72.9
  21
-1.151901
  31
0
  0
LINE
  5
231
  100
AcDbEntity
  8
1
  100
AcDbLine
  10
72.9
  20
-1.151901
  30
0
  11
73
  21
-1.134725
  31
0
  0
LINE
  5
232
  100
AcDbEntity
  8
1
  100
AcDbLine
  10
73
  20
-1.134725
  30
0
  11
73.1
  21
-1.11807
  31
0
  0
LINE
  5
233
  100
AcDbEntity
  8
1
  100
AcDbLine
  10
73.1
  20
-1.11807
  30
0
  11
73.2
  21
-1.101943
  31
0
  0
LINE
  5
234
  100
AcDbEntity
  8
1
  100
AcDbLine
  10
73.2
  20
-1.101943
  30
0
  11
73.3
  21
-1.086351
  31
0
  0
LINE
  5
235
  100
AcDbEntity
  8
1
  100
AcDbLine
  10
73.3
  20
-1.086351
  30
0
  11
73.4
  21
-1.071298
  31
0
  0
LINE
  5
236
  100
AcDbEntity
  8
1
  100
AcDbLine
  10
73.4
  20
-1.071298
  30
0
  11
73.5
  21
-1.056789
  31
0
  0
LINE
  5
237
  100
AcDbEntity
  8
1
  100
AcDbLine
  10
73.5
  20
-1.056789
  30
0
  11
73.6
  21
-1.04283
  31
0
  0
LINE
  5
238
  100
AcDbEntity
  8
1
  100
AcDbLine
  10
73.6
  20
-1.04283
  30
0
  11
73.7
  21
-1.029424
  31
0
  0
LINE
  5
239
  100
AcDbEntity
  8
1
  100
AcDbLine
  10
73.7
  20
-1.029424
  30
0
  11
73.8
  21
-1.016577
  31
0
  0
LINE
  5
23a
  100
AcDbEntity
  8
1
  100
AcDbLine
  10
73.8
  20
-1.016577
  30
0
  11
73.9
  21
-1.004292
  31
0
  0
LINE
  5
23b
  100
AcDbEntity
  8
1
  100
AcDbLine
  10
73.9
  20
-1.004292
  30
0
  11
74
  21
-0.992573
  31
0
  0
LINE
  5
23c
  100
AcDbEntity
  8
1
  100
AcDbLine
  10
74
  20
-0.992573
  30
0
  11
74.1
  21
-0.981424
  31
0
  0
LINE
  5
23d
  100
AcDbEntity
  8
1
  100
AcDbLine
  10
74.1
  20
-0.981424
  30
0
  11
74.2
  21
-0.970847
  31
0
  0
LINE
  5
23e
  100
AcDbEntity
  8
1
  100
AcDbLine
  10
74.2
  20
-0.970847
  30
0
  11
74.3
  21
-0.960845
  31
0
  0
LINE
  5
23f
  100
AcDbEntity
  8
1
  100
AcDbLine
  10
74.3
  20
-0.960845
  30
0
  11
74.4
  21
-0.951421
  31
0
  0
LINE
  5
240
  100
AcDbEntity
  8
1
  100
AcDbLine
  10
74.4
  20
-0.951421
  30
0
  11
74.5
  21
-0.942577
  31
0
  0
LINE
  5
241
  100
AcDbEntity
  8
1
  100
AcDbLine
  10
74.5
  20
-0.942577
  30
0
  11
74.6
  21
-0.934315
  31
0
  0
LINE
  5
242
  100
AcDbEntity
  8
1
  100
AcDbLine
  10
74.6
  20
-0.934315
  30
0
  11
74.7
  21
-0.926637
  31
0
  0
LINE
  5
243
  100
AcDbEntity
  8
1
  100
AcDbLine
  10
74.7
  20
-0.926637
  30
0
  11
74.8
  21
-0.919545
  31
0
  0
LINE
  5
244
  100
AcDbEntity
  8
1
  100
AcDbLine
  10
74.8
  20
-0.919545
  30
0
  11
74.9
  21
-0.913039
  31
0
  0
LINE
  5
245
  100
AcDbEntity
  8
1
  100
AcDbLine
  10
74.9
  20
-0.913039
  30
0
  11
75
  21
-0.90712
  31
0
  0
LINE
  5
246
  100
AcDbEntity
  8
1
  100
AcDbLine
  10
75
  20
-0.90712
  30
0
  11
75.1
  21
-0.90179
  31
0
  0
LINE
  5
247
  100
AcDbEntity
  8
1
  100
AcDbLine
  10
75.1
  20
-0.90179
  30
0
  11
75.2
  21
-0.897048
  31
0
  0
LINE
  5
248
  100
AcDbEntity
  8
1
  100
AcDbLine
  10
75.2
  20
-0.897048
  30
0
  11
75.3
  21
-0.892895
  31
0
  0
LINE
  5
249
  100
AcDbEntity
  8
1
  100
AcDbLine
  10
75.3
  20
-0.892895
  30
0
  11
75.4
  21
-0.88933
  31
0
  0
LINE
  5
24a
  100
AcDbEntity
  8
1
  100
AcDbLine
  10
75.4
  20
-0.88933
  30
0
  11
75.5
  21
-0.886354
  31
0
  0
LINE
  5
24b
  100
AcDbEntity
  8
1
  100
AcDbLine
  10
75.5
  20
-0.886354
  30
0
  11
75.6
  21
-0.883966
  31
0
  0
LINE
  5
24c
  100
AcDbEntity
  8
1
  100
AcDbLine
  10
75.6
  20
-0.883966
  30
0
  11
75.7
  21
-0.882164
  31
0
  0
LINE
  5
24d
  100
AcDbEntity
  8
1
  100
AcDbLine
  10
75.7
  20
-0.882164
  30
0
  11
75.8
  21
-0.880948
  31
0
  0
LINE
  5
24e
  100
AcDbEntity
  8
1
  100
AcDbLine
  10
75.8
  20
-0.880948
  30
0
  11
75.9
  21
-0.880317
  31
0
  0
LINE
  5
24f
  100
AcDbEntity
  8
1
  100
AcDbLine
  10
75.9
  20
-0.880317
  30
0
  11
76
  21
-0.830826
  31
0
  0
LINE
  5
250
  100
AcDbEntity
  8
1
  100
AcDbLine
  10
76
  20
-0.830826
  30
0
  11
76.1
  21
-0.831001
  31
0
  0
LINE
  5
251
  100
AcDbEntity
  8
1
  100
AcDbLine
  10
76.1
  20
-0.831001
  30
0
  11
76.2
  21
-0.831175
  31
0
  0
LINE
  5
252
  100
AcDbEntity
  8
1
  100
AcDbLine
  10
76.2
  20
-0.831175
  30
0
  11
76.3
  21
-0.83135
  31
0
  0
LINE
  5
253
  100
AcDbEntity
  8
1
  100
AcDbLine
  10
76.3
  20
-0.83135
  30
0
  11
76.4
  21
-0.831524
  31
0
  0
LINE
  5
254
  100
AcDbEntity
  8
1
  100
AcDbLine
  10
76.4
  20
-0.831524
  30
0
  11
76.5
  21
-0.831699
  31
0
  0
LINE
  5
255
  100
AcDbEntity
  8
1
  100
AcDbLine
  10
76.5
  20
-0.831699
  30
0
  11
76.6
  21
-0.831873
  31
0
  0
LINE
  5
256
  100
AcDbEntity
  8
1
  100
AcDbLine
  10
76.6
  20
-0.831873
  30
0
  11
76.7
  21
-0.832048
  31
0
  0
LINE
  5
257
  100
AcDbEntity
  8
1
  100
AcDbLine
  10
76.7
  20
-0.832048
  30
0
  11
76.8
  21
-0.832223
  31
0
  0
LINE
  5
258
  100
AcDbEntity
  8
1
  100
AcDbLine
  10
76.8
  20
-0.832223
  30
0
  11
76.9
  21
-0.832397
  31
0
  0
LINE
  5
259
  100
AcDbEntity
  8
1
  100
AcDbLine
  10
76.9
  20
-0.832397
  30
0
  11
77
  21
-0.832572
  31
0
  0
LINE
  5
25a
  100
AcDbEntity
  8
1
  100
AcDbLine
  10
77
  20
-0.832572
  30
0
  11
77.1
  21
-0.832746
  31
0
  0
LINE
  5
25b
  100
AcDbEntity
  8
1
  100
AcDbLine
  10
77.1
  20
-0.832746
  30
0
  11
77.2
  21
-0.832921
  31
0
  0
LINE
  5
25c
  100
AcDbEntity
  8
1
  100
AcDbLine
  10
77.2
  20
-0.832921
  30
0
  11
77.3
  21
-0.833096
  31
0
  0
LINE
  5
25d
  100
AcDbEntity
  8
1
  100
AcDbLine
  10
77.3
  20
-0.833096
  30
0
  11
77.4
  21
-0.83327
  31
0
  0
LINE
  5
25e
  100
AcDbEntity
  8
1
  100
AcDbLine
  10
77.4
  20
-0.83327
  30
0
  11
77.5
  21
-0.833445
  31
0
  0
LINE
  5
25f
  100
AcDbEntity
  8
1
  100
AcDbLine
  10
77.5
  20
-0.833445
  30
0
  11
77.6
  21
-0.83362
  31
0
  0
LINE
  5
260
  100
AcDbEntity
  8
1
  100
AcDbLine
  10
77.6
  20
-0.83362
  30
0
  11
77.7
  21
-0.833794
  31
0
  0
LINE
  5
261
  100
AcDbEntity
  8
1
  100
AcDbLine
  10
77.7
  20
-0.833794
  30
0
  11
77.8
  21
-0.833969
  31
0
  0
LINE
  5
262
  100
AcDbEntity
  8
1
  100
AcDbLine
  10
77.8
  20
-0.833969
  30
0
  11
77.9
  21
-0.834144
  31
0
  0
LINE
  5
263
  100
AcDbEntity
  8
1
  100
AcDbLine
  10
77.9
  20
-0.834144
  30
0
  11
78
  21
-0.834318
  31
0
  0
LINE
  5
264
  100
AcDbEntity
  8
1
  100
AcDbLine
  10
78
  20
-0.834318
  30
0
  11
78.1
  21
-0.834493
  31
0
  0
LINE
  5
265
  100
AcDbEntity
  8
1
  100
AcDbLine
  10
78.1
  20
-0.834493
  30
0
  11
78.2
  21
-0.834668
  31
0
  0
LINE
  5
266
  100
AcDbEntity
  8
1
  100
AcDbLine
  10
78.2
  20
-0.834668
  30
0
  11
78.3
  21
-0.834843
  31
0
  0
LINE
  5
267
  100
AcDbEntity
  8
1
  100
AcDbLine
  10
78.3
  20
-0.834843
  30
0
  11
78.4
  21
-0.835017
  31
0
  0
LINE
  5
268
  100
AcDbEntity
  8
1
  100
AcDbLine
  10
78.4
  20
-0.835017
  30
0
  11
78.5
  21
-0.835192
  31
0
  0
LINE
  5
269
  100
AcDbEntity
  8
1
  100
AcDbLine
  10
78.5
  20
-0.835192
  30
0
  11
78.6
  21
-0.835367
  31
0
  0
LINE
  5
26a
  100
AcDbEntity
  8
1
  100
AcDbLine
  10
78.6
  20
-0.835367
  30
0
  11
78.7
  21
-0.835542
  31
0
  0
LINE
  5
26b
  100
AcDbEntity
  8
1
  100
AcDbLine
  10
78.7
  20
-0.835542
  30
0
  11
78.8
  21
-0.835717
  31
0
  0
LINE
  5
26c
  100
AcDbEntity
  8
1
  100
AcDbLine
  10
78.8
  20
-0.835717
  30
0
  11
78.9
  21
-0.835891
  31
0
  0
LINE
  5
26d
  100
AcDbEntity
  8
1
  100
AcDbLine
  10
78.9
  20
-0.835891
  30
0
  11
79
  21
-0.836066
  31
0
  0
LINE
  5
26e
  100
AcDbEntity
  8
1
  100
AcDbLine
  10
79
  20
-0.836066
  30
0
  11
79.1
  21
-0.836241
  31
0
  0
LINE
  5
26f
  100
AcDbEntity
  8
1
  100
AcDbLine
  10
79.1
  20
-0.836241
  30
0
  11
79.2
  21
-0.836416
  31
0
  0
LINE
  5
270
  100
AcDbEntity
  8
1
  100
AcDbLine
  10
79.2
  20
-0.836416
  30
0
  11
79.3
  21
-0.836591
  31
0
  0
LINE
  5
271
  100
AcDbEntity
  8
1
  100
AcDbLine
  10
79.3
  20
-0.836591
  30
0
  11
79.4
  21
-0.836766
  31
0
  0
LINE
  5
272
  100
AcDbEntity
  8
1
  100
AcDbLine
  10
79.4
  20
-0.836766
  30
0
  11
79.5
  21
-0.83694
  31
0
  0
LINE
  5
273
  100
AcDbEntity
  8
1
  100
AcDbLine
  10
79.5
  20
-0.83694
  30
0
  11
79.6
  21
-0.837115
  31
0
  0
LINE
  5
274
  100
AcDbEntity
  8
1
  100
AcDbLine
  10
79.6
  20
-0.837115
  30
0
  11
79.7
  21
-0.83729
  31
0
  0
LINE
  5
275
  100
AcDbEntity
  8
1
  100
AcDbLine
  10
79.7
  20
-0.83729
  30
0
  11
79.8
  21
-0.837465
  31
0
  0
LINE
  5
276
  100
AcDbEntity
  8
1
  100
AcDbLine
  10
79.8
  20
-0.837465
  30
0
  11
79.9
  21
-0.83764
  31
0
  0
LINE
  5
277
  100
AcDbEntity
  8
1
  100
AcDbLine
  10
79.9
  20
-0.83764
  30
0
  11
80
  21
-0.837815
  31
0
  0
LINE
  5
278
  100
AcDbEntity
  8
1
  100
AcDbLine
  10
75.989
  20
-3.1375
  30
0
  11
75.989
  21
3.1375
  31
0
  0
LINE
  5
279
  100
AcDbEntity
  8
1
  100
AcDbLine
  10
75.989
  20
4.01036
  30
0
  11
75.989
  21
-4.01036
  31
0
  0
LINE
  5
27a
  100
AcDbEntity
  8
1
  100
AcDbLine
  10
52
  20
3.88426
  30
0
  11
52
  21
-3.88426
  31
0
  0
LINE
  5
27b
  100
AcDbEntity
  8
1
  100
AcDbLine
  10
51.65798
  20
3.944567
  30
0
  11
51.65798
  21
-3.944567
  31
0
  0
LINE
  5
27c
  100
AcDbEntity
  8
1
  100
AcDbLine
  10
48.758203
  20
5
  30
0
  11
48.758203
  21
-5
  31
0
  0
LINE
  5
27d
  100
AcDbEntity
  8
1
  100
AcDbLine
  10
48.758203
  20
-5
  30
0
  11
48.758203
  21
5
  31
0
  0
LINE
  5
27e
  100
AcDbEntity
  8
SK1
  100
AcDbLine
  10
47.804
  20
5
  30
0
  11
0.4
  21
5
  31
0
  0
LINE
  5
27f
  100
AcDbEntity
  8
SK1
  100
AcDbLine
  10
0.4
  20
5
  30
0
  11
0
  21
4.6
  31
0
  0
LINE
  5
280
  100
AcDbEntity
  8
SK1
  100
AcDbLine
  10
47.804
  20
-5
  30
0
  11
0.4
  21
-5
  31
0
  0
LINE
  5
281
  100
AcDbEntity
  8
SK1
  100
AcDbLine
  10
0.4
  20
-5
  30
0
  11
0
  21
-4.6
  31
0
  0
LINE
  5
282
  100
AcDbEntity
  8
SK1
  100
AcDbLine
  10
0.4
  20
5
  30
0
  11
0.4
  21
-5
  31
0
  0
LINE
  5
283
  100
AcDbEntity
  8
SK1
  100
AcDbLine
  10
0
  20
4.6
  30
0
  11
0
  21
-4.6
  31
0
  0
LINE
  5
284
  100
AcDbEntity
  8
SK1
  100
AcDbLine
  10
48.8441
  20
1.40688
  30
0
  11
49.2109
  21
1.0401
  31
0
  0
LINE
  5
285
  100
AcDbEntity
  8
SK1
  100
AcDbLine
  10
48.3368
  20
1.66666
  30
0
  11
49.4707
  21
0.532833
  31
0
  0
LINE
  5
286
  100
AcDbEntity
  8
SK1
  100
AcDbLine
  10
48.0194
  20
1.73657
  30
0
  11
49.5406
  21
0.215434
  31
0
  0
LINE
  5
287
  100
AcDbEntity
  8
SK1
  100
AcDbLine
  10
47.804
  20
1.70452
  30
0
  11
49.5085
  21
0
  31
0
  0
LINE
  5
288
  100
AcDbEntity
  8
SK1
  100
AcDbLine
  10
47.804
  20
1.45703
  30
0
  11
49.261
  21
0
  31
0
  0
LINE
  5
289
  100
AcDbEntity
  8
SK1
  100
AcDbLine
  10
47.804
  20
1.20954
  30
0
  11
49.0135
  21
0
  31
0
  0
LINE
  5
28a
  100
AcDbEntity
  8
SK1
  100
AcDbLine
  10
47.804
  20
0.962054
  30
0
  11
48.7661
  21
0
  31
0
  0
LINE
  5
28b
  100
AcDbEntity
  8
SK1
  100
AcDbLine
  10
47.804
  20
0.714566
  30
0
  11
48.5186
  21
0
  31
0
  0
LINE
  5
28c
  100
AcDbEntity
  8
SK1
  100
AcDbLine
  10
47.804
  20
0.467079
  30
0
  11
48.2711
  21
0
  31
0
  0
LINE
  5
28d
  100
AcDbEntity
  8
SK1
  100
AcDbLine
  10
47.804
  20
0.219592
  30
0
  11
48.0236
  21
0
  31
0
  0
LINE
  5
28e
  100
AcDbEntity
  8
SK1
  100
AcDbLine
  10
47.804
  20
1.70452
  30
0
  11
47.8481
  21
1.74861
  31
0
  0
LINE
  5
28f
  100
AcDbEntity
  8
SK1
  100
AcDbLine
  10
47.804
  20
1.45703
  30
0
  11
48.075
  21
1.72802
  31
0
  0
LINE
  5
290
  100
AcDbEntity
  8
SK1
  100
AcDbLine
  10
47.804
  20
1.20954
  30
0
  11
48.2782
  21
1.6837
  31
0
  0
LINE
  5
291
  100
AcDbEntity
  8
SK1
  100
AcDbLine
  10
47.804
  20
0.962054
  30
0
  11
48.4628
  21
1.62082
  31
0
  0
LINE
  5
292
  100
AcDbEntity
  8
SK1
  100
AcDbLine
  10
47.804
  20
0.714566
  30
0
  11
48.6311
  21
1.54167
  31
0
  0
LINE
  5
293
  100
AcDbEntity
  8
SK1
  100
AcDbLine
  10
47.804
  20
0.467079
  30
0
  11
48.785
  21
1.44812
  31
0
  0
LINE
  5
294
  100
AcDbEntity
  8
SK1
  100
AcDbLine
  10
47.804
  20
0.219592
  30
0
  11
48.9266
  21
1.34216
  31
0
  0
LINE
  5
295
  100
AcDbEntity
  8
SK1
  100
AcDbLine
  10
47.8319
  20
0
  30
0
  11
49.0548
  21
1.22288
  31
0
  0
LINE
  5
296
  100
AcDbEntity
  8
SK1
  100
AcDbLine
  10
48.0794
  20
0
  30
0
  11
49.171
  21
1.09157
  31
0
  0
LINE
  5
297
  100
AcDbEntity
  8
SK1
  100
AcDbLine
  10
48.3269
  20
0
  30
0
  11
49.2747
  21
0.947822
  31
0
  0
LINE
  5
298
  100
AcDbEntity
  8
SK1
  100
AcDbLine
  10
48.5744
  20
0
  30
0
  11
49.3645
  21
0.790145
  31
0
  0
LINE
  5
299
  100
AcDbEntity
  8
SK1
  100
AcDbLine
  10
48.8218
  20
0
  30
0
  11
49.4404
  21
0.618517
  31
0
  0
LINE
  5
29a
  100
AcDbEntity
  8
SK1
  100
AcDbLine
  10
49.0693
  20
0
  30
0
  11
49.5
  21
0.430696
  31
0
  0
LINE
  5
29b
  100
AcDbEntity
  8
SK1
  100
AcDbLine
  10
49.3168
  20
0
  30
0
  11
49.5396
  21
0.222827
  31
0
  0
LINE
  5
29c
  100
AcDbEntity
  8
SK1
  100
AcDbLine
  10
47.804
  20
0
  30
0
  11
47.804
  21
1.75
  31
0
  0
LINE
  5
29d
  100
AcDbEntity
  8
SK1
  100
AcDbLine
  10
47.804
  20
0
  30
0
  11
49.554
  21
0
  31
0
  0
ARC
  5
29e
  100
AcDbEntity
  8
SK1
  100
AcDbCircle
  10
47.804
  20
0
  30
0
  40
1.75
  100
AcDbArc
  50
0
  51
90
  0
ARC
  5
29f
  100
AcDbEntity
  8
SK1
  100
AcDbCircle
  10
47.804
  20
0
  30
0
  40
1.75
  100
AcDbArc
  50
90
  51
180
  0
LINE
  5
2a0
  100
AcDbEntity
  8
SK1
  100
AcDbLine
  10
47.7761
  20
0
  30
0
  11
47.804
  21
-0.027896
  31
0
  0
LINE
  5
2a1
  100
AcDbEntity
  8
SK1
  100
AcDbLine
  10
47.5286
  20
0
  30
0
  11
47.804
  21
-0.275383
  31
0
  0
LINE
  5
2a2
  100
AcDbEntity
  8
SK1
  100
AcDbLine
  10
47.2811
  20
0
  30
0
  11
47.804
  21
-0.522871
  31
0
  0
LINE
  5
2a3
  100
AcDbEntity
  8
SK1
  100
AcDbLine
  10
47.0336
  20
0
  30
0
  11
47.804
  21
-0.770358
  31
0
  0
LINE
  5
2a4
  100
AcDbEntity
  8
SK1
  100
AcDbLine
  10
46.7862
  20
0
  30
0
  11
47.804
  21
-1.01785
  31
0
  0
LINE
  5
2a5
  100
AcDbEntity
  8
SK1
  100
AcDbLine
  10
46.5387
  20
0
  30
0
  11
47.804
  21
-1.26533
  31
0
  0
LINE
  5
2a6
  100
AcDbEntity
  8
SK1
  100
AcDbLine
  10
46.2912
  20
0
  30
0
  11
47.804
  21
-1.51282
  31
0
  0
LINE
  5
2a7
  100
AcDbEntity
  8
SK1
  100
AcDbLine
  10
46.0543
  20
-0.010642
  30
0
  11
47.7934
  21
-1.74967
  31
0
  0
LINE
  5
2a8
  100
AcDbEntity
  8
SK1
  100
AcDbLine
  10
46.0776
  20
-0.281429
  30
0
  11
47.5226
  21
-1.72637
  31
0
  0
LINE
  5
2a9
  100
AcDbEntity
  8
SK1
  100
AcDbLine
  10
46.1679
  20
-0.619147
  30
0
  11
47.1849
  21
-1.63613
  31
0
  0
LINE
  5
2aa
  100
AcDbEntity
  8
SK1
  100
AcDbLine
  10
46.0554
  20
-0.044098
  30
0
  11
46.0995
  21
0
  31
0
  0
LINE
  5
2ab
  100
AcDbEntity
  8
SK1
  100
AcDbLine
  10
46.076
  20
-0.270991
  30
0
  11
46.347
  21
0
  31
0
  0
LINE
  5
2ac
  100
AcDbEntity
  8
SK1
  100
AcDbLine
  10
46.1203
  20
-0.474162
  30
0
  11
46.5945
  21
0
  31
0
  0
LINE
  5
2ad
  100
AcDbEntity
  8
SK1
  100
AcDbLine
  10
46.1832
  20
-0.658762
  30
0
  11
46.8419
  21
0
  31
0
  0
LINE
  5
2ae
  100
AcDbEntity
  8
SK1
  100
AcDbLine
  10
46.2623
  20
-0.827105
  30
0
  11
47.0894
  21
0
  31
0
  0
LINE
  5
2af
  100
AcDbEntity
  8
SK1
  100
AcDbLine
  10
46.3559
  20
-0.981039
  30
0
  11
47.3369
  21
0
  31
0
  0
LINE
  5
2b0
  100
AcDbEntity
  8
SK1
  100
AcDbLine
  10
46.4618
  20
-1.12257
  30
0
  11
47.5844
  21
0
  31
0
  0
LINE
  5
2b1
  100
AcDbEntity
  8
SK1
  100
AcDbLine
  10
46.5811
  20
-1.25077
  30
0
  11
47.804
  21
-0.027896
  31
0
  0
LINE
  5
2b2
  100
AcDbEntity
  8
SK1
  100
AcDbLine
  10
46.7124
  20
-1.36695
  30
0
  11
47.804
  21
-0.275383
  31
0
  0
LINE
  5
2b3
  100
AcDbEntity
  8
SK1
  100
AcDbLine
  10
46.8562
  20
-1.47069
  30
0
  11
47.804
  21
-0.522871
  31
0
  0
LINE
  5
2b4
  100
AcDbEntity
  8
SK1
  100
AcDbLine
  10
47.0139
  20
-1.5605
  30
0
  11
47.804
  21
-0.770358
  31
0
  0
LINE
  5
2b5
  100
AcDbEntity
  8
SK1
  100
AcDbLine
  10
47.1855
  20
-1.63636
  30
0
  11
47.804
  21
-1.01785
  31
0
  0
LINE
  5
2b6
  100
AcDbEntity
  8
SK1
  100
AcDbLine
  10
47.3733
  20
-1.69603
  30
0
  11
47.804
  21
-1.26533
  31
0
  0
LINE
  5
2b7
  100
AcDbEntity
  8
SK1
  100
AcDbLine
  10
47.5812
  20
-1.73565
  30
0
  11
47.804
  21
-1.51282
  31
0
  0
LINE
  5
2b8
  100
AcDbEntity
  8
SK1
  100
AcDbLine
  10
47.804
  20
0
  30
0
  11
46.054
  21
0
  31
0
  0
LINE
  5
2b9
  100
AcDbEntity
  8
SK1
  100
AcDbLine
  10
47.804
  20
-1.75
  30
0
  11
47.804
  21
0
  31
0
  0
ARC
  5
2ba
  100
AcDbEntity
  8
SK1
  100
AcDbCircle
  10
47.804
  20
0
  30
0
  40
1.75
  100
AcDbArc
  50
180
  51
270
  0
ARC
  5
2bb
  100
AcDbEntity
  8
SK1
  100
AcDbCircle
  10
47.804
  20
0
  30
0
  40
1.75
  100
AcDbArc
  50
270
  51
0
  0
LINE
  5
310
  100
AcDbEntity
  8
NOCUT
  100
AcDbLine
  10
75.989
  20
0
  30
0
  11
75.989
  21
3.1375
  31
0
  0
LINE
  5
311
  100
AcDbEntity
  8
NOCUT
  100
AcDbLine
  10
75.989
  20
3.1375
  30
0
  11
52
  21
3.88426
  31
0
  0
ARC
  5
312
  100
AcDbEntity
  8
NOCUT
  100
AcDbCircle
  10
52
  20
4.88426
  30
0
  40
1
  100
AcDbArc
  50
250
  51
270
  0
LINE
  5
313
  100
AcDbEntity
  8
NOCUT
  100
AcDbLine
  10
51.65798
  20
3.944567
  30
0
  11
48.758203
  21
5
  31
0
  0
LINE
  5
314
  100
AcDbEntity
  8
NOCUT
  100
AcDbLine
  10
48.758203
  20
5
  30
0
  11
47.804
  21
5
  31
0
  0
LINE
  5
315
  100
AcDbEntity
  8
NOCUT
  100
AcDbLine
  10
47.804
  20
5
  30
0
  11
47.804
  21
0
  31
0
  0
LINE
  5
316
  100
AcDbEntity
  8
NOCUT
  100
AcDbLine
  10
47.804
  20
0
  30
0
  11
75.989
  21
0
  31
0
  0
LINE
  5
317
  100
AcDbEntity
  8
CUT
  100
AcDbLine
  10
80
  20
0
  30
0
  11
80
  21
3.8855
  31
0
  0
LINE
  5
318
  100
AcDbEntity
  8
CUT
  100
AcDbLine
  10
80
  20
3.8855
  30
0
  11
75.989
  21
4.01036
  31
0
  0
LINE
  5
319
  100
AcDbEntity
  8
CUT
  100
AcDbLine
  10
75.989
  20
4.01036
  30
0
  11
75.989
  21
0
  31
0
  0
LINE
  5
31a
  100
AcDbEntity
  8
CUT
  100
AcDbLine
  10
75.989
  20
0
  30
0
  11
80
  21
0
  31
0
  0
LINE
  5
31b
  100
AcDbEntity
  8
4
  100
AcDbLine
  10
47.804
  20
0
  30
0
  11
80
  21
0
  31
0
  0
LINE
  5
31c
  100
AcDbEntity
  8
SK4
  100
AcDbLine
  10
-1
  20
0
  30
0
  11
81
  21
0
  31
0
  0
LINE
  5
31d
  100
AcDbEntity
  8
INFTOTAL
  100
AcDbLine
  10
-22.45
  20
23.255024
  30
0
  11
97.45
  21
23.255024
  31
0
  0
LINE
  5
31e
  100
AcDbEntity
  8
INFTOTAL
  100
AcDbLine
  10
97.45
  20
23.255024
  30
0
  11
97.45
  21
-32.227175
  31
0
  0
LINE
  5
31f
  100
AcDbEntity
  8
INFTOTAL
  100
AcDbLine
  10
97.45
  20
-32.227175
  30
0
  11
-22.45
  21
-32.227175
  31
0
  0
LINE
  5
320
  100
AcDbEntity
  8
INFTOTAL
  100
AcDbLine
  10
-22.45
  20
-32.227175
  30
0
  11
-22.45
  21
23.255024
  31
0
  0
ENDSEC
  0
SECTION
  2
OBJECTS
  0
DICTIONARY
  5
321
  330
0
100
AcDbDictionary
281
    1
  3
ACAD_GROUP
  350
322
  0
DICTIONARY
  5
322
102
{ACAD_REACTORS
  330
321
102
}
  330
321
100
AcDbDictionary
281
    1
  0
ENDSEC
  0
EOF
