  0
SECTION
  2
HEADER
  9
$ACADVER
  1
AC1015
  9
$DWGCODEPAGE
  3
ANSI_932
  9
$HANDSEED
  5
106AB90
  0
ENDSEC
  0
SECTION
  2
CLASSES
  0
CLASS
  1
IMAGEDEF
  2
AcDbRasterImageDef
  3
ISM
  90
0
  91
4
  280
0
  281
0
  0
CLASS
  1
IMAGE
  2
AcDbRasterImage
  3
ISM
  90
127
  91
5
  280
0
  281
1
  0
CLASS
  1
IMAGEDEF_REACTOR
  2
AcDbRasterImageDefReactor
  3
ISM
  90
1
  91
4
  280
0
  281
0
  0
ENDSEC
  0
SECTION
  2
TABLES
  0
TABLE
  2
VPORT
  5
2
  330
0
  100
AcDbSymbolTable
  70
    0
  0
ENDTAB
  0
TABLE
  2
LTYPE
  5
3
  330
0
  100
AcDbSymbolTable
  70
    4
  0
LTYPE
  5
4
  330
3
  100
AcDbSymbolTableRecord
  100
AcDbLinetypeTableRecord
  2
ByBlock
  70
    0
  3

  72
65
  73
    0
  40
0
  0
LTYPE
  5
5
  330
3
  100
AcDbSymbolTableRecord
  100
AcDbLinetypeTableRecord
  2
ByLayer
  70
    0
  3

  72
65
  73
    0
  40
0
  0
LTYPE
  5
6
  330
3
  100
AcDbSymbolTableRecord
  100
AcDbLinetypeTableRecord
  2
CONTINUOUS
  70
    0
  3
Solid Line
  72
65
  73
    0
  40
0
  0
LTYPE
  5
7
  330
3
  100
AcDbSymbolTableRecord
  100
AcDbLinetypeTableRecord
  2
DASH
  70
    0
  3
Hidden
  72
65
  73
2
  40
2.5
  49
1.5
  74
0
  49
-1
  74
0
  0
LTYPE
  5
8
  330
3
  100
AcDbSymbolTableRecord
  100
AcDbLinetypeTableRecord
  2
LONGDASHDASH
  70
    0
  3
__ . __
  72
65
  73
    4
  40
7
  49
4
  74
    0
  49
-1
  74
    0
  49
1
  74
    0
  49
-1
  74
    0
  0
ENDTAB
  0
TABLE
  2
LAYER
  5
9
  330
0
  100
AcDbSymbolTable
  70
    40
  0
LAYER
  5
a
  330
9
  100
AcDbSymbolTableRecord
  100
AcDbLayerTableRecord
  2
0
  70
    0
  62
    0
  6
CONTINUOUS
  390
0
  0
LAYER
  5
c
  330
9
  100
AcDbSymbolTableRecord
  100
AcDbLayerTableRecord
  2
1
  70
    0
  62
    4
  6
CONTINUOUS
  370
50
  390
0
  0
LAYER
  5
d
  330
9
  100
AcDbSymbolTableRecord
  100
AcDbLayerTableRecord
  2
2
  70
    0
  62
    7
  6
CONTINUOUS
  370
25
  390
0
  0
LAYER
  5
f
  330
9
  100
AcDbSymbolTableRecord
  100
AcDbLayerTableRecord
  2
4
  70
    0
  62
    2
  6
LONGDASHDASH
  370
25
  390
0
  0
LAYER
  5
13
  330
9
  100
AcDbSymbolTableRecord
  100
AcDbLayerTableRecord
  2
SK1
  70
    0
  62
    4
  6
CONTINUOUS
  370
50
  390
0
  0
LAYER
  5
14
  330
9
  100
AcDbSymbolTableRecord
  100
AcDbLayerTableRecord
  2
SK2
  70
    0
  62
    7
  6
CONTINUOUS
  370
25
  390
0
  0
LAYER
  5
16
  330
9
  100
AcDbSymbolTableRecord
  100
AcDbLayerTableRecord
  2
SK4
  70
    0
  62
    2
  6
LONGDASHDASH
  370
25
  390
0
  0
LAYER
  5
21
  330
9
  100
AcDbSymbolTableRecord
  100
AcDbLayerTableRecord
  2
NOCUT
  70
    0
  62
    7
  6
CONTINUOUS
  370
25
  390
0
  0
LAYER
  5
22
  330
9
  100
AcDbSymbolTableRecord
  100
AcDbLayerTableRecord
  2
CUT
  70
    0
  62
    1
  6
CONTINUOUS
  370
25
  390
0
  0
LAYER
  5
26
  330
9
  100
AcDbSymbolTableRecord
  100
AcDbLayerTableRecord
  2
INFTOTAL
  70
    0
  62
    9
  6
CONTINUOUS
  370
18
  390
0
  0
ENDTAB
  0
TABLE
  2
STYLE
  5
27
  330
0
  100
AcDbSymbolTable
  70
    1
  0
STYLE
  5
28
  330
27
  100
AcDbSymbolTableRecord
  100
AcDbTextStyleTableRecord
  2
Monospac821 BT
  70
    0
  40
    3.5
  41
1
  50
0
  71
0
  42
3
  3

  4

  1001
ACAD
  1000
Monospac821 BT
  1071
256
  0
ENDTAB
  0
TABLE
  2
VIEW
  5
29
  330
0
  100
AcDbSymbolTable
  70
    0
  0
ENDTAB
  0
TABLE
  2
UCS
  5
2a
  330
0
  100
AcDbSymbolTable
  70
    0
  0
ENDTAB
  0
TABLE
  2
APPID
  5
2b
  330
0
  100
AcDbSymbolTable
  70
    1
  0
APPID
  5
2c
  330
2b
  100
AcDbSymbolTableRecord
  100
AcDbRegAppTableRecord
  2
ACAD
  70
    0
  0
ENDTAB
  0
TABLE
  2
DIMSTYLE
  5
2d
  330
0
  100
AcDbSymbolTable
  70
    1
  100
AcDbDimStyleTable
  0
DIMSTYLE
  105
2e
  330
2d
  100
AcDbSymbolTableRecord
  100
AcDbDimStyleTableRecord
  2
STANDARD
  70
    0
  41
    3
  42
0.5
  44
1
  73
0
  77
1
  78
1
  140
3.5
  141
2.5
  143
0.03937
  147
0.8
  172
1
  174
1
  178
0
  179
1
  271
2
  279
1
  284
1
  340
28
  0
ENDTAB
  0
TABLE
  2
BLOCK_RECORD
  5
2f
  330
0
  100
AcDbSymbolTable
  70
    2
  0
BLOCK_RECORD
  5
30
  330
2f
  100
AcDbSymbolTableRecord
  100
AcDbBlockTableRecord
  2
*Model_Space
  0
BLOCK_RECORD
  5
31
  330
2f
  100
AcDbSymbolTableRecord
  100
AcDbBlockTableRecord
  2
*Paper_Space
  0
BLOCK_RECORD
  5
128
  330
2f
  100
AcDbSymbolTableRecord
  100
AcDbBlockTableRecord
  2
*D127
  340
0
  0
BLOCK_RECORD
  5
136
  330
2f
  100
AcDbSymbolTableRecord
  100
AcDbBlockTableRecord
  2
*D135
  340
0
  0
BLOCK_RECORD
  5
144
  330
2f
  100
AcDbSymbolTableRecord
  100
AcDbBlockTableRecord
  2
*D143
  340
0
  0
BLOCK_RECORD
  5
152
  330
2f
  100
AcDbSymbolTableRecord
  100
AcDbBlockTableRecord
  2
*D151
  340
0
  0
BLOCK_RECORD
  5
160
  330
2f
  100
AcDbSymbolTableRecord
  100
AcDbBlockTableRecord
  2
*D15f
  340
0
  0
BLOCK_RECORD
  5
16e
  330
2f
  100
AcDbSymbolTableRecord
  100
AcDbBlockTableRecord
  2
*D16d
  340
0
  0
BLOCK_RECORD
  5
17c
  330
2f
  100
AcDbSymbolTableRecord
  100
AcDbBlockTableRecord
  2
*D17b
  340
0
  0
BLOCK_RECORD
  5
18a
  330
2f
  100
AcDbSymbolTableRecord
  100
AcDbBlockTableRecord
  2
*D189
  340
0
  0
ENDTAB
  0
ENDSEC
  0
SECTION
  2
BLOCKS
  0
BLOCK
  5
32
  330
30
  100
AcDbEntity
  8
0
  100
AcDbBlockBegin
  2
*Model_Space
  70
    0
  10
0
  20
0
  30
0
  3
*Model_Space
  1

  0
ENDBLK
  5
33
  330
30
  100
AcDbEntity
  8
0
  100
AcDbBlockEnd
  0
BLOCK
  5
34
  330
31
  100
AcDbEntity
  8
0
  100
AcDbBlockBegin
  2
*Paper_Space
  70
    0
  10
0
  20
0
  30
0
  3
*Paper_Space
  1

  0
ENDBLK
  5
35
  330
31
  100
AcDbEntity
  8
0
  100
AcDbBlockEnd
  0
BLOCK
  5
126
  330
128
  100
AcDbEntity
  8
SK2
  100
AcDbBlockBegin
  2
*D127
  70
1
  10
0
  20
0
  30
0
  3
*D127
  1

  0
LINE
  5
129
  330
128
  100
AcDbEntity
  8
SK2
  100
AcDbLine
  10
0
  20
-43.59485
  30
0
  11
0
  21
2.6
  31
0
  0
LINE
  5
12a
  330
128
  100
AcDbEntity
  8
SK2
  100
AcDbLine
  10
50
  20
-43.59485
  30
0
  11
50
  21
19.883274
  31
0
  0
LINE
  5
12b
  330
128
  100
AcDbEntity
  8
SK2
  100
AcDbLine
  10
0
  20
-41.59485
  30
0
  11
50
  21
-41.59485
  31
0
  0
SOLID
  5
12c
  330
128
  100
AcDbEntity
  8
SK2
  100
AcDbTrace
  10
0
  20
-41.59485
  30
0
  11
2.478612
  21
-41.268534
  31
0
  12
2.478612
  22
-41.921165
  32
0
  13
2.478612
  23
-41.921165
  33
0
  0
SOLID
  5
12d
  330
128
  100
AcDbEntity
  8
SK2
  100
AcDbTrace
  10
50
  20
-41.59485
  30
0
  11
47.521388
  21
-41.921165
  31
0
  12
47.521388
  22
-41.268534
  32
0
  13
47.521388
  23
-41.268534
  33
0
  0
MTEXT
  5
12e
  330
128
  100
AcDbEntity
  8
SK2
  100
AcDbMText
  10
25
  20
-41.59485
  30
0
  11
1
  21
-0
  31
0
  40
2
  41
0
  71
8
  72
1
  1
50
  0
POINT
  5
12f
  330
128
  100
AcDbEntity
  8
SK2
  62
0
  100
AcDbPoint
  10
0
  20
2.6
  30
0
  0
POINT
  5
130
  330
128
  100
AcDbEntity
  8
SK2
  62
0
  100
AcDbPoint
  10
50
  20
19.883274
  30
0
  0
POINT
  5
131
  330
128
  100
AcDbEntity
  8
SK2
  62
0
  100
AcDbPoint
  10
50
  20
-41.59485
  30
0
  0
ENDBLK
  5
132
  330
128
  100
AcDbEntity
  8
SK2
  100
AcDbBlockEnd
  0
BLOCK
  5
134
  330
136
  100
AcDbEntity
  8
SK2
  100
AcDbBlockBegin
  2
*D135
  70
1
  10
0
  20
0
  30
0
  3
*D135
  1

  0
LINE
  5
137
  330
136
  100
AcDbEntity
  8
SK2
  100
AcDbLine
  10
32.825786
  20
-33.817496
  30
0
  11
32.825786
  21
3
  31
0
  0
LINE
  5
138
  330
136
  100
AcDbEntity
  8
SK2
  100
AcDbLine
  10
0
  20
-43.59485
  30
0
  11
0
  21
2.6
  31
0
  0
LINE
  5
139
  330
136
  100
AcDbEntity
  8
SK2
  100
AcDbLine
  10
32.825786
  20
-31.817496
  30
0
  11
0
  21
-31.817496
  31
0
  0
SOLID
  5
13a
  330
136
  100
AcDbEntity
  8
SK2
  100
AcDbTrace
  10
32.825786
  20
-31.817496
  30
0
  11
35.304399
  21
-31.49118
  31
0
  12
35.304399
  22
-32.143811
  32
0
  13
35.304399
  23
-32.143811
  33
0
  0
SOLID
  5
13b
  330
136
  100
AcDbEntity
  8
SK2
  100
AcDbTrace
  10
0
  20
-31.817496
  30
0
  11
-2.478612
  21
-32.143811
  31
0
  12
-2.478612
  22
-31.49118
  32
0
  13
-2.478612
  23
-31.49118
  33
0
  0
MTEXT
  5
13c
  330
136
  100
AcDbEntity
  8
SK2
  100
AcDbMText
  10
16.412893
  20
-31.817496
  30
0
  11
1
  21
-0
  31
0
  40
2
  41
0
  71
8
  72
1
  1
32.83
  0
POINT
  5
13d
  330
136
  100
AcDbEntity
  8
SK2
  62
0
  100
AcDbPoint
  10
32.825786
  20
3
  30
0
  0
POINT
  5
13e
  330
136
  100
AcDbEntity
  8
SK2
  62
0
  100
AcDbPoint
  10
0
  20
2.6
  30
0
  0
POINT
  5
13f
  330
136
  100
AcDbEntity
  8
SK2
  62
0
  100
AcDbPoint
  10
0
  20
-31.817496
  30
0
  0
ENDBLK
  5
140
  330
136
  100
AcDbEntity
  8
SK2
  100
AcDbBlockEnd
  0
BLOCK
  5
142
  330
144
  100
AcDbEntity
  8
SK2
  100
AcDbBlockBegin
  2
*D143
  70
1
  10
0
  20
0
  30
0
  3
*D143
  1

  0
LINE
  5
145
  330
144
  100
AcDbEntity
  8
SK2
  100
AcDbLine
  10
0.4
  20
-3
  30
0
  11
-12
  21
-3
  31
0
  0
LINE
  5
146
  330
144
  100
AcDbEntity
  8
SK2
  100
AcDbLine
  10
0.4
  20
3
  30
0
  11
-12
  21
3
  31
0
  0
LINE
  5
147
  330
144
  100
AcDbEntity
  8
SK2
  100
AcDbLine
  10
-10
  20
-3
  30
0
  11
-10
  21
3
  31
0
  0
SOLID
  5
148
  330
144
  100
AcDbEntity
  8
SK2
  100
AcDbTrace
  10
-10
  20
-3
  30
0
  11
-10.326315
  21
-0.521388
  31
0
  12
-9.673685
  22
-0.521388
  32
0
  13
-9.673685
  23
-0.521388
  33
0
  0
SOLID
  5
149
  330
144
  100
AcDbEntity
  8
SK2
  100
AcDbTrace
  10
-10
  20
3
  30
0
  11
-9.673685
  21
0.521388
  31
0
  12
-10.326315
  22
0.521388
  32
0
  13
-10.326315
  23
0.521388
  33
0
  0
MTEXT
  5
14a
  330
144
  100
AcDbEntity
  8
SK2
  100
AcDbMText
  10
-10
  20
-0.064076
  30
0
  11
0
  21
1
  31
0
  40
2
  41
0
  71
8
  72
1
  1
Ø6
  0
POINT
  5
14b
  330
144
  100
AcDbEntity
  8
SK2
  62
0
  100
AcDbPoint
  10
0.4
  20
-3
  30
0
  0
POINT
  5
14c
  330
144
  100
AcDbEntity
  8
SK2
  62
0
  100
AcDbPoint
  10
0.4
  20
3
  30
0
  0
POINT
  5
14d
  330
144
  100
AcDbEntity
  8
SK2
  62
0
  100
AcDbPoint
  10
-10
  20
3
  30
0
  0
ENDBLK
  5
14e
  330
144
  100
AcDbEntity
  8
SK2
  100
AcDbBlockEnd
  0
BLOCK
  5
150
  330
152
  100
AcDbEntity
  8
2
  100
AcDbBlockBegin
  2
*D151
  70
1
  10
0
  20
0
  30
0
  3
*D151
  1

  0
LINE
  5
153
  330
152
  100
AcDbEntity
  8
2
  100
AcDbLine
  10
50
  20
-2.3
  30
0
  11
62
  21
-2.3
  31
0
  0
LINE
  5
154
  330
152
  100
AcDbEntity
  8
2
  100
AcDbLine
  10
50
  20
2.3
  30
0
  11
62
  21
2.3
  31
0
  0
LINE
  5
155
  330
152
  100
AcDbEntity
  8
2
  100
AcDbLine
  10
60
  20
-2.3
  30
0
  11
60
  21
7.184874
  31
0
  0
SOLID
  5
156
  330
152
  100
AcDbEntity
  8
2
  100
AcDbTrace
  10
60
  20
-2.3
  30
0
  11
59.673685
  21
0.178612
  31
0
  12
60.326315
  22
0.178612
  32
0
  13
60.326315
  23
0.178612
  33
0
  0
SOLID
  5
157
  330
152
  100
AcDbEntity
  8
2
  100
AcDbTrace
  10
60
  20
2.3
  30
0
  11
60.326315
  21
-0.178612
  31
0
  12
59.673685
  22
-0.178612
  32
0
  13
59.673685
  23
-0.178612
  33
0
  0
MTEXT
  5
158
  330
152
  100
AcDbEntity
  8
2
  100
AcDbMText
  10
60
  20
7.345512
  30
0
  11
0
  21
1
  31
0
  40
2
  41
0
  71
8
  72
1
  1
Ø4.6
  0
POINT
  5
159
  330
152
  100
AcDbEntity
  8
2
  62
0
  100
AcDbPoint
  10
50
  20
-2.3
  30
0
  0
POINT
  5
15a
  330
152
  100
AcDbEntity
  8
2
  62
0
  100
AcDbPoint
  10
50
  20
2.3
  30
0
  0
POINT
  5
15b
  330
152
  100
AcDbEntity
  8
2
  62
0
  100
AcDbPoint
  10
60
  20
7.184874
  30
0
  0
ENDBLK
  5
15c
  330
152
  100
AcDbEntity
  8
2
  100
AcDbBlockEnd
  0
BLOCK
  5
15e
  330
160
  100
AcDbEntity
  8
2
  100
AcDbBlockBegin
  2
*D15f
  70
1
  10
0
  20
0
  30
0
  3
*D15f
  1

  0
LINE
  5
161
  330
160
  100
AcDbEntity
  8
2
  100
AcDbLine
  10
44.7
  20
-1.74
  30
0
  11
41.206644
  21
-1.74
  31
0
  0
LINE
  5
162
  330
160
  100
AcDbEntity
  8
2
  100
AcDbLine
  10
44.7
  20
1.74
  30
0
  11
41.206644
  21
1.74
  31
0
  0
LINE
  5
163
  330
160
  100
AcDbEntity
  8
2
  100
AcDbLine
  10
43.206644
  20
-1.74
  30
0
  11
43.206644
  21
12.983193
  31
0
  0
SOLID
  5
164
  330
160
  100
AcDbEntity
  8
2
  100
AcDbTrace
  10
43.206644
  20
-1.74
  30
0
  11
42.880328
  21
0.738612
  31
0
  12
43.532959
  22
0.738612
  32
0
  13
43.532959
  23
0.738612
  33
0
  0
SOLID
  5
165
  330
160
  100
AcDbEntity
  8
2
  100
AcDbTrace
  10
43.206644
  20
1.74
  30
0
  11
43.532959
  21
-0.738612
  31
0
  12
42.880328
  22
-0.738612
  32
0
  13
42.880328
  23
-0.738612
  33
0
  0
MTEXT
  5
166
  330
160
  100
AcDbEntity
  8
2
  100
AcDbMText
  10
43.206644
  20
3.649444
  30
0
  11
0
  21
1
  31
0
  40
2
  41
0
  71
8
  72
1
  1
Ø3.48
  0
POINT
  5
167
  330
160
  100
AcDbEntity
  8
2
  62
0
  100
AcDbPoint
  10
41.206644
  20
-1.74
  30
0
  0
POINT
  5
168
  330
160
  100
AcDbEntity
  8
2
  62
0
  100
AcDbPoint
  10
41.206644
  20
1.74
  30
0
  0
POINT
  5
169
  330
160
  100
AcDbEntity
  8
2
  62
0
  100
AcDbPoint
  10
43.206644
  20
12.983193
  30
0
  0
ENDBLK
  5
16a
  330
160
  100
AcDbEntity
  8
2
  100
AcDbBlockEnd
  0
BLOCK
  5
16c
  330
16e
  100
AcDbEntity
  8
2
  100
AcDbBlockBegin
  2
*D16d
  70
1
  10
0
  20
0
  30
0
  3
*D16d
  1

  0
LINE
  5
16f
  330
16e
  100
AcDbEntity
  8
2
  100
AcDbLine
  10
44.7
  20
-25.322624
  30
0
  11
44.7
  21
1.74
  31
0
  0
LINE
  5
170
  330
16e
  100
AcDbEntity
  8
2
  100
AcDbLine
  10
34.5
  20
-25.322624
  30
0
  11
34.5
  21
1.74
  31
0
  0
LINE
  5
171
  330
16e
  100
AcDbEntity
  8
2
  100
AcDbLine
  10
44.7
  20
-23.322624
  30
0
  11
34.5
  21
-23.322624
  31
0
  0
SOLID
  5
172
  330
16e
  100
AcDbEntity
  8
2
  100
AcDbTrace
  10
44.7
  20
-23.322624
  30
0
  11
47.178612
  21
-22.996309
  31
0
  12
47.178612
  22
-23.64894
  32
0
  13
47.178612
  23
-23.64894
  33
0
  0
SOLID
  5
173
  330
16e
  100
AcDbEntity
  8
2
  100
AcDbTrace
  10
34.5
  20
-23.322624
  30
0
  11
32.021388
  21
-23.64894
  31
0
  12
32.021388
  22
-22.996309
  32
0
  13
32.021388
  23
-22.996309
  33
0
  0
MTEXT
  5
174
  330
16e
  100
AcDbEntity
  8
2
  100
AcDbMText
  10
41.073585
  20
-23.322624
  30
0
  11
1
  21
-0
  31
0
  40
2
  41
0
  71
8
  72
1
  1
10.2
  0
POINT
  5
175
  330
16e
  100
AcDbEntity
  8
2
  62
0
  100
AcDbPoint
  10
44.7
  20
1.74
  30
0
  0
POINT
  5
176
  330
16e
  100
AcDbEntity
  8
2
  62
0
  100
AcDbPoint
  10
34.5
  20
1.74
  30
0
  0
POINT
  5
177
  330
16e
  100
AcDbEntity
  8
2
  62
0
  100
AcDbPoint
  10
34.5
  20
-23.322624
  30
0
  0
ENDBLK
  5
178
  330
16e
  100
AcDbEntity
  8
2
  100
AcDbBlockEnd
  0
BLOCK
  5
17a
  330
17c
  100
AcDbEntity
  8
2
  100
AcDbBlockBegin
  2
*D17b
  70
1
  10
0
  20
0
  30
0
  3
*D17b
  1

  0
LINE
  5
17d
  330
17c
  100
AcDbEntity
  8
2
  100
AcDbLine
  10
44.7
  20
-1.74
  30
0
  11
44.7
  21
-25.273643
  31
0
  0
LINE
  5
17e
  330
17c
  100
AcDbEntity
  8
2
  100
AcDbLine
  10
50
  20
-43.59485
  30
0
  11
50
  21
19.883274
  31
0
  0
LINE
  5
17f
  330
17c
  100
AcDbEntity
  8
2
  100
AcDbLine
  10
44.7
  20
-23.273643
  30
0
  11
52.689076
  21
-23.273643
  31
0
  0
SOLID
  5
180
  330
17c
  100
AcDbEntity
  8
2
  100
AcDbTrace
  10
44.7
  20
-23.273643
  30
0
  11
47.178612
  21
-22.947327
  31
0
  12
47.178612
  22
-23.599958
  32
0
  13
47.178612
  23
-23.599958
  33
0
  0
SOLID
  5
181
  330
17c
  100
AcDbEntity
  8
2
  100
AcDbTrace
  10
50
  20
-23.273643
  30
0
  11
47.521388
  21
-23.599958
  31
0
  12
47.521388
  22
-22.947327
  32
0
  13
47.521388
  23
-22.947327
  33
0
  0
MTEXT
  5
182
  330
17c
  100
AcDbEntity
  8
2
  100
AcDbMText
  10
50.325719
  20
-23.273643
  30
0
  11
1
  21
0
  31
0
  40
2
  41
0
  71
8
  72
1
  1
5.3
  0
POINT
  5
183
  330
17c
  100
AcDbEntity
  8
2
  62
0
  100
AcDbPoint
  10
44.7
  20
-1.74
  30
0
  0
POINT
  5
184
  330
17c
  100
AcDbEntity
  8
2
  62
0
  100
AcDbPoint
  10
50
  20
19.883274
  30
0
  0
POINT
  5
185
  330
17c
  100
AcDbEntity
  8
2
  62
0
  100
AcDbPoint
  10
52.689076
  20
-23.273643
  30
0
  0
ENDBLK
  5
186
  330
17c
  100
AcDbEntity
  8
2
  100
AcDbBlockEnd
  0
BLOCK
  5
188
  330
18a
  100
AcDbEntity
  8
2
  100
AcDbBlockBegin
  2
*D189
  70
1
  10
0
  20
0
  30
0
  3
*D189
  1

  0
LINE
  5
18b
  330
18a
  100
AcDbEntity
  8
2
  100
AcDbLine
  10
31.83
  20
19.883274
  30
0
  11
31.83
  21
-3
  31
0
  0
LINE
  5
18c
  330
18a
  100
AcDbEntity
  8
2
  100
AcDbLine
  10
50
  20
-43.59485
  30
0
  11
50
  21
19.883274
  31
0
  0
LINE
  5
18d
  330
18a
  100
AcDbEntity
  8
2
  100
AcDbLine
  10
31.83
  20
17.883274
  30
0
  11
50
  21
17.883274
  31
0
  0
SOLID
  5
18e
  330
18a
  100
AcDbEntity
  8
2
  100
AcDbTrace
  10
31.83
  20
17.883274
  30
0
  11
34.308612
  21
18.209589
  31
0
  12
34.308612
  22
17.556958
  32
0
  13
34.308612
  23
17.556958
  33
0
  0
SOLID
  5
18f
  330
18a
  100
AcDbEntity
  8
2
  100
AcDbTrace
  10
50
  20
17.883274
  30
0
  11
47.521388
  21
17.556958
  31
0
  12
47.521388
  22
18.209589
  32
0
  13
47.521388
  23
18.209589
  33
0
  0
MTEXT
  5
190
  330
18a
  100
AcDbEntity
  8
2
  100
AcDbMText
  10
39.181307
  20
17.883274
  30
0
  11
1
  21
0
  31
0
  40
2
  41
0
  71
8
  72
1
  1
18.17
  0
POINT
  5
191
  330
18a
  100
AcDbEntity
  8
2
  62
0
  100
AcDbPoint
  10
31.83
  20
-3
  30
0
  0
POINT
  5
192
  330
18a
  100
AcDbEntity
  8
2
  62
0
  100
AcDbPoint
  10
50
  20
-43.59485
  30
0
  0
POINT
  5
193
  330
18a
  100
AcDbEntity
  8
2
  62
0
  100
AcDbPoint
  10
50
  20
17.883274
  30
0
  0
ENDBLK
  5
194
  330
18a
  100
AcDbEntity
  8
2
  100
AcDbBlockEnd
  0
ENDSEC
  0
SECTION
  2
ENTITIES
  0
DIMENSION
  5
133
  100
AcDbEntity
  8
SK2
  100
AcDbDimension
  2
*D127
  10
50
  20
-41.59485
  30
0
  11
25
  21
-41.59485
  31
0
  70
160
  1
<>
  71
5
  3
STANDARD
  42
50
  100
AcDbAlignedDimension
  13
0
  23
2.6
  33
0
  14
50
  24
19.883274
  34
0
  50
0
  100
AcDbRotatedDimension
  0
DIMENSION
  5
141
  100
AcDbEntity
  8
SK2
  100
AcDbDimension
  2
*D135
  10
0
  20
-31.817496
  30
0
  11
16.412893
  21
-31.817496
  31
0
  70
160
  1
<>
  71
5
  3
STANDARD
  42
32.825786
  100
AcDbAlignedDimension
  13
32.825786
  23
3
  33
0
  14
0
  24
2.6
  34
0
  50
0
  100
AcDbRotatedDimension
  0
DIMENSION
  5
14f
  100
AcDbEntity
  8
SK2
  100
AcDbDimension
  2
*D143
  10
-10
  20
3
  30
0
  11
-10
  21
-0.064076
  31
0
  70
160
  1
%%c<>
  71
5
  3
STANDARD
  42
6
  100
AcDbAlignedDimension
  13
0.4
  23
-3
  33
0
  14
0.4
  24
3
  34
0
  50
-90
  100
AcDbRotatedDimension
  0
DIMENSION
  5
15d
  100
AcDbEntity
  8
2
  100
AcDbDimension
  2
*D151
  10
60
  20
7.184874
  30
0
  11
60
  21
7.345512
  31
0
  70
160
  1
%%c<>
  71
5
  3
STANDARD
  42
4.6
  100
AcDbAlignedDimension
  13
50
  23
-2.3
  33
0
  14
50
  24
2.3
  34
0
  50
-90
  100
AcDbRotatedDimension
  0
DIMENSION
  5
16b
  100
AcDbEntity
  8
2
  100
AcDbDimension
  2
*D15f
  10
43.206644
  20
12.983193
  30
0
  11
43.206644
  21
3.649444
  31
0
  70
160
  1
%%c<>
  71
5
  3
STANDARD
  42
3.48
  100
AcDbAlignedDimension
  13
41.206644
  23
-1.74
  33
0
  14
41.206644
  24
1.74
  34
0
  50
-90
  100
AcDbRotatedDimension
  0
DIMENSION
  5
179
  100
AcDbEntity
  8
2
  100
AcDbDimension
  2
*D16d
  10
34.5
  20
-23.322624
  30
0
  11
41.073585
  21
-23.322624
  31
0
  70
160
  1
<>
  71
5
  3
STANDARD
  42
10.2
  100
AcDbAlignedDimension
  13
44.7
  23
1.74
  33
0
  14
34.5
  24
1.74
  34
0
  50
0
  100
AcDbRotatedDimension
  0
DIMENSION
  5
187
  100
AcDbEntity
  8
2
  100
AcDbDimension
  2
*D17b
  10
52.689076
  20
-23.273643
  30
0
  11
50.325719
  21
-23.273643
  31
0
  70
160
  1
<>
  71
5
  3
STANDARD
  42
5.3
  100
AcDbAlignedDimension
  13
44.7
  23
-1.74
  33
0
  14
50
  24
19.883274
  34
0
  50
0
  100
AcDbRotatedDimension
  0
DIMENSION
  5
195
  100
AcDbEntity
  8
2
  100
AcDbDimension
  2
*D189
  10
50
  20
17.883274
  30
0
  11
39.181307
  21
17.883274
  31
0
  70
160
  1
<>
  71
5
  3
STANDARD
  42
18.17
  100
AcDbAlignedDimension
  13
31.83
  23
-3
  33
0
  14
50
  24
-43.59485
  34
0
  50
0
  100
AcDbRotatedDimension
  0
ARC
  5
36
  100
AcDbEntity
  8
1
  100
AcDbCircle
  10
34.5
  20
-2.74
  30
0
  40
1
  100
AcDbArc
  50
90
  51
135
  0
LINE
  5
37
  100
AcDbEntity
  8
1
  100
AcDbLine
  10
34.5
  20
-1.74
  30
0
  11
44.7
  21
-1.74
  31
0
  0
LINE
  5
38
  100
AcDbEntity
  8
1
  100
AcDbLine
  10
44.7
  20
-1.74
  30
0
  11
44.7
  21
-2.3
  31
0
  0
LINE
  5
39
  100
AcDbEntity
  8
1
  100
AcDbLine
  10
44.7
  20
-2.3
  30
0
  11
50
  21
-2.3
  31
0
  0
LINE
  5
3a
  100
AcDbEntity
  8
1
  100
AcDbLine
  10
50
  20
-2.3
  30
0
  11
50
  21
0
  31
0
  0
LINE
  5
3b
  100
AcDbEntity
  8
1
  100
AcDbLine
  10
50
  20
0
  30
0
  11
50
  21
2.3
  31
0
  0
LINE
  5
3c
  100
AcDbEntity
  8
1
  100
AcDbLine
  10
50
  20
2.3
  30
0
  11
44.7
  21
2.3
  31
0
  0
LINE
  5
3d
  100
AcDbEntity
  8
1
  100
AcDbLine
  10
44.7
  20
2.3
  30
0
  11
44.7
  21
1.74
  31
0
  0
LINE
  5
3e
  100
AcDbEntity
  8
1
  100
AcDbLine
  10
44.7
  20
1.74
  30
0
  11
34.5
  21
1.74
  31
0
  0
ARC
  5
3f
  100
AcDbEntity
  8
1
  100
AcDbCircle
  10
34.5
  20
2.74
  30
0
  40
1
  100
AcDbArc
  50
225
  51
270
  0
LINE
  5
40
  100
AcDbEntity
  8
1
  100
AcDbLine
  10
33.792893
  20
2.032893
  30
0
  11
32.825786
  21
3
  31
0
  0
LINE
  5
41
  100
AcDbEntity
  8
1
  100
AcDbLine
  10
32.825786
  20
3
  30
0
  11
31.83
  21
3
  31
0
  0
LINE
  5
42
  100
AcDbEntity
  8
1
  100
AcDbLine
  10
31.83
  20
3
  30
0
  11
31.83
  21
-3
  31
0
  0
LINE
  5
43
  100
AcDbEntity
  8
1
  100
AcDbLine
  10
31.83
  20
-3
  30
0
  11
32.825786
  21
-3
  31
0
  0
LINE
  5
44
  100
AcDbEntity
  8
1
  100
AcDbLine
  10
32.825786
  20
-3
  30
0
  11
33.792893
  21
-2.032893
  31
0
  0
LINE
  5
45
  100
AcDbEntity
  8
1
  100
AcDbLine
  10
50
  20
-2.3
  30
0
  11
50
  21
2.3
  31
0
  0
LINE
  5
46
  100
AcDbEntity
  8
1
  100
AcDbLine
  10
50
  20
2.3
  30
0
  11
49.9
  21
2.299275
  31
0
  0
LINE
  5
47
  100
AcDbEntity
  8
1
  100
AcDbLine
  10
49.9
  20
2.299275
  30
0
  11
49.8
  21
2.297102
  31
0
  0
LINE
  5
48
  100
AcDbEntity
  8
1
  100
AcDbLine
  10
49.8
  20
2.297102
  30
0
  11
49.7
  21
2.293481
  31
0
  0
LINE
  5
49
  100
AcDbEntity
  8
1
  100
AcDbLine
  10
49.7
  20
2.293481
  30
0
  11
49.6
  21
2.288416
  31
0
  0
LINE
  5
4a
  100
AcDbEntity
  8
1
  100
AcDbLine
  10
49.6
  20
2.288416
  30
0
  11
49.5
  21
2.281908
  31
0
  0
LINE
  5
4b
  100
AcDbEntity
  8
1
  100
AcDbLine
  10
49.5
  20
2.281908
  30
0
  11
49.4
  21
2.273962
  31
0
  0
LINE
  5
4c
  100
AcDbEntity
  8
1
  100
AcDbLine
  10
49.4
  20
2.273962
  30
0
  11
49.3
  21
2.264584
  31
0
  0
LINE
  5
4d
  100
AcDbEntity
  8
1
  100
AcDbLine
  10
49.3
  20
2.264584
  30
0
  11
49.2
  21
2.253779
  31
0
  0
LINE
  5
4e
  100
AcDbEntity
  8
1
  100
AcDbLine
  10
49.2
  20
2.253779
  30
0
  11
49.1
  21
2.241554
  31
0
  0
LINE
  5
4f
  100
AcDbEntity
  8
1
  100
AcDbLine
  10
49.1
  20
2.241554
  30
0
  11
49
  21
2.227916
  31
0
  0
LINE
  5
50
  100
AcDbEntity
  8
1
  100
AcDbLine
  10
49
  20
2.227916
  30
0
  11
48.9
  21
2.212875
  31
0
  0
LINE
  5
51
  100
AcDbEntity
  8
1
  100
AcDbLine
  10
48.9
  20
2.212875
  30
0
  11
48.8
  21
2.196439
  31
0
  0
LINE
  5
52
  100
AcDbEntity
  8
1
  100
AcDbLine
  10
48.8
  20
2.196439
  30
0
  11
48.7
  21
2.178619
  31
0
  0
LINE
  5
53
  100
AcDbEntity
  8
1
  100
AcDbLine
  10
48.7
  20
2.178619
  30
0
  11
48.6
  21
2.159427
  31
0
  0
LINE
  5
54
  100
AcDbEntity
  8
1
  100
AcDbLine
  10
48.6
  20
2.159427
  30
0
  11
48.5
  21
2.138874
  31
0
  0
LINE
  5
55
  100
AcDbEntity
  8
1
  100
AcDbLine
  10
48.5
  20
2.138874
  30
0
  11
48.4
  21
2.116973
  31
0
  0
LINE
  5
56
  100
AcDbEntity
  8
1
  100
AcDbLine
  10
48.4
  20
2.116973
  30
0
  11
48.3
  21
2.093739
  31
0
  0
LINE
  5
57
  100
AcDbEntity
  8
1
  100
AcDbLine
  10
48.3
  20
2.093739
  30
0
  11
48.2
  21
2.069185
  31
0
  0
LINE
  5
58
  100
AcDbEntity
  8
1
  100
AcDbLine
  10
48.2
  20
2.069185
  30
0
  11
48.1
  21
2.043327
  31
0
  0
LINE
  5
59
  100
AcDbEntity
  8
1
  100
AcDbLine
  10
48.1
  20
2.043327
  30
0
  11
48
  21
2.016182
  31
0
  0
LINE
  5
5a
  100
AcDbEntity
  8
1
  100
AcDbLine
  10
48
  20
2.016182
  30
0
  11
47.9
  21
1.987767
  31
0
  0
LINE
  5
5b
  100
AcDbEntity
  8
1
  100
AcDbLine
  10
47.9
  20
1.987767
  30
0
  11
47.8
  21
1.958099
  31
0
  0
LINE
  5
5c
  100
AcDbEntity
  8
1
  100
AcDbLine
  10
47.8
  20
1.958099
  30
0
  11
47.7
  21
1.927197
  31
0
  0
LINE
  5
5d
  100
AcDbEntity
  8
1
  100
AcDbLine
  10
47.7
  20
1.927197
  30
0
  11
47.6
  21
1.895081
  31
0
  0
LINE
  5
5e
  100
AcDbEntity
  8
1
  100
AcDbLine
  10
47.6
  20
1.895081
  30
0
  11
47.5
  21
1.861771
  31
0
  0
LINE
  5
5f
  100
AcDbEntity
  8
1
  100
AcDbLine
  10
47.5
  20
1.861771
  30
0
  11
47.4
  21
1.827288
  31
0
  0
LINE
  5
60
  100
AcDbEntity
  8
1
  100
AcDbLine
  10
47.4
  20
1.827288
  30
0
  11
47.3
  21
1.791654
  31
0
  0
LINE
  5
61
  100
AcDbEntity
  8
1
  100
AcDbLine
  10
47.3
  20
1.791654
  30
0
  11
47.2
  21
1.75489
  31
0
  0
LINE
  5
62
  100
AcDbEntity
  8
1
  100
AcDbLine
  10
47.2
  20
1.75489
  30
0
  11
47.1
  21
1.717021
  31
0
  0
LINE
  5
63
  100
AcDbEntity
  8
1
  100
AcDbLine
  10
47.1
  20
1.717021
  30
0
  11
47
  21
1.67807
  31
0
  0
LINE
  5
64
  100
AcDbEntity
  8
1
  100
AcDbLine
  10
47
  20
1.67807
  30
0
  11
46.9
  21
1.638062
  31
0
  0
LINE
  5
65
  100
AcDbEntity
  8
1
  100
AcDbLine
  10
46.9
  20
1.638062
  30
0
  11
46.8
  21
1.597022
  31
0
  0
LINE
  5
66
  100
AcDbEntity
  8
1
  100
AcDbLine
  10
46.8
  20
1.597022
  30
0
  11
46.7
  21
1.554975
  31
0
  0
LINE
  5
67
  100
AcDbEntity
  8
1
  100
AcDbLine
  10
46.7
  20
1.554975
  30
0
  11
46.6
  21
1.511949
  31
0
  0
LINE
  5
68
  100
AcDbEntity
  8
1
  100
AcDbLine
  10
46.6
  20
1.511949
  30
0
  11
46.5
  21
1.46797
  31
0
  0
LINE
  5
69
  100
AcDbEntity
  8
1
  100
AcDbLine
  10
46.5
  20
1.46797
  30
0
  11
46.4
  21
1.423066
  31
0
  0
LINE
  5
6a
  100
AcDbEntity
  8
1
  100
AcDbLine
  10
46.4
  20
1.423066
  30
0
  11
46.3
  21
1.377265
  31
0
  0
LINE
  5
6b
  100
AcDbEntity
  8
1
  100
AcDbLine
  10
46.3
  20
1.377265
  30
0
  11
46.2
  21
1.330596
  31
0
  0
LINE
  5
6c
  100
AcDbEntity
  8
1
  100
AcDbLine
  10
46.2
  20
1.330596
  30
0
  11
46.1
  21
1.28309
  31
0
  0
LINE
  5
6d
  100
AcDbEntity
  8
1
  100
AcDbLine
  10
46.1
  20
1.28309
  30
0
  11
46
  21
1.234774
  31
0
  0
LINE
  5
6e
  100
AcDbEntity
  8
1
  100
AcDbLine
  10
46
  20
1.234774
  30
0
  11
45.9
  21
1.185681
  31
0
  0
LINE
  5
6f
  100
AcDbEntity
  8
1
  100
AcDbLine
  10
45.9
  20
1.185681
  30
0
  11
45.8
  21
1.13584
  31
0
  0
LINE
  5
70
  100
AcDbEntity
  8
1
  100
AcDbLine
  10
45.8
  20
1.13584
  30
0
  11
45.7
  21
1.085284
  31
0
  0
LINE
  5
71
  100
AcDbEntity
  8
1
  100
AcDbLine
  10
45.7
  20
1.085284
  30
0
  11
45.6
  21
1.034044
  31
0
  0
LINE
  5
72
  100
AcDbEntity
  8
1
  100
AcDbLine
  10
45.6
  20
1.034044
  30
0
  11
45.5
  21
0.982153
  31
0
  0
LINE
  5
73
  100
AcDbEntity
  8
1
  100
AcDbLine
  10
45.5
  20
0.982153
  30
0
  11
45.4
  21
0.929643
  31
0
  0
LINE
  5
74
  100
AcDbEntity
  8
1
  100
AcDbLine
  10
45.4
  20
0.929643
  30
0
  11
45.3
  21
0.876547
  31
0
  0
LINE
  5
75
  100
AcDbEntity
  8
1
  100
AcDbLine
  10
45.3
  20
0.876547
  30
0
  11
45.2
  21
0.822898
  31
0
  0
LINE
  5
76
  100
AcDbEntity
  8
1
  100
AcDbLine
  10
45.2
  20
0.822898
  30
0
  11
45.1
  21
0.768731
  31
0
  0
LINE
  5
77
  100
AcDbEntity
  8
1
  100
AcDbLine
  10
45.1
  20
0.768731
  30
0
  11
45
  21
0.71408
  31
0
  0
LINE
  5
78
  100
AcDbEntity
  8
1
  100
AcDbLine
  10
45
  20
0.71408
  30
0
  11
44.9
  21
0.658979
  31
0
  0
LINE
  5
79
  100
AcDbEntity
  8
1
  100
AcDbLine
  10
44.9
  20
0.658979
  30
0
  11
44.8
  21
0.603463
  31
0
  0
LINE
  5
7a
  100
AcDbEntity
  8
1
  100
AcDbLine
  10
44.8
  20
0.603463
  30
0
  11
44.7
  21
0.547566
  31
0
  0
LINE
  5
7b
  100
AcDbEntity
  8
1
  100
AcDbLine
  10
44.7
  20
0.547566
  30
0
  11
44.7
  21
0.337134
  31
0
  0
LINE
  5
7c
  100
AcDbEntity
  8
1
  100
AcDbLine
  10
44.7
  20
0.337134
  30
0
  11
44.6
  21
0.294183
  31
0
  0
LINE
  5
7d
  100
AcDbEntity
  8
1
  100
AcDbLine
  10
44.6
  20
0.294183
  30
0
  11
44.5
  21
0.251045
  31
0
  0
LINE
  5
7e
  100
AcDbEntity
  8
1
  100
AcDbLine
  10
44.5
  20
0.251045
  30
0
  11
44.4
  21
0.20775
  31
0
  0
LINE
  5
7f
  100
AcDbEntity
  8
1
  100
AcDbLine
  10
44.4
  20
0.20775
  30
0
  11
44.3
  21
0.164324
  31
0
  0
LINE
  5
80
  100
AcDbEntity
  8
1
  100
AcDbLine
  10
44.3
  20
0.164324
  30
0
  11
44.2
  21
0.120794
  31
0
  0
LINE
  5
81
  100
AcDbEntity
  8
1
  100
AcDbLine
  10
44.2
  20
0.120794
  30
0
  11
44.1
  21
0.077188
  31
0
  0
LINE
  5
82
  100
AcDbEntity
  8
1
  100
AcDbLine
  10
44.1
  20
0.077188
  30
0
  11
44
  21
0.033535
  31
0
  0
LINE
  5
83
  100
AcDbEntity
  8
1
  100
AcDbLine
  10
44
  20
0.033535
  30
0
  11
43.9
  21
-0.010136
  31
0
  0
LINE
  5
84
  100
AcDbEntity
  8
1
  100
AcDbLine
  10
43.9
  20
-0.010136
  30
0
  11
43.8
  21
-0.053787
  31
0
  0
LINE
  5
85
  100
AcDbEntity
  8
1
  100
AcDbLine
  10
43.8
  20
-0.053787
  30
0
  11
43.7
  21
-0.097361
  31
0
  0
LINE
  5
86
  100
AcDbEntity
  8
1
  100
AcDbLine
  10
43.7
  20
-0.097361
  30
0
  11
43.6
  21
-0.14075
  31
0
  0
LINE
  5
87
  100
AcDbEntity
  8
1
  100
AcDbLine
  10
43.6
  20
-0.14075
  30
0
  11
43.5
  21
-0.183739
  31
0
  0
LINE
  5
88
  100
AcDbEntity
  8
1
  100
AcDbLine
  10
43.5
  20
-0.183739
  30
0
  11
43.4
  21
-0.225877
  31
0
  0
LINE
  5
89
  100
AcDbEntity
  8
1
  100
AcDbLine
  10
43.4
  20
-0.225877
  30
0
  11
43.3
  21
-0.266256
  31
0
  0
LINE
  5
8a
  100
AcDbEntity
  8
1
  100
AcDbLine
  10
43.3
  20
-0.266256
  30
0
  11
43.2
  21
-0.303113
  31
0
  0
LINE
  5
8b
  100
AcDbEntity
  8
1
  100
AcDbLine
  10
43.2
  20
-0.303113
  30
0
  11
43.1
  21
-0.333155
  31
0
  0
LINE
  5
8c
  100
AcDbEntity
  8
1
  100
AcDbLine
  10
43.1
  20
-0.333155
  30
0
  11
43
  21
-0.350448
  31
0
  0
LINE
  5
8d
  100
AcDbEntity
  8
1
  100
AcDbLine
  10
43
  20
-0.350448
  30
0
  11
42.9
  21
-0.344593
  31
0
  0
LINE
  5
8e
  100
AcDbEntity
  8
1
  100
AcDbLine
  10
42.9
  20
-0.344593
  30
0
  11
42.8
  21
-0.297735
  31
0
  0
LINE
  5
8f
  100
AcDbEntity
  8
1
  100
AcDbLine
  10
42.8
  20
-0.297735
  30
0
  11
42.7
  21
-0.179764
  31
0
  0
LINE
  5
90
  100
AcDbEntity
  8
1
  100
AcDbLine
  10
42.7
  20
-0.179764
  30
0
  11
42.6
  21
0.058111
  31
0
  0
LINE
  5
91
  100
AcDbEntity
  8
1
  100
AcDbLine
  10
42.6
  20
0.058111
  30
0
  11
42.5
  21
0.483521
  31
0
  0
LINE
  5
92
  100
AcDbEntity
  8
1
  100
AcDbLine
  10
42.5
  20
0.483521
  30
0
  11
42.4
  21
1.129862
  31
0
  0
LINE
  5
93
  100
AcDbEntity
  8
1
  100
AcDbLine
  10
42.4
  20
1.129862
  30
0
  11
42.4
  21
0.996107
  31
0
  0
LINE
  5
94
  100
AcDbEntity
  8
1
  100
AcDbLine
  10
42.4
  20
0.996107
  30
0
  11
42.5
  21
1.482972
  31
0
  0
LINE
  5
95
  100
AcDbEntity
  8
1
  100
AcDbLine
  10
42.5
  20
1.482972
  30
0
  11
42.6
  21
1.698807
  31
0
  0
LINE
  5
96
  100
AcDbEntity
  8
1
  100
AcDbLine
  10
42.6
  20
1.698807
  30
0
  11
42.681437
  21
1.74
  31
0
  0
LINE
  5
97
  100
AcDbEntity
  8
1
  100
AcDbLine
  10
44.7
  20
1.74
  30
0
  11
44.7
  21
-1.74
  31
0
  0
LINE
  5
98
  100
AcDbEntity
  8
1
  100
AcDbLine
  10
44.7
  20
-2.3
  30
0
  11
44.7
  21
2.3
  31
0
  0
LINE
  5
99
  100
AcDbEntity
  8
1
  100
AcDbLine
  10
42.681437
  20
-1.74
  30
0
  11
42.7
  21
-1.737884
  31
0
  0
LINE
  5
9a
  100
AcDbEntity
  8
1
  100
AcDbLine
  10
42.7
  20
-1.737884
  30
0
  11
42.8
  21
-1.680115
  31
0
  0
LINE
  5
9b
  100
AcDbEntity
  8
1
  100
AcDbLine
  10
42.8
  20
-1.680115
  30
0
  11
42.9
  21
-1.579211
  31
0
  0
LINE
  5
9c
  100
AcDbEntity
  8
1
  100
AcDbLine
  10
42.9
  20
-1.579211
  30
0
  11
43
  21
-1.466515
  31
0
  0
LINE
  5
9d
  100
AcDbEntity
  8
1
  100
AcDbLine
  10
43
  20
-1.466515
  30
0
  11
43.1
  21
-1.358097
  31
0
  0
LINE
  5
9e
  100
AcDbEntity
  8
1
  100
AcDbLine
  10
43.1
  20
-1.358097
  30
0
  11
43.2
  21
-1.260783
  31
0
  0
LINE
  5
9f
  100
AcDbEntity
  8
1
  100
AcDbLine
  10
43.2
  20
-1.260783
  30
0
  11
43.3
  21
-1.176293
  31
0
  0
LINE
  5
a0
  100
AcDbEntity
  8
1
  100
AcDbLine
  10
43.3
  20
-1.176293
  30
0
  11
43.4
  21
-1.103785
  31
0
  0
LINE
  5
a1
  100
AcDbEntity
  8
1
  100
AcDbLine
  10
43.4
  20
-1.103785
  30
0
  11
43.5
  21
-1.041337
  31
0
  0
LINE
  5
a2
  100
AcDbEntity
  8
1
  100
AcDbLine
  10
43.5
  20
-1.041337
  30
0
  11
43.6
  21
-0.98674
  31
0
  0
LINE
  5
a3
  100
AcDbEntity
  8
1
  100
AcDbLine
  10
43.6
  20
-0.98674
  30
0
  11
43.7
  21
-0.937907
  31
0
  0
LINE
  5
a4
  100
AcDbEntity
  8
1
  100
AcDbLine
  10
43.7
  20
-0.937907
  30
0
  11
43.8
  21
-0.893051
  31
0
  0
LINE
  5
a5
  100
AcDbEntity
  8
1
  100
AcDbLine
  10
43.8
  20
-0.893051
  30
0
  11
43.9
  21
-0.850742
  31
0
  0
LINE
  5
a6
  100
AcDbEntity
  8
1
  100
AcDbLine
  10
43.9
  20
-0.850742
  30
0
  11
44
  21
-0.809901
  31
0
  0
LINE
  5
a7
  100
AcDbEntity
  8
1
  100
AcDbLine
  10
44
  20
-0.809901
  30
0
  11
44.1
  21
-0.769759
  31
0
  0
LINE
  5
a8
  100
AcDbEntity
  8
1
  100
AcDbLine
  10
44.1
  20
-0.769759
  30
0
  11
44.2
  21
-0.729804
  31
0
  0
LINE
  5
a9
  100
AcDbEntity
  8
1
  100
AcDbLine
  10
44.2
  20
-0.729804
  30
0
  11
44.3
  21
-0.689723
  31
0
  0
LINE
  5
aa
  100
AcDbEntity
  8
1
  100
AcDbLine
  10
44.3
  20
-0.689723
  30
0
  11
44.4
  21
-0.64935
  31
0
  0
LINE
  5
ab
  100
AcDbEntity
  8
1
  100
AcDbLine
  10
44.4
  20
-0.64935
  30
0
  11
44.5
  21
-0.608615
  31
0
  0
LINE
  5
ac
  100
AcDbEntity
  8
1
  100
AcDbLine
  10
44.5
  20
-0.608615
  30
0
  11
44.6
  21
-0.567508
  31
0
  0
LINE
  5
ad
  100
AcDbEntity
  8
1
  100
AcDbLine
  10
44.6
  20
-0.567508
  30
0
  11
44.7
  21
-0.526044
  31
0
  0
LINE
  5
ae
  100
AcDbEntity
  8
1
  100
AcDbLine
  10
44.7
  20
-0.526044
  30
0
  11
44.7
  21
-0.249484
  31
0
  0
LINE
  5
af
  100
AcDbEntity
  8
1
  100
AcDbLine
  10
44.7
  20
-0.249484
  30
0
  11
44.8
  21
-0.192018
  31
0
  0
LINE
  5
b0
  100
AcDbEntity
  8
1
  100
AcDbLine
  10
44.8
  20
-0.192018
  30
0
  11
44.9
  21
-0.13443
  31
0
  0
LINE
  5
b1
  100
AcDbEntity
  8
1
  100
AcDbLine
  10
44.9
  20
-0.13443
  30
0
  11
45
  21
-0.076757
  31
0
  0
LINE
  5
b2
  100
AcDbEntity
  8
1
  100
AcDbLine
  10
45
  20
-0.076757
  30
0
  11
45.1
  21
-0.019036
  31
0
  0
LINE
  5
b3
  100
AcDbEntity
  8
1
  100
AcDbLine
  10
45.1
  20
-0.019036
  30
0
  11
45.2
  21
0.038697
  31
0
  0
LINE
  5
b4
  100
AcDbEntity
  8
1
  100
AcDbLine
  10
45.2
  20
0.038697
  30
0
  11
45.3
  21
0.096406
  31
0
  0
LINE
  5
b5
  100
AcDbEntity
  8
1
  100
AcDbLine
  10
45.3
  20
0.096406
  30
0
  11
45.4
  21
0.154053
  31
0
  0
LINE
  5
b6
  100
AcDbEntity
  8
1
  100
AcDbLine
  10
45.4
  20
0.154053
  30
0
  11
45.5
  21
0.211604
  31
0
  0
LINE
  5
b7
  100
AcDbEntity
  8
1
  100
AcDbLine
  10
45.5
  20
0.211604
  30
0
  11
45.6
  21
0.269022
  31
0
  0
LINE
  5
b8
  100
AcDbEntity
  8
1
  100
AcDbLine
  10
45.6
  20
0.269022
  30
0
  11
45.7
  21
0.32627
  31
0
  0
LINE
  5
b9
  100
AcDbEntity
  8
1
  100
AcDbLine
  10
45.7
  20
0.32627
  30
0
  11
45.8
  21
0.383312
  31
0
  0
LINE
  5
ba
  100
AcDbEntity
  8
1
  100
AcDbLine
  10
45.8
  20
0.383312
  30
0
  11
45.9
  21
0.440113
  31
0
  0
LINE
  5
bb
  100
AcDbEntity
  8
1
  100
AcDbLine
  10
45.9
  20
0.440113
  30
0
  11
46
  21
0.496636
  31
0
  0
LINE
  5
bc
  100
AcDbEntity
  8
1
  100
AcDbLine
  10
46
  20
0.496636
  30
0
  11
46.1
  21
0.552847
  31
0
  0
LINE
  5
bd
  100
AcDbEntity
  8
1
  100
AcDbLine
  10
46.1
  20
0.552847
  30
0
  11
46.2
  21
0.608709
  31
0
  0
LINE
  5
be
  100
AcDbEntity
  8
1
  100
AcDbLine
  10
46.2
  20
0.608709
  30
0
  11
46.3
  21
0.664188
  31
0
  0
LINE
  5
bf
  100
AcDbEntity
  8
1
  100
AcDbLine
  10
46.3
  20
0.664188
  30
0
  11
46.4
  21
0.719248
  31
0
  0
LINE
  5
c0
  100
AcDbEntity
  8
1
  100
AcDbLine
  10
46.4
  20
0.719248
  30
0
  11
46.5
  21
0.773855
  31
0
  0
LINE
  5
c1
  100
AcDbEntity
  8
1
  100
AcDbLine
  10
46.5
  20
0.773855
  30
0
  11
46.6
  21
0.827975
  31
0
  0
LINE
  5
c2
  100
AcDbEntity
  8
1
  100
AcDbLine
  10
46.6
  20
0.827975
  30
0
  11
46.7
  21
0.881573
  31
0
  0
LINE
  5
c3
  100
AcDbEntity
  8
1
  100
AcDbLine
  10
46.7
  20
0.881573
  30
0
  11
46.8
  21
0.934615
  31
0
  0
LINE
  5
c4
  100
AcDbEntity
  8
1
  100
AcDbLine
  10
46.8
  20
0.934615
  30
0
  11
46.9
  21
0.987068
  31
0
  0
LINE
  5
c5
  100
AcDbEntity
  8
1
  100
AcDbLine
  10
46.9
  20
0.987068
  30
0
  11
47
  21
1.0389
  31
0
  0
LINE
  5
c6
  100
AcDbEntity
  8
1
  100
AcDbLine
  10
47
  20
1.0389
  30
0
  11
47.1
  21
1.090077
  31
0
  0
LINE
  5
c7
  100
AcDbEntity
  8
1
  100
AcDbLine
  10
47.1
  20
1.090077
  30
0
  11
47.2
  21
1.140567
  31
0
  0
LINE
  5
c8
  100
AcDbEntity
  8
1
  100
AcDbLine
  10
47.2
  20
1.140567
  30
0
  11
47.3
  21
1.190338
  31
0
  0
LINE
  5
c9
  100
AcDbEntity
  8
1
  100
AcDbLine
  10
47.3
  20
1.190338
  30
0
  11
47.4
  21
1.239359
  31
0
  0
LINE
  5
ca
  100
AcDbEntity
  8
1
  100
AcDbLine
  10
47.4
  20
1.239359
  30
0
  11
47.5
  21
1.2876
  31
0
  0
LINE
  5
cb
  100
AcDbEntity
  8
1
  100
AcDbLine
  10
47.5
  20
1.2876
  30
0
  11
47.6
  21
1.335029
  31
0
  0
LINE
  5
cc
  100
AcDbEntity
  8
1
  100
AcDbLine
  10
47.6
  20
1.335029
  30
0
  11
47.7
  21
1.381617
  31
0
  0
LINE
  5
cd
  100
AcDbEntity
  8
1
  100
AcDbLine
  10
47.7
  20
1.381617
  30
0
  11
47.8
  21
1.427334
  31
0
  0
LINE
  5
ce
  100
AcDbEntity
  8
1
  100
AcDbLine
  10
47.8
  20
1.427334
  30
0
  11
47.9
  21
1.472153
  31
0
  0
LINE
  5
cf
  100
AcDbEntity
  8
1
  100
AcDbLine
  10
47.9
  20
1.472153
  30
0
  11
48
  21
1.516043
  31
0
  0
LINE
  5
d0
  100
AcDbEntity
  8
1
  100
AcDbLine
  10
48
  20
1.516043
  30
0
  11
48.1
  21
1.558978
  31
0
  0
LINE
  5
d1
  100
AcDbEntity
  8
1
  100
AcDbLine
  10
48.1
  20
1.558978
  30
0
  11
48.2
  21
1.600931
  31
0
  0
LINE
  5
d2
  100
AcDbEntity
  8
1
  100
AcDbLine
  10
48.2
  20
1.600931
  30
0
  11
48.3
  21
1.641876
  31
0
  0
LINE
  5
d3
  100
AcDbEntity
  8
1
  100
AcDbLine
  10
48.3
  20
1.641876
  30
0
  11
48.4
  21
1.681785
  31
0
  0
LINE
  5
d4
  100
AcDbEntity
  8
1
  100
AcDbLine
  10
48.4
  20
1.681785
  30
0
  11
48.5
  21
1.720635
  31
0
  0
LINE
  5
d5
  100
AcDbEntity
  8
1
  100
AcDbLine
  10
48.5
  20
1.720635
  30
0
  11
48.6
  21
1.758401
  31
0
  0
LINE
  5
d6
  100
AcDbEntity
  8
1
  100
AcDbLine
  10
48.6
  20
1.758401
  30
0
  11
48.7
  21
1.795059
  31
0
  0
LINE
  5
d7
  100
AcDbEntity
  8
1
  100
AcDbLine
  10
48.7
  20
1.795059
  30
0
  11
48.8
  21
1.830586
  31
0
  0
LINE
  5
d8
  100
AcDbEntity
  8
1
  100
AcDbLine
  10
48.8
  20
1.830586
  30
0
  11
48.9
  21
1.86496
  31
0
  0
LINE
  5
d9
  100
AcDbEntity
  8
1
  100
AcDbLine
  10
48.9
  20
1.86496
  30
0
  11
49
  21
1.898158
  31
0
  0
LINE
  5
da
  100
AcDbEntity
  8
1
  100
AcDbLine
  10
49
  20
1.898158
  30
0
  11
49.1
  21
1.93016
  31
0
  0
LINE
  5
db
  100
AcDbEntity
  8
1
  100
AcDbLine
  10
49.1
  20
1.93016
  30
0
  11
49.2
  21
1.960947
  31
0
  0
LINE
  5
dc
  100
AcDbEntity
  8
1
  100
AcDbLine
  10
49.2
  20
1.960947
  30
0
  11
49.3
  21
1.990497
  31
0
  0
LINE
  5
dd
  100
AcDbEntity
  8
1
  100
AcDbLine
  10
49.3
  20
1.990497
  30
0
  11
49.4
  21
2.018794
  31
0
  0
LINE
  5
de
  100
AcDbEntity
  8
1
  100
AcDbLine
  10
49.4
  20
2.018794
  30
0
  11
49.5
  21
2.045818
  31
0
  0
LINE
  5
df
  100
AcDbEntity
  8
1
  100
AcDbLine
  10
49.5
  20
2.045818
  30
0
  11
49.6
  21
2.071554
  31
0
  0
LINE
  5
e0
  100
AcDbEntity
  8
1
  100
AcDbLine
  10
49.6
  20
2.071554
  30
0
  11
49.7
  21
2.095984
  31
0
  0
LINE
  5
e1
  100
AcDbEntity
  8
1
  100
AcDbLine
  10
49.7
  20
2.095984
  30
0
  11
49.8
  21
2.119093
  31
0
  0
LINE
  5
e2
  100
AcDbEntity
  8
1
  100
AcDbLine
  10
49.8
  20
2.119093
  30
0
  11
49.9
  21
2.140868
  31
0
  0
LINE
  5
e3
  100
AcDbEntity
  8
1
  100
AcDbLine
  10
49.9
  20
2.140868
  30
0
  11
50
  21
2.161293
  31
0
  0
LINE
  5
e4
  100
AcDbEntity
  8
1
  100
AcDbLine
  10
34.5
  20
1.74
  30
0
  11
34.5
  21
-1.74
  31
0
  0
LINE
  5
e5
  100
AcDbEntity
  8
1
  100
AcDbLine
  10
33.792893
  20
2.032893
  30
0
  11
33.792893
  21
-2.032893
  31
0
  0
LINE
  5
e6
  100
AcDbEntity
  8
1
  100
AcDbLine
  10
32.825786
  20
3
  30
0
  11
32.825786
  21
-3
  31
0
  0
LINE
  5
e7
  100
AcDbEntity
  8
1
  100
AcDbLine
  10
32.825786
  20
-3
  30
0
  11
32.825786
  21
3
  31
0
  0
LINE
  5
e8
  100
AcDbEntity
  8
SK1
  100
AcDbLine
  10
31.83
  20
3
  30
0
  11
0.4
  21
3
  31
0
  0
LINE
  5
e9
  100
AcDbEntity
  8
SK1
  100
AcDbLine
  10
0.4
  20
3
  30
0
  11
0
  21
2.6
  31
0
  0
LINE
  5
ea
  100
AcDbEntity
  8
SK1
  100
AcDbLine
  10
31.83
  20
-3
  30
0
  11
0.4
  21
-3
  31
0
  0
LINE
  5
eb
  100
AcDbEntity
  8
SK1
  100
AcDbLine
  10
0.4
  20
-3
  30
0
  11
0
  21
-2.6
  31
0
  0
LINE
  5
ec
  100
AcDbEntity
  8
SK1
  100
AcDbLine
  10
0.4
  20
3
  30
0
  11
0.4
  21
-3
  31
0
  0
LINE
  5
ed
  100
AcDbEntity
  8
SK1
  100
AcDbLine
  10
0
  20
2.6
  30
0
  11
0
  21
-2.6
  31
0
  0
LINE
  5
ee
  100
AcDbEntity
  8
SK1
  100
AcDbLine
  10
32.8701
  20
1.40688
  30
0
  11
33.2369
  21
1.0401
  31
0
  0
LINE
  5
ef
  100
AcDbEntity
  8
SK1
  100
AcDbLine
  10
32.3628
  20
1.66666
  30
0
  11
33.4967
  21
0.532833
  31
0
  0
LINE
  5
f0
  100
AcDbEntity
  8
SK1
  100
AcDbLine
  10
32.0454
  20
1.73657
  30
0
  11
33.5666
  21
0.215434
  31
0
  0
LINE
  5
f1
  100
AcDbEntity
  8
SK1
  100
AcDbLine
  10
31.83
  20
1.70452
  30
0
  11
33.5345
  21
0
  31
0
  0
LINE
  5
f2
  100
AcDbEntity
  8
SK1
  100
AcDbLine
  10
31.83
  20
1.45703
  30
0
  11
33.287
  21
0
  31
0
  0
LINE
  5
f3
  100
AcDbEntity
  8
SK1
  100
AcDbLine
  10
31.83
  20
1.20954
  30
0
  11
33.0395
  21
0
  31
0
  0
LINE
  5
f4
  100
AcDbEntity
  8
SK1
  100
AcDbLine
  10
31.83
  20
0.962054
  30
0
  11
32.7921
  21
0
  31
0
  0
LINE
  5
f5
  100
AcDbEntity
  8
SK1
  100
AcDbLine
  10
31.83
  20
0.714566
  30
0
  11
32.5446
  21
0
  31
0
  0
LINE
  5
f6
  100
AcDbEntity
  8
SK1
  100
AcDbLine
  10
31.83
  20
0.467079
  30
0
  11
32.2971
  21
0
  31
0
  0
LINE
  5
f7
  100
AcDbEntity
  8
SK1
  100
AcDbLine
  10
31.83
  20
0.219592
  30
0
  11
32.0496
  21
0
  31
0
  0
LINE
  5
f8
  100
AcDbEntity
  8
SK1
  100
AcDbLine
  10
31.83
  20
1.70452
  30
0
  11
31.8741
  21
1.74861
  31
0
  0
LINE
  5
f9
  100
AcDbEntity
  8
SK1
  100
AcDbLine
  10
31.83
  20
1.45703
  30
0
  11
32.101
  21
1.72802
  31
0
  0
LINE
  5
fa
  100
AcDbEntity
  8
SK1
  100
AcDbLine
  10
31.83
  20
1.20954
  30
0
  11
32.3042
  21
1.6837
  31
0
  0
LINE
  5
fb
  100
AcDbEntity
  8
SK1
  100
AcDbLine
  10
31.83
  20
0.962054
  30
0
  11
32.4888
  21
1.62082
  31
0
  0
LINE
  5
fc
  100
AcDbEntity
  8
SK1
  100
AcDbLine
  10
31.83
  20
0.714566
  30
0
  11
32.6571
  21
1.54167
  31
0
  0
LINE
  5
fd
  100
AcDbEntity
  8
SK1
  100
AcDbLine
  10
31.83
  20
0.467079
  30
0
  11
32.811
  21
1.44812
  31
0
  0
LINE
  5
fe
  100
AcDbEntity
  8
SK1
  100
AcDbLine
  10
31.83
  20
0.219592
  30
0
  11
32.9526
  21
1.34216
  31
0
  0
LINE
  5
ff
  100
AcDbEntity
  8
SK1
  100
AcDbLine
  10
31.8579
  20
0
  30
0
  11
33.0808
  21
1.22288
  31
0
  0
LINE
  5
100
  100
AcDbEntity
  8
SK1
  100
AcDbLine
  10
32.1054
  20
0
  30
0
  11
33.197
  21
1.09157
  31
0
  0
LINE
  5
101
  100
AcDbEntity
  8
SK1
  100
AcDbLine
  10
32.3529
  20
0
  30
0
  11
33.3007
  21
0.947822
  31
0
  0
LINE
  5
102
  100
AcDbEntity
  8
SK1
  100
AcDbLine
  10
32.6004
  20
0
  30
0
  11
33.3905
  21
0.790145
  31
0
  0
LINE
  5
103
  100
AcDbEntity
  8
SK1
  100
AcDbLine
  10
32.8478
  20
0
  30
0
  11
33.4664
  21
0.618517
  31
0
  0
LINE
  5
104
  100
AcDbEntity
  8
SK1
  100
AcDbLine
  10
33.0953
  20
0
  30
0
  11
33.526
  21
0.430696
  31
0
  0
LINE
  5
105
  100
AcDbEntity
  8
SK1
  100
AcDbLine
  10
33.3428
  20
0
  30
0
  11
33.5656
  21
0.222827
  31
0
  0
LINE
  5
106
  100
AcDbEntity
  8
SK1
  100
AcDbLine
  10
31.83
  20
0
  30
0
  11
31.83
  21
1.75
  31
0
  0
LINE
  5
107
  100
AcDbEntity
  8
SK1
  100
AcDbLine
  10
31.83
  20
0
  30
0
  11
33.58
  21
0
  31
0
  0
ARC
  5
108
  100
AcDbEntity
  8
SK1
  100
AcDbCircle
  10
31.83
  20
0
  30
0
  40
1.75
  100
AcDbArc
  50
0
  51
90
  0
ARC
  5
109
  100
AcDbEntity
  8
SK1
  100
AcDbCircle
  10
31.83
  20
0
  30
0
  40
1.75
  100
AcDbArc
  50
90
  51
180
  0
LINE
  5
10a
  100
AcDbEntity
  8
SK1
  100
AcDbLine
  10
31.8021
  20
0
  30
0
  11
31.83
  21
-0.027896
  31
0
  0
LINE
  5
10b
  100
AcDbEntity
  8
SK1
  100
AcDbLine
  10
31.5546
  20
0
  30
0
  11
31.83
  21
-0.275383
  31
0
  0
LINE
  5
10c
  100
AcDbEntity
  8
SK1
  100
AcDbLine
  10
31.3071
  20
0
  30
0
  11
31.83
  21
-0.522871
  31
0
  0
LINE
  5
10d
  100
AcDbEntity
  8
SK1
  100
AcDbLine
  10
31.0596
  20
0
  30
0
  11
31.83
  21
-0.770358
  31
0
  0
LINE
  5
10e
  100
AcDbEntity
  8
SK1
  100
AcDbLine
  10
30.8122
  20
0
  30
0
  11
31.83
  21
-1.01785
  31
0
  0
LINE
  5
10f
  100
AcDbEntity
  8
SK1
  100
AcDbLine
  10
30.5647
  20
0
  30
0
  11
31.83
  21
-1.26533
  31
0
  0
LINE
  5
110
  100
AcDbEntity
  8
SK1
  100
AcDbLine
  10
30.3172
  20
0
  30
0
  11
31.83
  21
-1.51282
  31
0
  0
LINE
  5
111
  100
AcDbEntity
  8
SK1
  100
AcDbLine
  10
30.0803
  20
-0.010642
  30
0
  11
31.8194
  21
-1.74967
  31
0
  0
LINE
  5
112
  100
AcDbEntity
  8
SK1
  100
AcDbLine
  10
30.1036
  20
-0.281429
  30
0
  11
31.5486
  21
-1.72637
  31
0
  0
LINE
  5
113
  100
AcDbEntity
  8
SK1
  100
AcDbLine
  10
30.1939
  20
-0.619147
  30
0
  11
31.2109
  21
-1.63613
  31
0
  0
LINE
  5
114
  100
AcDbEntity
  8
SK1
  100
AcDbLine
  10
30.0814
  20
-0.044098
  30
0
  11
30.1255
  21
0
  31
0
  0
LINE
  5
115
  100
AcDbEntity
  8
SK1
  100
AcDbLine
  10
30.102
  20
-0.270991
  30
0
  11
30.373
  21
0
  31
0
  0
LINE
  5
116
  100
AcDbEntity
  8
SK1
  100
AcDbLine
  10
30.1463
  20
-0.474162
  30
0
  11
30.6205
  21
0
  31
0
  0
LINE
  5
117
  100
AcDbEntity
  8
SK1
  100
AcDbLine
  10
30.2092
  20
-0.658762
  30
0
  11
30.8679
  21
0
  31
0
  0
LINE
  5
118
  100
AcDbEntity
  8
SK1
  100
AcDbLine
  10
30.2883
  20
-0.827105
  30
0
  11
31.1154
  21
0
  31
0
  0
LINE
  5
119
  100
AcDbEntity
  8
SK1
  100
AcDbLine
  10
30.3819
  20
-0.981039
  30
0
  11
31.3629
  21
0
  31
0
  0
LINE
  5
11a
  100
AcDbEntity
  8
SK1
  100
AcDbLine
  10
30.4878
  20
-1.12257
  30
0
  11
31.6104
  21
0
  31
0
  0
LINE
  5
11b
  100
AcDbEntity
  8
SK1
  100
AcDbLine
  10
30.6071
  20
-1.25077
  30
0
  11
31.83
  21
-0.027896
  31
0
  0
LINE
  5
11c
  100
AcDbEntity
  8
SK1
  100
AcDbLine
  10
30.7384
  20
-1.36695
  30
0
  11
31.83
  21
-0.275383
  31
0
  0
LINE
  5
11d
  100
AcDbEntity
  8
SK1
  100
AcDbLine
  10
30.8822
  20
-1.47069
  30
0
  11
31.83
  21
-0.522871
  31
0
  0
LINE
  5
11e
  100
AcDbEntity
  8
SK1
  100
AcDbLine
  10
31.0399
  20
-1.5605
  30
0
  11
31.83
  21
-0.770358
  31
0
  0
LINE
  5
11f
  100
AcDbEntity
  8
SK1
  100
AcDbLine
  10
31.2115
  20
-1.63636
  30
0
  11
31.83
  21
-1.01785
  31
0
  0
LINE
  5
120
  100
AcDbEntity
  8
SK1
  100
AcDbLine
  10
31.3993
  20
-1.69603
  30
0
  11
31.83
  21
-1.26533
  31
0
  0
LINE
  5
121
  100
AcDbEntity
  8
SK1
  100
AcDbLine
  10
31.6072
  20
-1.73565
  30
0
  11
31.83
  21
-1.51282
  31
0
  0
LINE
  5
122
  100
AcDbEntity
  8
SK1
  100
AcDbLine
  10
31.83
  20
0
  30
0
  11
30.08
  21
0
  31
0
  0
LINE
  5
123
  100
AcDbEntity
  8
SK1
  100
AcDbLine
  10
31.83
  20
-1.75
  30
0
  11
31.83
  21
0
  31
0
  0
ARC
  5
124
  100
AcDbEntity
  8
SK1
  100
AcDbCircle
  10
31.83
  20
0
  30
0
  40
1.75
  100
AcDbArc
  50
180
  51
270
  0
ARC
  5
125
  100
AcDbEntity
  8
SK1
  100
AcDbCircle
  10
31.83
  20
0
  30
0
  40
1.75
  100
AcDbArc
  50
270
  51
0
  0
LINE
  5
196
  100
AcDbEntity
  8
NOCUT
  100
AcDbLine
  10
44.7
  20
0
  30
0
  11
44.7
  21
1.74
  31
0
  0
LINE
  5
197
  100
AcDbEntity
  8
NOCUT
  100
AcDbLine
  10
44.7
  20
1.74
  30
0
  11
34.5
  21
1.74
  31
0
  0
ARC
  5
198
  100
AcDbEntity
  8
NOCUT
  100
AcDbCircle
  10
34.5
  20
2.74
  30
0
  40
1
  100
AcDbArc
  50
225
  51
270
  0
LINE
  5
199
  100
AcDbEntity
  8
NOCUT
  100
AcDbLine
  10
33.792893
  20
2.032893
  30
0
  11
32.825786
  21
3
  31
0
  0
LINE
  5
19a
  100
AcDbEntity
  8
NOCUT
  100
AcDbLine
  10
32.825786
  20
3
  30
0
  11
31.83
  21
3
  31
0
  0
LINE
  5
19b
  100
AcDbEntity
  8
NOCUT
  100
AcDbLine
  10
31.83
  20
3
  30
0
  11
31.83
  21
0
  31
0
  0
LINE
  5
19c
  100
AcDbEntity
  8
NOCUT
  100
AcDbLine
  10
31.83
  20
0
  30
0
  11
44.7
  21
0
  31
0
  0
LINE
  5
19d
  100
AcDbEntity
  8
CUT
  100
AcDbLine
  10
50
  20
0
  30
0
  11
50
  21
2.3
  31
0
  0
LINE
  5
19e
  100
AcDbEntity
  8
CUT
  100
AcDbLine
  10
50
  20
2.3
  30
0
  11
44.7
  21
2.3
  31
0
  0
LINE
  5
19f
  100
AcDbEntity
  8
CUT
  100
AcDbLine
  10
44.7
  20
2.3
  30
0
  11
44.7
  21
0
  31
0
  0
LINE
  5
1a0
  100
AcDbEntity
  8
CUT
  100
AcDbLine
  10
44.7
  20
0
  30
0
  11
50
  21
0
  31
0
  0
LINE
  5
1a1
  100
AcDbEntity
  8
4
  100
AcDbLine
  10
31.83
  20
0
  30
0
  11
50
  21
0
  31
0
  0
LINE
  5
1a2
  100
AcDbEntity
  8
SK4
  100
AcDbLine
  10
-1
  20
0
  30
0
  11
51
  21
0
  31
0
  0
LINE
  5
1a3
  100
AcDbEntity
  8
INFTOTAL
  100
AcDbLine
  10
-15.7
  20
23.583274
  30
0
  11
65.7
  21
23.583274
  31
0
  0
LINE
  5
1a4
  100
AcDbEntity
  8
INFTOTAL
  100
AcDbLine
  10
65.7
  20
23.583274
  30
0
  11
65.7
  21
-47.29485
  31
0
  0
LINE
  5
1a5
  100
AcDbEntity
  8
INFTOTAL
  100
AcDbLine
  10
65.7
  20
-47.29485
  30
0
  11
-15.7
  21
-47.29485
  31
0
  0
LINE
  5
1a6
  100
AcDbEntity
  8
INFTOTAL
  100
AcDbLine
  10
-15.7
  20
-47.29485
  30
0
  11
-15.7
  21
23.583274
  31
0
  0
ENDSEC
  0
SECTION
  2
OBJECTS
  0
DICTIONARY
  5
1a7
  330
0
100
AcDbDictionary
281
    1
  3
ACAD_GROUP
  350
1a8
  0
DICTIONARY
  5
1a8
102
{ACAD_REACTORS
  330
1a7
102
}
  330
1a7
100
AcDbDictionary
281
    1
  0
ENDSEC
  0
EOF
