  0
SECTION
  2
HEADER
  9
$ACADVER
  1
AC1015
  9
$DWGCODEPAGE
  3
ANSI_932
  9
$HANDSEED
  5
106AB90
  0
ENDSEC
  0
SECTION
  2
CLASSES
  0
CLASS
  1
IMAGEDEF
  2
AcDbRasterImageDef
  3
ISM
  90
0
  91
4
  280
0
  281
0
  0
CLASS
  1
IMAGE
  2
AcDbRasterImage
  3
ISM
  90
127
  91
5
  280
0
  281
1
  0
CLASS
  1
IMAGEDEF_REACTOR
  2
AcDbRasterImageDefReactor
  3
ISM
  90
1
  91
4
  280
0
  281
0
  0
ENDSEC
  0
SECTION
  2
TABLES
  0
TABLE
  2
VPORT
  5
2
  330
0
  100
AcDbSymbolTable
  70
    0
  0
ENDTAB
  0
TABLE
  2
LTYPE
  5
3
  330
0
  100
AcDbSymbolTable
  70
    4
  0
LTYPE
  5
4
  330
3
  100
AcDbSymbolTableRecord
  100
AcDbLinetypeTableRecord
  2
ByBlock
  70
    0
  3

  72
65
  73
    0
  40
0
  0
LTYPE
  5
5
  330
3
  100
AcDbSymbolTableRecord
  100
AcDbLinetypeTableRecord
  2
ByLayer
  70
    0
  3

  72
65
  73
    0
  40
0
  0
LTYPE
  5
6
  330
3
  100
AcDbSymbolTableRecord
  100
AcDbLinetypeTableRecord
  2
CONTINUOUS
  70
    0
  3
Solid Line
  72
65
  73
    0
  40
0
  0
LTYPE
  5
7
  330
3
  100
AcDbSymbolTableRecord
  100
AcDbLinetypeTableRecord
  2
DASH
  70
    0
  3
Hidden
  72
65
  73
2
  40
2.5
  49
1.5
  74
0
  49
-1
  74
0
  0
LTYPE
  5
8
  330
3
  100
AcDbSymbolTableRecord
  100
AcDbLinetypeTableRecord
  2
LONGDASHDASH
  70
    0
  3
__ . __
  72
65
  73
    4
  40
7
  49
4
  74
    0
  49
-1
  74
    0
  49
1
  74
    0
  49
-1
  74
    0
  0
ENDTAB
  0
TABLE
  2
LAYER
  5
9
  330
0
  100
AcDbSymbolTable
  70
    40
  0
LAYER
  5
a
  330
9
  100
AcDbSymbolTableRecord
  100
AcDbLayerTableRecord
  2
0
  70
    0
  62
    0
  6
CONTINUOUS
  390
0
  0
LAYER
  5
c
  330
9
  100
AcDbSymbolTableRecord
  100
AcDbLayerTableRecord
  2
1
  70
    0
  62
    4
  6
CONTINUOUS
  370
50
  390
0
  0
LAYER
  5
d
  330
9
  100
AcDbSymbolTableRecord
  100
AcDbLayerTableRecord
  2
2
  70
    0
  62
    7
  6
CONTINUOUS
  370
25
  390
0
  0
LAYER
  5
f
  330
9
  100
AcDbSymbolTableRecord
  100
AcDbLayerTableRecord
  2
4
  70
    0
  62
    2
  6
LONGDASHDASH
  370
25
  390
0
  0
LAYER
  5
13
  330
9
  100
AcDbSymbolTableRecord
  100
AcDbLayerTableRecord
  2
SK1
  70
    0
  62
    4
  6
CONTINUOUS
  370
50
  390
0
  0
LAYER
  5
14
  330
9
  100
AcDbSymbolTableRecord
  100
AcDbLayerTableRecord
  2
SK2
  70
    0
  62
    7
  6
CONTINUOUS
  370
25
  390
0
  0
LAYER
  5
16
  330
9
  100
AcDbSymbolTableRecord
  100
AcDbLayerTableRecord
  2
SK4
  70
    0
  62
    2
  6
LONGDASHDASH
  370
25
  390
0
  0
LAYER
  5
21
  330
9
  100
AcDbSymbolTableRecord
  100
AcDbLayerTableRecord
  2
NOCUT
  70
    0
  62
    7
  6
CONTINUOUS
  370
25
  390
0
  0
LAYER
  5
22
  330
9
  100
AcDbSymbolTableRecord
  100
AcDbLayerTableRecord
  2
CUT
  70
    0
  62
    1
  6
CONTINUOUS
  370
25
  390
0
  0
LAYER
  5
26
  330
9
  100
AcDbSymbolTableRecord
  100
AcDbLayerTableRecord
  2
INFTOTAL
  70
    0
  62
    9
  6
CONTINUOUS
  370
18
  390
0
  0
ENDTAB
  0
TABLE
  2
STYLE
  5
27
  330
0
  100
AcDbSymbolTable
  70
    1
  0
STYLE
  5
28
  330
27
  100
AcDbSymbolTableRecord
  100
AcDbTextStyleTableRecord
  2
Monospac821 BT
  70
    0
  40
    3.5
  41
1
  50
0
  71
0
  42
3
  3

  4

  1001
ACAD
  1000
Monospac821 BT
  1071
256
  0
ENDTAB
  0
TABLE
  2
VIEW
  5
29
  330
0
  100
AcDbSymbolTable
  70
    0
  0
ENDTAB
  0
TABLE
  2
UCS
  5
2a
  330
0
  100
AcDbSymbolTable
  70
    0
  0
ENDTAB
  0
TABLE
  2
APPID
  5
2b
  330
0
  100
AcDbSymbolTable
  70
    1
  0
APPID
  5
2c
  330
2b
  100
AcDbSymbolTableRecord
  100
AcDbRegAppTableRecord
  2
ACAD
  70
    0
  0
ENDTAB
  0
TABLE
  2
DIMSTYLE
  5
2d
  330
0
  100
AcDbSymbolTable
  70
    1
  100
AcDbDimStyleTable
  0
DIMSTYLE
  105
2e
  330
2d
  100
AcDbSymbolTableRecord
  100
AcDbDimStyleTableRecord
  2
STANDARD
  70
    0
  41
    3
  42
0.5
  44
1
  73
0
  77
1
  78
1
  140
3.5
  141
2.5
  143
0.03937
  147
0.8
  172
1
  174
1
  178
0
  179
1
  271
2
  279
1
  284
1
  340
28
  0
ENDTAB
  0
TABLE
  2
BLOCK_RECORD
  5
2f
  330
0
  100
AcDbSymbolTable
  70
    2
  0
BLOCK_RECORD
  5
30
  330
2f
  100
AcDbSymbolTableRecord
  100
AcDbBlockTableRecord
  2
*Model_Space
  0
BLOCK_RECORD
  5
31
  330
2f
  100
AcDbSymbolTableRecord
  100
AcDbBlockTableRecord
  2
*Paper_Space
  0
BLOCK_RECORD
  5
108
  330
2f
  100
AcDbSymbolTableRecord
  100
AcDbBlockTableRecord
  2
*D107
  340
0
  0
BLOCK_RECORD
  5
116
  330
2f
  100
AcDbSymbolTableRecord
  100
AcDbBlockTableRecord
  2
*D115
  340
0
  0
BLOCK_RECORD
  5
124
  330
2f
  100
AcDbSymbolTableRecord
  100
AcDbBlockTableRecord
  2
*D123
  340
0
  0
BLOCK_RECORD
  5
132
  330
2f
  100
AcDbSymbolTableRecord
  100
AcDbBlockTableRecord
  2
*D131
  340
0
  0
BLOCK_RECORD
  5
140
  330
2f
  100
AcDbSymbolTableRecord
  100
AcDbBlockTableRecord
  2
*D13f
  340
0
  0
BLOCK_RECORD
  5
14e
  330
2f
  100
AcDbSymbolTableRecord
  100
AcDbBlockTableRecord
  2
*D14d
  340
0
  0
BLOCK_RECORD
  5
15c
  330
2f
  100
AcDbSymbolTableRecord
  100
AcDbBlockTableRecord
  2
*D15b
  340
0
  0
BLOCK_RECORD
  5
16a
  330
2f
  100
AcDbSymbolTableRecord
  100
AcDbBlockTableRecord
  2
*D169
  340
0
  0
ENDTAB
  0
ENDSEC
  0
SECTION
  2
BLOCKS
  0
BLOCK
  5
32
  330
30
  100
AcDbEntity
  8
0
  100
AcDbBlockBegin
  2
*Model_Space
  70
    0
  10
0
  20
0
  30
0
  3
*Model_Space
  1

  0
ENDBLK
  5
33
  330
30
  100
AcDbEntity
  8
0
  100
AcDbBlockEnd
  0
BLOCK
  5
34
  330
31
  100
AcDbEntity
  8
0
  100
AcDbBlockBegin
  2
*Paper_Space
  70
    0
  10
0
  20
0
  30
0
  3
*Paper_Space
  1

  0
ENDBLK
  5
35
  330
31
  100
AcDbEntity
  8
0
  100
AcDbBlockEnd
  0
BLOCK
  5
106
  330
108
  100
AcDbEntity
  8
SK2
  100
AcDbBlockBegin
  2
*D107
  70
1
  10
0
  20
0
  30
0
  3
*D107
  1

  0
LINE
  5
109
  330
108
  100
AcDbEntity
  8
SK2
  100
AcDbLine
  10
0
  20
-43.59485
  30
0
  11
0
  21
2.6
  31
0
  0
LINE
  5
10a
  330
108
  100
AcDbEntity
  8
SK2
  100
AcDbLine
  10
50
  20
-43.59485
  30
0
  11
50
  21
19.883274
  31
0
  0
LINE
  5
10b
  330
108
  100
AcDbEntity
  8
SK2
  100
AcDbLine
  10
0
  20
-41.59485
  30
0
  11
50
  21
-41.59485
  31
0
  0
SOLID
  5
10c
  330
108
  100
AcDbEntity
  8
SK2
  100
AcDbTrace
  10
0
  20
-41.59485
  30
0
  11
2.478612
  21
-41.268534
  31
0
  12
2.478612
  22
-41.921165
  32
0
  13
2.478612
  23
-41.921165
  33
0
  0
SOLID
  5
10d
  330
108
  100
AcDbEntity
  8
SK2
  100
AcDbTrace
  10
50
  20
-41.59485
  30
0
  11
47.521388
  21
-41.921165
  31
0
  12
47.521388
  22
-41.268534
  32
0
  13
47.521388
  23
-41.268534
  33
0
  0
MTEXT
  5
10e
  330
108
  100
AcDbEntity
  8
SK2
  100
AcDbMText
  10
25
  20
-41.59485
  30
0
  11
1
  21
-0
  31
0
  40
2
  41
0
  71
8
  72
1
  1
50
  0
POINT
  5
10f
  330
108
  100
AcDbEntity
  8
SK2
  62
0
  100
AcDbPoint
  10
0
  20
2.6
  30
0
  0
POINT
  5
110
  330
108
  100
AcDbEntity
  8
SK2
  62
0
  100
AcDbPoint
  10
50
  20
19.883274
  30
0
  0
POINT
  5
111
  330
108
  100
AcDbEntity
  8
SK2
  62
0
  100
AcDbPoint
  10
50
  20
-41.59485
  30
0
  0
ENDBLK
  5
112
  330
108
  100
AcDbEntity
  8
SK2
  100
AcDbBlockEnd
  0
BLOCK
  5
114
  330
116
  100
AcDbEntity
  8
SK2
  100
AcDbBlockBegin
  2
*D115
  70
1
  10
0
  20
0
  30
0
  3
*D115
  1

  0
LINE
  5
117
  330
116
  100
AcDbEntity
  8
SK2
  100
AcDbLine
  10
31.910312
  20
-33.817496
  30
0
  11
31.910312
  21
3
  31
0
  0
LINE
  5
118
  330
116
  100
AcDbEntity
  8
SK2
  100
AcDbLine
  10
0
  20
-43.59485
  30
0
  11
0
  21
2.6
  31
0
  0
LINE
  5
119
  330
116
  100
AcDbEntity
  8
SK2
  100
AcDbLine
  10
31.910312
  20
-31.817496
  30
0
  11
0
  21
-31.817496
  31
0
  0
SOLID
  5
11a
  330
116
  100
AcDbEntity
  8
SK2
  100
AcDbTrace
  10
31.910312
  20
-31.817496
  30
0
  11
34.388924
  21
-31.49118
  31
0
  12
34.388924
  22
-32.143811
  32
0
  13
34.388924
  23
-32.143811
  33
0
  0
SOLID
  5
11b
  330
116
  100
AcDbEntity
  8
SK2
  100
AcDbTrace
  10
0
  20
-31.817496
  30
0
  11
-2.478612
  21
-32.143811
  31
0
  12
-2.478612
  22
-31.49118
  32
0
  13
-2.478612
  23
-31.49118
  33
0
  0
MTEXT
  5
11c
  330
116
  100
AcDbEntity
  8
SK2
  100
AcDbMText
  10
15.955156
  20
-31.817496
  30
0
  11
1
  21
-0
  31
0
  40
2
  41
0
  71
8
  72
1
  1
31.91
  0
POINT
  5
11d
  330
116
  100
AcDbEntity
  8
SK2
  62
0
  100
AcDbPoint
  10
31.910312
  20
3
  30
0
  0
POINT
  5
11e
  330
116
  100
AcDbEntity
  8
SK2
  62
0
  100
AcDbPoint
  10
0
  20
2.6
  30
0
  0
POINT
  5
11f
  330
116
  100
AcDbEntity
  8
SK2
  62
0
  100
AcDbPoint
  10
0
  20
-31.817496
  30
0
  0
ENDBLK
  5
120
  330
116
  100
AcDbEntity
  8
SK2
  100
AcDbBlockEnd
  0
BLOCK
  5
122
  330
124
  100
AcDbEntity
  8
SK2
  100
AcDbBlockBegin
  2
*D123
  70
1
  10
0
  20
0
  30
0
  3
*D123
  1

  0
LINE
  5
125
  330
124
  100
AcDbEntity
  8
SK2
  100
AcDbLine
  10
0.4
  20
-3
  30
0
  11
-12
  21
-3
  31
0
  0
LINE
  5
126
  330
124
  100
AcDbEntity
  8
SK2
  100
AcDbLine
  10
0.4
  20
3
  30
0
  11
-12
  21
3
  31
0
  0
LINE
  5
127
  330
124
  100
AcDbEntity
  8
SK2
  100
AcDbLine
  10
-10
  20
-3
  30
0
  11
-10
  21
3
  31
0
  0
SOLID
  5
128
  330
124
  100
AcDbEntity
  8
SK2
  100
AcDbTrace
  10
-10
  20
-3
  30
0
  11
-10.326315
  21
-0.521388
  31
0
  12
-9.673685
  22
-0.521388
  32
0
  13
-9.673685
  23
-0.521388
  33
0
  0
SOLID
  5
129
  330
124
  100
AcDbEntity
  8
SK2
  100
AcDbTrace
  10
-10
  20
3
  30
0
  11
-9.673685
  21
0.521388
  31
0
  12
-10.326315
  22
0.521388
  32
0
  13
-10.326315
  23
0.521388
  33
0
  0
MTEXT
  5
12a
  330
124
  100
AcDbEntity
  8
SK2
  100
AcDbMText
  10
-10
  20
-0.064076
  30
0
  11
0
  21
1
  31
0
  40
2
  41
0
  71
8
  72
1
  1
Ø6
  0
POINT
  5
12b
  330
124
  100
AcDbEntity
  8
SK2
  62
0
  100
AcDbPoint
  10
0.4
  20
-3
  30
0
  0
POINT
  5
12c
  330
124
  100
AcDbEntity
  8
SK2
  62
0
  100
AcDbPoint
  10
0.4
  20
3
  30
0
  0
POINT
  5
12d
  330
124
  100
AcDbEntity
  8
SK2
  62
0
  100
AcDbPoint
  10
-10
  20
3
  30
0
  0
ENDBLK
  5
12e
  330
124
  100
AcDbEntity
  8
SK2
  100
AcDbBlockEnd
  0
BLOCK
  5
130
  330
132
  100
AcDbEntity
  8
2
  100
AcDbBlockBegin
  2
*D131
  70
1
  10
0
  20
0
  30
0
  3
*D131
  1

  0
LINE
  5
133
  330
132
  100
AcDbEntity
  8
2
  100
AcDbLine
  10
50
  20
-2
  30
0
  11
62
  21
-2
  31
0
  0
LINE
  5
134
  330
132
  100
AcDbEntity
  8
2
  100
AcDbLine
  10
50
  20
2
  30
0
  11
62
  21
2
  31
0
  0
LINE
  5
135
  330
132
  100
AcDbEntity
  8
2
  100
AcDbLine
  10
60
  20
-2
  30
0
  11
60
  21
7.436975
  31
0
  0
SOLID
  5
136
  330
132
  100
AcDbEntity
  8
2
  100
AcDbTrace
  10
60
  20
-2
  30
0
  11
59.673685
  21
0.478612
  31
0
  12
60.326315
  22
0.478612
  32
0
  13
60.326315
  23
0.478612
  33
0
  0
SOLID
  5
137
  330
132
  100
AcDbEntity
  8
2
  100
AcDbTrace
  10
60
  20
2
  30
0
  11
60.326315
  21
-0.478612
  31
0
  12
59.673685
  22
-0.478612
  32
0
  13
59.673685
  23
-0.478612
  33
0
  0
MTEXT
  5
138
  330
132
  100
AcDbEntity
  8
2
  100
AcDbMText
  10
60
  20
7.645512
  30
0
  11
0
  21
1
  31
0
  40
2
  41
0
  71
8
  72
1
  1
Ø4
  0
POINT
  5
139
  330
132
  100
AcDbEntity
  8
2
  62
0
  100
AcDbPoint
  10
50
  20
-2
  30
0
  0
POINT
  5
13a
  330
132
  100
AcDbEntity
  8
2
  62
0
  100
AcDbPoint
  10
50
  20
2
  30
0
  0
POINT
  5
13b
  330
132
  100
AcDbEntity
  8
2
  62
0
  100
AcDbPoint
  10
60
  20
7.436975
  30
0
  0
ENDBLK
  5
13c
  330
132
  100
AcDbEntity
  8
2
  100
AcDbBlockEnd
  0
BLOCK
  5
13e
  330
140
  100
AcDbEntity
  8
2
  100
AcDbBlockBegin
  2
*D13f
  70
1
  10
0
  20
0
  30
0
  3
*D13f
  1

  0
LINE
  5
141
  330
140
  100
AcDbEntity
  8
2
  100
AcDbLine
  10
45.7
  20
-1.55
  30
0
  11
41.206644
  21
-1.55
  31
0
  0
LINE
  5
142
  330
140
  100
AcDbEntity
  8
2
  100
AcDbLine
  10
45.7
  20
1.55
  30
0
  11
41.206644
  21
1.55
  31
0
  0
LINE
  5
143
  330
140
  100
AcDbEntity
  8
2
  100
AcDbLine
  10
43.206644
  20
-1.55
  30
0
  11
43.206644
  21
11.218487
  31
0
  0
SOLID
  5
144
  330
140
  100
AcDbEntity
  8
2
  100
AcDbTrace
  10
43.206644
  20
-1.55
  30
0
  11
42.880328
  21
0.928612
  31
0
  12
43.532959
  22
0.928612
  32
0
  13
43.532959
  23
0.928612
  33
0
  0
SOLID
  5
145
  330
140
  100
AcDbEntity
  8
2
  100
AcDbTrace
  10
43.206644
  20
1.55
  30
0
  11
43.532959
  21
-0.928612
  31
0
  12
42.880328
  22
-0.928612
  32
0
  13
42.880328
  23
-0.928612
  33
0
  0
MTEXT
  5
146
  330
140
  100
AcDbEntity
  8
2
  100
AcDbMText
  10
43.206644
  20
3.839444
  30
0
  11
0
  21
1
  31
0
  40
2
  41
0
  71
8
  72
1
  1
Ø3.1
  0
POINT
  5
147
  330
140
  100
AcDbEntity
  8
2
  62
0
  100
AcDbPoint
  10
45.7
  20
-1.55
  30
0
  0
POINT
  5
148
  330
140
  100
AcDbEntity
  8
2
  62
0
  100
AcDbPoint
  10
45.7
  20
1.55
  30
0
  0
POINT
  5
149
  330
140
  100
AcDbEntity
  8
2
  62
0
  100
AcDbPoint
  10
43.206644
  20
11.218487
  30
0
  0
ENDBLK
  5
14a
  330
140
  100
AcDbEntity
  8
2
  100
AcDbBlockEnd
  0
BLOCK
  5
14c
  330
14e
  100
AcDbEntity
  8
2
  100
AcDbBlockBegin
  2
*D14d
  70
1
  10
0
  20
0
  30
0
  3
*D14d
  1

  0
LINE
  5
14f
  330
14e
  100
AcDbEntity
  8
2
  100
AcDbLine
  10
45.7
  20
-25.322624
  30
0
  11
45.7
  21
1.55
  31
0
  0
LINE
  5
150
  330
14e
  100
AcDbEntity
  8
2
  100
AcDbLine
  10
34.7
  20
-25.322624
  30
0
  11
34.7
  21
1.55
  31
0
  0
LINE
  5
151
  330
14e
  100
AcDbEntity
  8
2
  100
AcDbLine
  10
45.7
  20
-23.322624
  30
0
  11
34.7
  21
-23.322624
  31
0
  0
SOLID
  5
152
  330
14e
  100
AcDbEntity
  8
2
  100
AcDbTrace
  10
45.7
  20
-23.322624
  30
0
  11
48.178612
  21
-22.996309
  31
0
  12
48.178612
  22
-23.64894
  32
0
  13
48.178612
  23
-23.64894
  33
0
  0
SOLID
  5
153
  330
14e
  100
AcDbEntity
  8
2
  100
AcDbTrace
  10
34.7
  20
-23.322624
  30
0
  11
32.221388
  21
-23.64894
  31
0
  12
32.221388
  22
-22.996309
  32
0
  13
32.221388
  23
-22.996309
  33
0
  0
MTEXT
  5
154
  330
14e
  100
AcDbEntity
  8
2
  100
AcDbMText
  10
42.073585
  20
-23.322624
  30
0
  11
1
  21
-0
  31
0
  40
2
  41
0
  71
8
  72
1
  1
11
  0
POINT
  5
155
  330
14e
  100
AcDbEntity
  8
2
  62
0
  100
AcDbPoint
  10
45.7
  20
1.55
  30
0
  0
POINT
  5
156
  330
14e
  100
AcDbEntity
  8
2
  62
0
  100
AcDbPoint
  10
34.7
  20
1.55
  30
0
  0
POINT
  5
157
  330
14e
  100
AcDbEntity
  8
2
  62
0
  100
AcDbPoint
  10
34.7
  20
-23.322624
  30
0
  0
ENDBLK
  5
158
  330
14e
  100
AcDbEntity
  8
2
  100
AcDbBlockEnd
  0
BLOCK
  5
15a
  330
15c
  100
AcDbEntity
  8
2
  100
AcDbBlockBegin
  2
*D15b
  70
1
  10
0
  20
0
  30
0
  3
*D15b
  1

  0
LINE
  5
15d
  330
15c
  100
AcDbEntity
  8
2
  100
AcDbLine
  10
45.7
  20
-1.55
  30
0
  11
45.7
  21
-25.273643
  31
0
  0
LINE
  5
15e
  330
15c
  100
AcDbEntity
  8
2
  100
AcDbLine
  10
50
  20
-43.59485
  30
0
  11
50
  21
19.883274
  31
0
  0
LINE
  5
15f
  330
15c
  100
AcDbEntity
  8
2
  100
AcDbLine
  10
45.7
  20
-23.273643
  30
0
  11
51.176471
  21
-23.273643
  31
0
  0
SOLID
  5
160
  330
15c
  100
AcDbEntity
  8
2
  100
AcDbTrace
  10
45.7
  20
-23.273643
  30
0
  11
48.178612
  21
-22.947327
  31
0
  12
48.178612
  22
-23.599958
  32
0
  13
48.178612
  23
-23.599958
  33
0
  0
SOLID
  5
161
  330
15c
  100
AcDbEntity
  8
2
  100
AcDbTrace
  10
50
  20
-23.273643
  30
0
  11
47.521388
  21
-23.599958
  31
0
  12
47.521388
  22
-22.947327
  32
0
  13
47.521388
  23
-22.947327
  33
0
  0
MTEXT
  5
162
  330
15c
  100
AcDbEntity
  8
2
  100
AcDbMText
  10
51.325719
  20
-23.273643
  30
0
  11
1
  21
0
  31
0
  40
2
  41
0
  71
8
  72
1
  1
4.3
  0
POINT
  5
163
  330
15c
  100
AcDbEntity
  8
2
  62
0
  100
AcDbPoint
  10
45.7
  20
-1.55
  30
0
  0
POINT
  5
164
  330
15c
  100
AcDbEntity
  8
2
  62
0
  100
AcDbPoint
  10
50
  20
19.883274
  30
0
  0
POINT
  5
165
  330
15c
  100
AcDbEntity
  8
2
  62
0
  100
AcDbPoint
  10
51.176471
  20
-23.273643
  30
0
  0
ENDBLK
  5
166
  330
15c
  100
AcDbEntity
  8
2
  100
AcDbBlockEnd
  0
BLOCK
  5
168
  330
16a
  100
AcDbEntity
  8
2
  100
AcDbBlockBegin
  2
*D169
  70
1
  10
0
  20
0
  30
0
  3
*D169
  1

  0
LINE
  5
16b
  330
16a
  100
AcDbEntity
  8
2
  100
AcDbLine
  10
30.91
  20
19.883274
  30
0
  11
30.91
  21
-3
  31
0
  0
LINE
  5
16c
  330
16a
  100
AcDbEntity
  8
2
  100
AcDbLine
  10
50
  20
-43.59485
  30
0
  11
50
  21
19.883274
  31
0
  0
LINE
  5
16d
  330
16a
  100
AcDbEntity
  8
2
  100
AcDbLine
  10
30.91
  20
17.883274
  30
0
  11
50
  21
17.883274
  31
0
  0
SOLID
  5
16e
  330
16a
  100
AcDbEntity
  8
2
  100
AcDbTrace
  10
30.91
  20
17.883274
  30
0
  11
33.388612
  21
18.209589
  31
0
  12
33.388612
  22
17.556958
  32
0
  13
33.388612
  23
17.556958
  33
0
  0
SOLID
  5
16f
  330
16a
  100
AcDbEntity
  8
2
  100
AcDbTrace
  10
50
  20
17.883274
  30
0
  11
47.521388
  21
17.556958
  31
0
  12
47.521388
  22
18.209589
  32
0
  13
47.521388
  23
18.209589
  33
0
  0
MTEXT
  5
170
  330
16a
  100
AcDbEntity
  8
2
  100
AcDbMText
  10
38.261307
  20
17.883274
  30
0
  11
1
  21
0
  31
0
  40
2
  41
0
  71
8
  72
1
  1
19.09
  0
POINT
  5
171
  330
16a
  100
AcDbEntity
  8
2
  62
0
  100
AcDbPoint
  10
30.91
  20
-3
  30
0
  0
POINT
  5
172
  330
16a
  100
AcDbEntity
  8
2
  62
0
  100
AcDbPoint
  10
50
  20
-43.59485
  30
0
  0
POINT
  5
173
  330
16a
  100
AcDbEntity
  8
2
  62
0
  100
AcDbPoint
  10
50
  20
17.883274
  30
0
  0
ENDBLK
  5
174
  330
16a
  100
AcDbEntity
  8
2
  100
AcDbBlockEnd
  0
ENDSEC
  0
SECTION
  2
ENTITIES
  0
DIMENSION
  5
113
  100
AcDbEntity
  8
SK2
  100
AcDbDimension
  2
*D107
  10
50
  20
-41.59485
  30
0
  11
25
  21
-41.59485
  31
0
  70
160
  1
<>
  71
5
  3
STANDARD
  42
50
  100
AcDbAlignedDimension
  13
0
  23
2.6
  33
0
  14
50
  24
19.883274
  34
0
  50
0
  100
AcDbRotatedDimension
  0
DIMENSION
  5
121
  100
AcDbEntity
  8
SK2
  100
AcDbDimension
  2
*D115
  10
0
  20
-31.817496
  30
0
  11
15.955156
  21
-31.817496
  31
0
  70
160
  1
<>
  71
5
  3
STANDARD
  42
31.910312
  100
AcDbAlignedDimension
  13
31.910312
  23
3
  33
0
  14
0
  24
2.6
  34
0
  50
0
  100
AcDbRotatedDimension
  0
DIMENSION
  5
12f
  100
AcDbEntity
  8
SK2
  100
AcDbDimension
  2
*D123
  10
-10
  20
3
  30
0
  11
-10
  21
-0.064076
  31
0
  70
160
  1
%%c<>
  71
5
  3
STANDARD
  42
6
  100
AcDbAlignedDimension
  13
0.4
  23
-3
  33
0
  14
0.4
  24
3
  34
0
  50
-90
  100
AcDbRotatedDimension
  0
DIMENSION
  5
13d
  100
AcDbEntity
  8
2
  100
AcDbDimension
  2
*D131
  10
60
  20
7.436975
  30
0
  11
60
  21
7.645512
  31
0
  70
160
  1
%%c<>
  71
5
  3
STANDARD
  42
4
  100
AcDbAlignedDimension
  13
50
  23
-2
  33
0
  14
50
  24
2
  34
0
  50
-90
  100
AcDbRotatedDimension
  0
DIMENSION
  5
14b
  100
AcDbEntity
  8
2
  100
AcDbDimension
  2
*D13f
  10
43.206644
  20
11.218487
  30
0
  11
43.206644
  21
3.839444
  31
0
  70
160
  1
%%c<>
  71
5
  3
STANDARD
  42
3.1
  100
AcDbAlignedDimension
  13
45.7
  23
-1.55
  33
0
  14
45.7
  24
1.55
  34
0
  50
-90
  100
AcDbRotatedDimension
  0
DIMENSION
  5
159
  100
AcDbEntity
  8
2
  100
AcDbDimension
  2
*D14d
  10
34.7
  20
-23.322624
  30
0
  11
42.073585
  21
-23.322624
  31
0
  70
160
  1
<>
  71
5
  3
STANDARD
  42
11
  100
AcDbAlignedDimension
  13
45.7
  23
1.55
  33
0
  14
34.7
  24
1.55
  34
0
  50
0
  100
AcDbRotatedDimension
  0
DIMENSION
  5
167
  100
AcDbEntity
  8
2
  100
AcDbDimension
  2
*D15b
  10
51.176471
  20
-23.273643
  30
0
  11
51.325719
  21
-23.273643
  31
0
  70
160
  1
<>
  71
5
  3
STANDARD
  42
4.3
  100
AcDbAlignedDimension
  13
45.7
  23
-1.55
  33
0
  14
50
  24
19.883274
  34
0
  50
0
  100
AcDbRotatedDimension
  0
DIMENSION
  5
175
  100
AcDbEntity
  8
2
  100
AcDbDimension
  2
*D169
  10
50
  20
17.883274
  30
0
  11
38.261307
  21
17.883274
  31
0
  70
160
  1
<>
  71
5
  3
STANDARD
  42
19.09
  100
AcDbAlignedDimension
  13
30.91
  23
-3
  33
0
  14
50
  24
-43.59485
  34
0
  50
0
  100
AcDbRotatedDimension
  0
ARC
  5
36
  100
AcDbEntity
  8
1
  100
AcDbCircle
  10
34.7
  20
-4.55
  30
0
  40
3
  100
AcDbArc
  50
90
  51
131
  0
LINE
  5
37
  100
AcDbEntity
  8
1
  100
AcDbLine
  10
34.7
  20
-1.55
  30
0
  11
45.7
  21
-1.55
  31
0
  0
LINE
  5
38
  100
AcDbEntity
  8
1
  100
AcDbLine
  10
45.7
  20
-1.55
  30
0
  11
45.7
  21
-2
  31
0
  0
LINE
  5
39
  100
AcDbEntity
  8
1
  100
AcDbLine
  10
45.7
  20
-2
  30
0
  11
50
  21
-2
  31
0
  0
LINE
  5
3a
  100
AcDbEntity
  8
1
  100
AcDbLine
  10
50
  20
-2
  30
0
  11
50
  21
0
  31
0
  0
LINE
  5
3b
  100
AcDbEntity
  8
1
  100
AcDbLine
  10
50
  20
0
  30
0
  11
50
  21
2
  31
0
  0
LINE
  5
3c
  100
AcDbEntity
  8
1
  100
AcDbLine
  10
50
  20
2
  30
0
  11
45.7
  21
2
  31
0
  0
LINE
  5
3d
  100
AcDbEntity
  8
1
  100
AcDbLine
  10
45.7
  20
2
  30
0
  11
45.7
  21
1.55
  31
0
  0
LINE
  5
3e
  100
AcDbEntity
  8
1
  100
AcDbLine
  10
45.7
  20
1.55
  30
0
  11
34.7
  21
1.55
  31
0
  0
ARC
  5
3f
  100
AcDbEntity
  8
1
  100
AcDbCircle
  10
34.7
  20
4.55
  30
0
  40
3
  100
AcDbArc
  50
229
  51
270
  0
LINE
  5
40
  100
AcDbEntity
  8
1
  100
AcDbLine
  10
32.731823
  20
2.285871
  30
0
  11
31.910312
  21
3
  31
0
  0
LINE
  5
41
  100
AcDbEntity
  8
1
  100
AcDbLine
  10
31.910312
  20
3
  30
0
  11
30.91
  21
3
  31
0
  0
LINE
  5
42
  100
AcDbEntity
  8
1
  100
AcDbLine
  10
30.91
  20
3
  30
0
  11
30.91
  21
-3
  31
0
  0
LINE
  5
43
  100
AcDbEntity
  8
1
  100
AcDbLine
  10
30.91
  20
-3
  30
0
  11
31.910312
  21
-3
  31
0
  0
LINE
  5
44
  100
AcDbEntity
  8
1
  100
AcDbLine
  10
31.910312
  20
-3
  30
0
  11
32.731823
  21
-2.285871
  31
0
  0
LINE
  5
45
  100
AcDbEntity
  8
1
  100
AcDbLine
  10
50
  20
-2
  30
0
  11
50
  21
2
  31
0
  0
LINE
  5
46
  100
AcDbEntity
  8
1
  100
AcDbLine
  10
50
  20
2
  30
0
  11
49.9
  21
1.999167
  31
0
  0
LINE
  5
47
  100
AcDbEntity
  8
1
  100
AcDbLine
  10
49.9
  20
1.999167
  30
0
  11
49.8
  21
1.996668
  31
0
  0
LINE
  5
48
  100
AcDbEntity
  8
1
  100
AcDbLine
  10
49.8
  20
1.996668
  30
0
  11
49.7
  21
1.992505
  31
0
  0
LINE
  5
49
  100
AcDbEntity
  8
1
  100
AcDbLine
  10
49.7
  20
1.992505
  30
0
  11
49.6
  21
1.986681
  31
0
  0
LINE
  5
4a
  100
AcDbEntity
  8
1
  100
AcDbLine
  10
49.6
  20
1.986681
  30
0
  11
49.5
  21
1.979203
  31
0
  0
LINE
  5
4b
  100
AcDbEntity
  8
1
  100
AcDbLine
  10
49.5
  20
1.979203
  30
0
  11
49.4
  21
1.970075
  31
0
  0
LINE
  5
4c
  100
AcDbEntity
  8
1
  100
AcDbLine
  10
49.4
  20
1.970075
  30
0
  11
49.3
  21
1.959305
  31
0
  0
LINE
  5
4d
  100
AcDbEntity
  8
1
  100
AcDbLine
  10
49.3
  20
1.959305
  30
0
  11
49.2
  21
1.946903
  31
0
  0
LINE
  5
4e
  100
AcDbEntity
  8
1
  100
AcDbLine
  10
49.2
  20
1.946903
  30
0
  11
49.1
  21
1.932879
  31
0
  0
LINE
  5
4f
  100
AcDbEntity
  8
1
  100
AcDbLine
  10
49.1
  20
1.932879
  30
0
  11
49
  21
1.917244
  31
0
  0
LINE
  5
50
  100
AcDbEntity
  8
1
  100
AcDbLine
  10
49
  20
1.917244
  30
0
  11
48.9
  21
1.900011
  31
0
  0
LINE
  5
51
  100
AcDbEntity
  8
1
  100
AcDbLine
  10
48.9
  20
1.900011
  30
0
  11
48.8
  21
1.881195
  31
0
  0
LINE
  5
52
  100
AcDbEntity
  8
1
  100
AcDbLine
  10
48.8
  20
1.881195
  30
0
  11
48.7
  21
1.860812
  31
0
  0
LINE
  5
53
  100
AcDbEntity
  8
1
  100
AcDbLine
  10
48.7
  20
1.860812
  30
0
  11
48.6
  21
1.838878
  31
0
  0
LINE
  5
54
  100
AcDbEntity
  8
1
  100
AcDbLine
  10
48.6
  20
1.838878
  30
0
  11
48.5
  21
1.815411
  31
0
  0
LINE
  5
55
  100
AcDbEntity
  8
1
  100
AcDbLine
  10
48.5
  20
1.815411
  30
0
  11
48.4
  21
1.790432
  31
0
  0
LINE
  5
56
  100
AcDbEntity
  8
1
  100
AcDbLine
  10
48.4
  20
1.790432
  30
0
  11
48.3
  21
1.763961
  31
0
  0
LINE
  5
57
  100
AcDbEntity
  8
1
  100
AcDbLine
  10
48.3
  20
1.763961
  30
0
  11
48.2
  21
1.736021
  31
0
  0
LINE
  5
58
  100
AcDbEntity
  8
1
  100
AcDbLine
  10
48.2
  20
1.736021
  30
0
  11
48.1
  21
1.706633
  31
0
  0
LINE
  5
59
  100
AcDbEntity
  8
1
  100
AcDbLine
  10
48.1
  20
1.706633
  30
0
  11
48
  21
1.675824
  31
0
  0
LINE
  5
5a
  100
AcDbEntity
  8
1
  100
AcDbLine
  10
48
  20
1.675824
  30
0
  11
47.9
  21
1.643618
  31
0
  0
LINE
  5
5b
  100
AcDbEntity
  8
1
  100
AcDbLine
  10
47.9
  20
1.643618
  30
0
  11
47.8
  21
1.610042
  31
0
  0
LINE
  5
5c
  100
AcDbEntity
  8
1
  100
AcDbLine
  10
47.8
  20
1.610042
  30
0
  11
47.7
  21
1.575125
  31
0
  0
LINE
  5
5d
  100
AcDbEntity
  8
1
  100
AcDbLine
  10
47.7
  20
1.575125
  30
0
  11
47.6
  21
1.538895
  31
0
  0
LINE
  5
5e
  100
AcDbEntity
  8
1
  100
AcDbLine
  10
47.6
  20
1.538895
  30
0
  11
47.5
  21
1.501383
  31
0
  0
LINE
  5
5f
  100
AcDbEntity
  8
1
  100
AcDbLine
  10
47.5
  20
1.501383
  30
0
  11
47.4
  21
1.46262
  31
0
  0
LINE
  5
60
  100
AcDbEntity
  8
1
  100
AcDbLine
  10
47.4
  20
1.46262
  30
0
  11
47.3
  21
1.422639
  31
0
  0
LINE
  5
61
  100
AcDbEntity
  8
1
  100
AcDbLine
  10
47.3
  20
1.422639
  30
0
  11
47.2
  21
1.381471
  31
0
  0
LINE
  5
62
  100
AcDbEntity
  8
1
  100
AcDbLine
  10
47.2
  20
1.381471
  30
0
  11
47.1
  21
1.339153
  31
0
  0
LINE
  5
63
  100
AcDbEntity
  8
1
  100
AcDbLine
  10
47.1
  20
1.339153
  30
0
  11
47
  21
1.295719
  31
0
  0
LINE
  5
64
  100
AcDbEntity
  8
1
  100
AcDbLine
  10
47
  20
1.295719
  30
0
  11
46.9
  21
1.251205
  31
0
  0
LINE
  5
65
  100
AcDbEntity
  8
1
  100
AcDbLine
  10
46.9
  20
1.251205
  30
0
  11
46.8
  21
1.205648
  31
0
  0
LINE
  5
66
  100
AcDbEntity
  8
1
  100
AcDbLine
  10
46.8
  20
1.205648
  30
0
  11
46.7
  21
1.159087
  31
0
  0
LINE
  5
67
  100
AcDbEntity
  8
1
  100
AcDbLine
  10
46.7
  20
1.159087
  30
0
  11
46.6
  21
1.11156
  31
0
  0
LINE
  5
68
  100
AcDbEntity
  8
1
  100
AcDbLine
  10
46.6
  20
1.11156
  30
0
  11
46.5
  21
1.063107
  31
0
  0
LINE
  5
69
  100
AcDbEntity
  8
1
  100
AcDbLine
  10
46.5
  20
1.063107
  30
0
  11
46.4
  21
1.013767
  31
0
  0
LINE
  5
6a
  100
AcDbEntity
  8
1
  100
AcDbLine
  10
46.4
  20
1.013767
  30
0
  11
46.3
  21
0.963584
  31
0
  0
LINE
  5
6b
  100
AcDbEntity
  8
1
  100
AcDbLine
  10
46.3
  20
0.963584
  30
0
  11
46.2
  21
0.912597
  31
0
  0
LINE
  5
6c
  100
AcDbEntity
  8
1
  100
AcDbLine
  10
46.2
  20
0.912597
  30
0
  11
46.1
  21
0.86085
  31
0
  0
LINE
  5
6d
  100
AcDbEntity
  8
1
  100
AcDbLine
  10
46.1
  20
0.86085
  30
0
  11
46
  21
0.808385
  31
0
  0
LINE
  5
6e
  100
AcDbEntity
  8
1
  100
AcDbLine
  10
46
  20
0.808385
  30
0
  11
45.9
  21
0.755247
  31
0
  0
LINE
  5
6f
  100
AcDbEntity
  8
1
  100
AcDbLine
  10
45.9
  20
0.755247
  30
0
  11
45.8
  21
0.701479
  31
0
  0
LINE
  5
70
  100
AcDbEntity
  8
1
  100
AcDbLine
  10
45.8
  20
0.701479
  30
0
  11
45.7
  21
0.647127
  31
0
  0
LINE
  5
71
  100
AcDbEntity
  8
1
  100
AcDbLine
  10
45.7
  20
0.647127
  30
0
  11
45.7
  21
0.44109
  31
0
  0
LINE
  5
72
  100
AcDbEntity
  8
1
  100
AcDbLine
  10
45.7
  20
0.44109
  30
0
  11
45.6
  21
0.398017
  31
0
  0
LINE
  5
73
  100
AcDbEntity
  8
1
  100
AcDbLine
  10
45.6
  20
0.398017
  30
0
  11
45.5
  21
0.354613
  31
0
  0
LINE
  5
74
  100
AcDbEntity
  8
1
  100
AcDbLine
  10
45.5
  20
0.354613
  30
0
  11
45.4
  21
0.310913
  31
0
  0
LINE
  5
75
  100
AcDbEntity
  8
1
  100
AcDbLine
  10
45.4
  20
0.310913
  30
0
  11
45.3
  21
0.266955
  31
0
  0
LINE
  5
76
  100
AcDbEntity
  8
1
  100
AcDbLine
  10
45.3
  20
0.266955
  30
0
  11
45.2
  21
0.222774
  31
0
  0
LINE
  5
77
  100
AcDbEntity
  8
1
  100
AcDbLine
  10
45.2
  20
0.222774
  30
0
  11
45.1
  21
0.178413
  31
0
  0
LINE
  5
78
  100
AcDbEntity
  8
1
  100
AcDbLine
  10
45.1
  20
0.178413
  30
0
  11
45
  21
0.133931
  31
0
  0
LINE
  5
79
  100
AcDbEntity
  8
1
  100
AcDbLine
  10
45
  20
0.133931
  30
0
  11
44.9
  21
0.089463
  31
0
  0
LINE
  5
7a
  100
AcDbEntity
  8
1
  100
AcDbLine
  10
44.9
  20
0.089463
  30
0
  11
44.8
  21
0.045381
  31
0
  0
LINE
  5
7b
  100
AcDbEntity
  8
1
  100
AcDbLine
  10
44.8
  20
0.045381
  30
0
  11
44.7
  21
0.002722
  31
0
  0
LINE
  5
7c
  100
AcDbEntity
  8
1
  100
AcDbLine
  10
44.7
  20
0.002722
  30
0
  11
44.6
  21
-0.035824
  31
0
  0
LINE
  5
7d
  100
AcDbEntity
  8
1
  100
AcDbLine
  10
44.6
  20
-0.035824
  30
0
  11
44.5
  21
-0.063813
  31
0
  0
LINE
  5
7e
  100
AcDbEntity
  8
1
  100
AcDbLine
  10
44.5
  20
-0.063813
  30
0
  11
44.4
  21
-0.066885
  31
0
  0
LINE
  5
7f
  100
AcDbEntity
  8
1
  100
AcDbLine
  10
44.4
  20
-0.066885
  30
0
  11
44.3
  21
-0.01489
  31
0
  0
LINE
  5
80
  100
AcDbEntity
  8
1
  100
AcDbLine
  10
44.3
  20
-0.01489
  30
0
  11
44.2
  21
0.151783
  31
0
  0
LINE
  5
81
  100
AcDbEntity
  8
1
  100
AcDbLine
  10
44.2
  20
0.151783
  30
0
  11
44.1
  21
0.535622
  31
0
  0
LINE
  5
82
  100
AcDbEntity
  8
1
  100
AcDbLine
  10
44.1
  20
0.535622
  30
0
  11
44
  21
1.201431
  31
0
  0
LINE
  5
83
  100
AcDbEntity
  8
1
  100
AcDbLine
  10
44
  20
1.201431
  30
0
  11
44
  21
1.118411
  31
0
  0
LINE
  5
84
  100
AcDbEntity
  8
1
  100
AcDbLine
  10
44
  20
1.118411
  30
0
  11
44.1
  21
1.507945
  31
0
  0
LINE
  5
85
  100
AcDbEntity
  8
1
  100
AcDbLine
  10
44.1
  20
1.507945
  30
0
  11
44.158765
  21
1.55
  31
0
  0
LINE
  5
86
  100
AcDbEntity
  8
1
  100
AcDbLine
  10
45.7
  20
1.55
  30
0
  11
45.7
  21
-1.55
  31
0
  0
LINE
  5
87
  100
AcDbEntity
  8
1
  100
AcDbLine
  10
45.7
  20
-2
  30
0
  11
45.7
  21
2
  31
0
  0
LINE
  5
88
  100
AcDbEntity
  8
1
  100
AcDbLine
  10
44.158765
  20
-1.55
  30
0
  11
44.2
  21
-1.529437
  31
0
  0
LINE
  5
89
  100
AcDbEntity
  8
1
  100
AcDbLine
  10
44.2
  20
-1.529437
  30
0
  11
44.3
  21
-1.391971
  31
0
  0
LINE
  5
8a
  100
AcDbEntity
  8
1
  100
AcDbLine
  10
44.3
  20
-1.391971
  30
0
  11
44.4
  21
-1.216039
  31
0
  0
LINE
  5
8b
  100
AcDbEntity
  8
1
  100
AcDbLine
  10
44.4
  20
-1.216039
  30
0
  11
44.5
  21
-1.05363
  31
0
  0
LINE
  5
8c
  100
AcDbEntity
  8
1
  100
AcDbLine
  10
44.5
  20
-1.05363
  30
0
  11
44.6
  21
-0.920267
  31
0
  0
LINE
  5
8d
  100
AcDbEntity
  8
1
  100
AcDbLine
  10
44.6
  20
-0.920267
  30
0
  11
44.7
  21
-0.815631
  31
0
  0
LINE
  5
8e
  100
AcDbEntity
  8
1
  100
AcDbLine
  10
44.7
  20
-0.815631
  30
0
  11
44.8
  21
-0.733967
  31
0
  0
LINE
  5
8f
  100
AcDbEntity
  8
1
  100
AcDbLine
  10
44.8
  20
-0.733967
  30
0
  11
44.9
  21
-0.668667
  31
0
  0
LINE
  5
90
  100
AcDbEntity
  8
1
  100
AcDbLine
  10
44.9
  20
-0.668667
  30
0
  11
45
  21
-0.61402
  31
0
  0
LINE
  5
91
  100
AcDbEntity
  8
1
  100
AcDbLine
  10
45
  20
-0.61402
  30
0
  11
45.1
  21
-0.5657
  31
0
  0
LINE
  5
92
  100
AcDbEntity
  8
1
  100
AcDbLine
  10
45.1
  20
-0.5657
  30
0
  11
45.2
  21
-0.52072
  31
0
  0
LINE
  5
93
  100
AcDbEntity
  8
1
  100
AcDbLine
  10
45.2
  20
-0.52072
  30
0
  11
45.3
  21
-0.477205
  31
0
  0
LINE
  5
94
  100
AcDbEntity
  8
1
  100
AcDbLine
  10
45.3
  20
-0.477205
  30
0
  11
45.4
  21
-0.434099
  31
0
  0
LINE
  5
95
  100
AcDbEntity
  8
1
  100
AcDbLine
  10
45.4
  20
-0.434099
  30
0
  11
45.5
  21
-0.390902
  31
0
  0
LINE
  5
96
  100
AcDbEntity
  8
1
  100
AcDbLine
  10
45.5
  20
-0.390902
  30
0
  11
45.6
  21
-0.34744
  31
0
  0
LINE
  5
97
  100
AcDbEntity
  8
1
  100
AcDbLine
  10
45.6
  20
-0.34744
  30
0
  11
45.7
  21
-0.303695
  31
0
  0
LINE
  5
98
  100
AcDbEntity
  8
1
  100
AcDbLine
  10
45.7
  20
-0.303695
  30
0
  11
45.7
  21
-0.039143
  31
0
  0
LINE
  5
99
  100
AcDbEntity
  8
1
  100
AcDbLine
  10
45.7
  20
-0.039143
  30
0
  11
45.8
  21
0.01859
  31
0
  0
LINE
  5
9a
  100
AcDbEntity
  8
1
  100
AcDbLine
  10
45.8
  20
0.01859
  30
0
  11
45.9
  21
0.076306
  31
0
  0
LINE
  5
9b
  100
AcDbEntity
  8
1
  100
AcDbLine
  10
45.9
  20
0.076306
  30
0
  11
46
  21
0.13396
  31
0
  0
LINE
  5
9c
  100
AcDbEntity
  8
1
  100
AcDbLine
  10
46
  20
0.13396
  30
0
  11
46.1
  21
0.191501
  31
0
  0
LINE
  5
9d
  100
AcDbEntity
  8
1
  100
AcDbLine
  10
46.1
  20
0.191501
  30
0
  11
46.2
  21
0.248883
  31
0
  0
LINE
  5
9e
  100
AcDbEntity
  8
1
  100
AcDbLine
  10
46.2
  20
0.248883
  30
0
  11
46.3
  21
0.306058
  31
0
  0
LINE
  5
9f
  100
AcDbEntity
  8
1
  100
AcDbLine
  10
46.3
  20
0.306058
  30
0
  11
46.4
  21
0.362977
  31
0
  0
LINE
  5
a0
  100
AcDbEntity
  8
1
  100
AcDbLine
  10
46.4
  20
0.362977
  30
0
  11
46.5
  21
0.419594
  31
0
  0
LINE
  5
a1
  100
AcDbEntity
  8
1
  100
AcDbLine
  10
46.5
  20
0.419594
  30
0
  11
46.6
  21
0.475862
  31
0
  0
LINE
  5
a2
  100
AcDbEntity
  8
1
  100
AcDbLine
  10
46.6
  20
0.475862
  30
0
  11
46.7
  21
0.531733
  31
0
  0
LINE
  5
a3
  100
AcDbEntity
  8
1
  100
AcDbLine
  10
46.7
  20
0.531733
  30
0
  11
46.8
  21
0.587161
  31
0
  0
LINE
  5
a4
  100
AcDbEntity
  8
1
  100
AcDbLine
  10
46.8
  20
0.587161
  30
0
  11
46.9
  21
0.642099
  31
0
  0
LINE
  5
a5
  100
AcDbEntity
  8
1
  100
AcDbLine
  10
46.9
  20
0.642099
  30
0
  11
47
  21
0.696503
  31
0
  0
LINE
  5
a6
  100
AcDbEntity
  8
1
  100
AcDbLine
  10
47
  20
0.696503
  30
0
  11
47.1
  21
0.750326
  31
0
  0
LINE
  5
a7
  100
AcDbEntity
  8
1
  100
AcDbLine
  10
47.1
  20
0.750326
  30
0
  11
47.2
  21
0.803524
  31
0
  0
LINE
  5
a8
  100
AcDbEntity
  8
1
  100
AcDbLine
  10
47.2
  20
0.803524
  30
0
  11
47.3
  21
0.856052
  31
0
  0
LINE
  5
a9
  100
AcDbEntity
  8
1
  100
AcDbLine
  10
47.3
  20
0.856052
  30
0
  11
47.4
  21
0.907867
  31
0
  0
LINE
  5
aa
  100
AcDbEntity
  8
1
  100
AcDbLine
  10
47.4
  20
0.907867
  30
0
  11
47.5
  21
0.958926
  31
0
  0
LINE
  5
ab
  100
AcDbEntity
  8
1
  100
AcDbLine
  10
47.5
  20
0.958926
  30
0
  11
47.6
  21
1.009185
  31
0
  0
LINE
  5
ac
  100
AcDbEntity
  8
1
  100
AcDbLine
  10
47.6
  20
1.009185
  30
0
  11
47.7
  21
1.058604
  31
0
  0
LINE
  5
ad
  100
AcDbEntity
  8
1
  100
AcDbLine
  10
47.7
  20
1.058604
  30
0
  11
47.8
  21
1.10714
  31
0
  0
LINE
  5
ae
  100
AcDbEntity
  8
1
  100
AcDbLine
  10
47.8
  20
1.10714
  30
0
  11
47.9
  21
1.154754
  31
0
  0
LINE
  5
af
  100
AcDbEntity
  8
1
  100
AcDbLine
  10
47.9
  20
1.154754
  30
0
  11
48
  21
1.201406
  31
0
  0
LINE
  5
b0
  100
AcDbEntity
  8
1
  100
AcDbLine
  10
48
  20
1.201406
  30
0
  11
48.1
  21
1.247057
  31
0
  0
LINE
  5
b1
  100
AcDbEntity
  8
1
  100
AcDbLine
  10
48.1
  20
1.247057
  30
0
  11
48.2
  21
1.291668
  31
0
  0
LINE
  5
b2
  100
AcDbEntity
  8
1
  100
AcDbLine
  10
48.2
  20
1.291668
  30
0
  11
48.3
  21
1.335203
  31
0
  0
LINE
  5
b3
  100
AcDbEntity
  8
1
  100
AcDbLine
  10
48.3
  20
1.335203
  30
0
  11
48.4
  21
1.377626
  31
0
  0
LINE
  5
b4
  100
AcDbEntity
  8
1
  100
AcDbLine
  10
48.4
  20
1.377626
  30
0
  11
48.5
  21
1.4189
  31
0
  0
LINE
  5
b5
  100
AcDbEntity
  8
1
  100
AcDbLine
  10
48.5
  20
1.4189
  30
0
  11
48.6
  21
1.458993
  31
0
  0
LINE
  5
b6
  100
AcDbEntity
  8
1
  100
AcDbLine
  10
48.6
  20
1.458993
  30
0
  11
48.7
  21
1.497869
  31
0
  0
LINE
  5
b7
  100
AcDbEntity
  8
1
  100
AcDbLine
  10
48.7
  20
1.497869
  30
0
  11
48.8
  21
1.535498
  31
0
  0
LINE
  5
b8
  100
AcDbEntity
  8
1
  100
AcDbLine
  10
48.8
  20
1.535498
  30
0
  11
48.9
  21
1.571846
  31
0
  0
LINE
  5
b9
  100
AcDbEntity
  8
1
  100
AcDbLine
  10
48.9
  20
1.571846
  30
0
  11
49
  21
1.606886
  31
0
  0
LINE
  5
ba
  100
AcDbEntity
  8
1
  100
AcDbLine
  10
49
  20
1.606886
  30
0
  11
49.1
  21
1.640586
  31
0
  0
LINE
  5
bb
  100
AcDbEntity
  8
1
  100
AcDbLine
  10
49.1
  20
1.640586
  30
0
  11
49.2
  21
1.672919
  31
0
  0
LINE
  5
bc
  100
AcDbEntity
  8
1
  100
AcDbLine
  10
49.2
  20
1.672919
  30
0
  11
49.3
  21
1.703858
  31
0
  0
LINE
  5
bd
  100
AcDbEntity
  8
1
  100
AcDbLine
  10
49.3
  20
1.703858
  30
0
  11
49.4
  21
1.733377
  31
0
  0
LINE
  5
be
  100
AcDbEntity
  8
1
  100
AcDbLine
  10
49.4
  20
1.733377
  30
0
  11
49.5
  21
1.761452
  31
0
  0
LINE
  5
bf
  100
AcDbEntity
  8
1
  100
AcDbLine
  10
49.5
  20
1.761452
  30
0
  11
49.6
  21
1.788059
  31
0
  0
LINE
  5
c0
  100
AcDbEntity
  8
1
  100
AcDbLine
  10
49.6
  20
1.788059
  30
0
  11
49.7
  21
1.813176
  31
0
  0
LINE
  5
c1
  100
AcDbEntity
  8
1
  100
AcDbLine
  10
49.7
  20
1.813176
  30
0
  11
49.8
  21
1.836783
  31
0
  0
LINE
  5
c2
  100
AcDbEntity
  8
1
  100
AcDbLine
  10
49.8
  20
1.836783
  30
0
  11
49.9
  21
1.858858
  31
0
  0
LINE
  5
c3
  100
AcDbEntity
  8
1
  100
AcDbLine
  10
49.9
  20
1.858858
  30
0
  11
50
  21
1.879385
  31
0
  0
LINE
  5
c4
  100
AcDbEntity
  8
1
  100
AcDbLine
  10
34.7
  20
1.55
  30
0
  11
34.7
  21
-1.55
  31
0
  0
LINE
  5
c5
  100
AcDbEntity
  8
1
  100
AcDbLine
  10
32.731823
  20
2.285871
  30
0
  11
32.731823
  21
-2.285871
  31
0
  0
LINE
  5
c6
  100
AcDbEntity
  8
1
  100
AcDbLine
  10
31.910312
  20
3
  30
0
  11
31.910312
  21
-3
  31
0
  0
LINE
  5
c7
  100
AcDbEntity
  8
1
  100
AcDbLine
  10
31.910312
  20
-3
  30
0
  11
31.910312
  21
3
  31
0
  0
LINE
  5
c8
  100
AcDbEntity
  8
SK1
  100
AcDbLine
  10
30.91
  20
3
  30
0
  11
0.4
  21
3
  31
0
  0
LINE
  5
c9
  100
AcDbEntity
  8
SK1
  100
AcDbLine
  10
0.4
  20
3
  30
0
  11
0
  21
2.6
  31
0
  0
LINE
  5
ca
  100
AcDbEntity
  8
SK1
  100
AcDbLine
  10
30.91
  20
-3
  30
0
  11
0.4
  21
-3
  31
0
  0
LINE
  5
cb
  100
AcDbEntity
  8
SK1
  100
AcDbLine
  10
0.4
  20
-3
  30
0
  11
0
  21
-2.6
  31
0
  0
LINE
  5
cc
  100
AcDbEntity
  8
SK1
  100
AcDbLine
  10
0.4
  20
3
  30
0
  11
0.4
  21
-3
  31
0
  0
LINE
  5
cd
  100
AcDbEntity
  8
SK1
  100
AcDbLine
  10
0
  20
2.6
  30
0
  11
0
  21
-2.6
  31
0
  0
LINE
  5
ce
  100
AcDbEntity
  8
SK1
  100
AcDbLine
  10
31.9501
  20
1.40688
  30
0
  11
32.3169
  21
1.0401
  31
0
  0
LINE
  5
cf
  100
AcDbEntity
  8
SK1
  100
AcDbLine
  10
31.4428
  20
1.66666
  30
0
  11
32.5767
  21
0.532833
  31
0
  0
LINE
  5
d0
  100
AcDbEntity
  8
SK1
  100
AcDbLine
  10
31.1254
  20
1.73657
  30
0
  11
32.6466
  21
0.215434
  31
0
  0
LINE
  5
d1
  100
AcDbEntity
  8
SK1
  100
AcDbLine
  10
30.91
  20
1.70452
  30
0
  11
32.6145
  21
0
  31
0
  0
LINE
  5
d2
  100
AcDbEntity
  8
SK1
  100
AcDbLine
  10
30.91
  20
1.45703
  30
0
  11
32.367
  21
0
  31
0
  0
LINE
  5
d3
  100
AcDbEntity
  8
SK1
  100
AcDbLine
  10
30.91
  20
1.20954
  30
0
  11
32.1195
  21
0
  31
0
  0
LINE
  5
d4
  100
AcDbEntity
  8
SK1
  100
AcDbLine
  10
30.91
  20
0.962054
  30
0
  11
31.8721
  21
0
  31
0
  0
LINE
  5
d5
  100
AcDbEntity
  8
SK1
  100
AcDbLine
  10
30.91
  20
0.714566
  30
0
  11
31.6246
  21
0
  31
0
  0
LINE
  5
d6
  100
AcDbEntity
  8
SK1
  100
AcDbLine
  10
30.91
  20
0.467079
  30
0
  11
31.3771
  21
0
  31
0
  0
LINE
  5
d7
  100
AcDbEntity
  8
SK1
  100
AcDbLine
  10
30.91
  20
0.219592
  30
0
  11
31.1296
  21
0
  31
0
  0
LINE
  5
d8
  100
AcDbEntity
  8
SK1
  100
AcDbLine
  10
30.91
  20
1.70452
  30
0
  11
30.9541
  21
1.74861
  31
0
  0
LINE
  5
d9
  100
AcDbEntity
  8
SK1
  100
AcDbLine
  10
30.91
  20
1.45703
  30
0
  11
31.181
  21
1.72802
  31
0
  0
LINE
  5
da
  100
AcDbEntity
  8
SK1
  100
AcDbLine
  10
30.91
  20
1.20954
  30
0
  11
31.3842
  21
1.6837
  31
0
  0
LINE
  5
db
  100
AcDbEntity
  8
SK1
  100
AcDbLine
  10
30.91
  20
0.962054
  30
0
  11
31.5688
  21
1.62082
  31
0
  0
LINE
  5
dc
  100
AcDbEntity
  8
SK1
  100
AcDbLine
  10
30.91
  20
0.714566
  30
0
  11
31.7371
  21
1.54167
  31
0
  0
LINE
  5
dd
  100
AcDbEntity
  8
SK1
  100
AcDbLine
  10
30.91
  20
0.467079
  30
0
  11
31.891
  21
1.44812
  31
0
  0
LINE
  5
de
  100
AcDbEntity
  8
SK1
  100
AcDbLine
  10
30.91
  20
0.219592
  30
0
  11
32.0326
  21
1.34216
  31
0
  0
LINE
  5
df
  100
AcDbEntity
  8
SK1
  100
AcDbLine
  10
30.9379
  20
0
  30
0
  11
32.1608
  21
1.22288
  31
0
  0
LINE
  5
e0
  100
AcDbEntity
  8
SK1
  100
AcDbLine
  10
31.1854
  20
0
  30
0
  11
32.277
  21
1.09157
  31
0
  0
LINE
  5
e1
  100
AcDbEntity
  8
SK1
  100
AcDbLine
  10
31.4329
  20
0
  30
0
  11
32.3807
  21
0.947822
  31
0
  0
LINE
  5
e2
  100
AcDbEntity
  8
SK1
  100
AcDbLine
  10
31.6804
  20
0
  30
0
  11
32.4705
  21
0.790145
  31
0
  0
LINE
  5
e3
  100
AcDbEntity
  8
SK1
  100
AcDbLine
  10
31.9278
  20
0
  30
0
  11
32.5464
  21
0.618517
  31
0
  0
LINE
  5
e4
  100
AcDbEntity
  8
SK1
  100
AcDbLine
  10
32.1753
  20
0
  30
0
  11
32.606
  21
0.430696
  31
0
  0
LINE
  5
e5
  100
AcDbEntity
  8
SK1
  100
AcDbLine
  10
32.4228
  20
0
  30
0
  11
32.6456
  21
0.222827
  31
0
  0
LINE
  5
e6
  100
AcDbEntity
  8
SK1
  100
AcDbLine
  10
30.91
  20
0
  30
0
  11
30.91
  21
1.75
  31
0
  0
LINE
  5
e7
  100
AcDbEntity
  8
SK1
  100
AcDbLine
  10
30.91
  20
0
  30
0
  11
32.66
  21
0
  31
0
  0
ARC
  5
e8
  100
AcDbEntity
  8
SK1
  100
AcDbCircle
  10
30.91
  20
0
  30
0
  40
1.75
  100
AcDbArc
  50
0
  51
90
  0
ARC
  5
e9
  100
AcDbEntity
  8
SK1
  100
AcDbCircle
  10
30.91
  20
0
  30
0
  40
1.75
  100
AcDbArc
  50
90
  51
180
  0
LINE
  5
ea
  100
AcDbEntity
  8
SK1
  100
AcDbLine
  10
30.8821
  20
0
  30
0
  11
30.91
  21
-0.027896
  31
0
  0
LINE
  5
eb
  100
AcDbEntity
  8
SK1
  100
AcDbLine
  10
30.6346
  20
0
  30
0
  11
30.91
  21
-0.275383
  31
0
  0
LINE
  5
ec
  100
AcDbEntity
  8
SK1
  100
AcDbLine
  10
30.3871
  20
0
  30
0
  11
30.91
  21
-0.522871
  31
0
  0
LINE
  5
ed
  100
AcDbEntity
  8
SK1
  100
AcDbLine
  10
30.1396
  20
0
  30
0
  11
30.91
  21
-0.770358
  31
0
  0
LINE
  5
ee
  100
AcDbEntity
  8
SK1
  100
AcDbLine
  10
29.8922
  20
0
  30
0
  11
30.91
  21
-1.01785
  31
0
  0
LINE
  5
ef
  100
AcDbEntity
  8
SK1
  100
AcDbLine
  10
29.6447
  20
0
  30
0
  11
30.91
  21
-1.26533
  31
0
  0
LINE
  5
f0
  100
AcDbEntity
  8
SK1
  100
AcDbLine
  10
29.3972
  20
0
  30
0
  11
30.91
  21
-1.51282
  31
0
  0
LINE
  5
f1
  100
AcDbEntity
  8
SK1
  100
AcDbLine
  10
29.1603
  20
-0.010642
  30
0
  11
30.8994
  21
-1.74967
  31
0
  0
LINE
  5
f2
  100
AcDbEntity
  8
SK1
  100
AcDbLine
  10
29.1836
  20
-0.281429
  30
0
  11
30.6286
  21
-1.72637
  31
0
  0
LINE
  5
f3
  100
AcDbEntity
  8
SK1
  100
AcDbLine
  10
29.2739
  20
-0.619147
  30
0
  11
30.2909
  21
-1.63613
  31
0
  0
LINE
  5
f4
  100
AcDbEntity
  8
SK1
  100
AcDbLine
  10
29.1614
  20
-0.044098
  30
0
  11
29.2055
  21
0
  31
0
  0
LINE
  5
f5
  100
AcDbEntity
  8
SK1
  100
AcDbLine
  10
29.182
  20
-0.270991
  30
0
  11
29.453
  21
0
  31
0
  0
LINE
  5
f6
  100
AcDbEntity
  8
SK1
  100
AcDbLine
  10
29.2263
  20
-0.474162
  30
0
  11
29.7005
  21
0
  31
0
  0
LINE
  5
f7
  100
AcDbEntity
  8
SK1
  100
AcDbLine
  10
29.2892
  20
-0.658762
  30
0
  11
29.9479
  21
0
  31
0
  0
LINE
  5
f8
  100
AcDbEntity
  8
SK1
  100
AcDbLine
  10
29.3683
  20
-0.827105
  30
0
  11
30.1954
  21
0
  31
0
  0
LINE
  5
f9
  100
AcDbEntity
  8
SK1
  100
AcDbLine
  10
29.4619
  20
-0.981039
  30
0
  11
30.4429
  21
0
  31
0
  0
LINE
  5
fa
  100
AcDbEntity
  8
SK1
  100
AcDbLine
  10
29.5678
  20
-1.12257
  30
0
  11
30.6904
  21
0
  31
0
  0
LINE
  5
fb
  100
AcDbEntity
  8
SK1
  100
AcDbLine
  10
29.6871
  20
-1.25077
  30
0
  11
30.91
  21
-0.027896
  31
0
  0
LINE
  5
fc
  100
AcDbEntity
  8
SK1
  100
AcDbLine
  10
29.8184
  20
-1.36695
  30
0
  11
30.91
  21
-0.275383
  31
0
  0
LINE
  5
fd
  100
AcDbEntity
  8
SK1
  100
AcDbLine
  10
29.9622
  20
-1.47069
  30
0
  11
30.91
  21
-0.522871
  31
0
  0
LINE
  5
fe
  100
AcDbEntity
  8
SK1
  100
AcDbLine
  10
30.1199
  20
-1.5605
  30
0
  11
30.91
  21
-0.770358
  31
0
  0
LINE
  5
ff
  100
AcDbEntity
  8
SK1
  100
AcDbLine
  10
30.2915
  20
-1.63636
  30
0
  11
30.91
  21
-1.01785
  31
0
  0
LINE
  5
100
  100
AcDbEntity
  8
SK1
  100
AcDbLine
  10
30.4793
  20
-1.69603
  30
0
  11
30.91
  21
-1.26533
  31
0
  0
LINE
  5
101
  100
AcDbEntity
  8
SK1
  100
AcDbLine
  10
30.6872
  20
-1.73565
  30
0
  11
30.91
  21
-1.51282
  31
0
  0
LINE
  5
102
  100
AcDbEntity
  8
SK1
  100
AcDbLine
  10
30.91
  20
0
  30
0
  11
29.16
  21
0
  31
0
  0
LINE
  5
103
  100
AcDbEntity
  8
SK1
  100
AcDbLine
  10
30.91
  20
-1.75
  30
0
  11
30.91
  21
0
  31
0
  0
ARC
  5
104
  100
AcDbEntity
  8
SK1
  100
AcDbCircle
  10
30.91
  20
0
  30
0
  40
1.75
  100
AcDbArc
  50
180
  51
270
  0
ARC
  5
105
  100
AcDbEntity
  8
SK1
  100
AcDbCircle
  10
30.91
  20
0
  30
0
  40
1.75
  100
AcDbArc
  50
270
  51
0
  0
LINE
  5
176
  100
AcDbEntity
  8
NOCUT
  100
AcDbLine
  10
45.7
  20
0
  30
0
  11
45.7
  21
1.55
  31
0
  0
LINE
  5
177
  100
AcDbEntity
  8
NOCUT
  100
AcDbLine
  10
45.7
  20
1.55
  30
0
  11
34.7
  21
1.55
  31
0
  0
ARC
  5
178
  100
AcDbEntity
  8
NOCUT
  100
AcDbCircle
  10
34.7
  20
4.55
  30
0
  40
3
  100
AcDbArc
  50
229
  51
270
  0
LINE
  5
179
  100
AcDbEntity
  8
NOCUT
  100
AcDbLine
  10
32.731823
  20
2.285871
  30
0
  11
31.910312
  21
3
  31
0
  0
LINE
  5
17a
  100
AcDbEntity
  8
NOCUT
  100
AcDbLine
  10
31.910312
  20
3
  30
0
  11
30.91
  21
3
  31
0
  0
LINE
  5
17b
  100
AcDbEntity
  8
NOCUT
  100
AcDbLine
  10
30.91
  20
3
  30
0
  11
30.91
  21
0
  31
0
  0
LINE
  5
17c
  100
AcDbEntity
  8
NOCUT
  100
AcDbLine
  10
30.91
  20
0
  30
0
  11
45.7
  21
0
  31
0
  0
LINE
  5
17d
  100
AcDbEntity
  8
CUT
  100
AcDbLine
  10
50
  20
0
  30
0
  11
50
  21
2
  31
0
  0
LINE
  5
17e
  100
AcDbEntity
  8
CUT
  100
AcDbLine
  10
50
  20
2
  30
0
  11
45.7
  21
2
  31
0
  0
LINE
  5
17f
  100
AcDbEntity
  8
CUT
  100
AcDbLine
  10
45.7
  20
2
  30
0
  11
45.7
  21
0
  31
0
  0
LINE
  5
180
  100
AcDbEntity
  8
CUT
  100
AcDbLine
  10
45.7
  20
0
  30
0
  11
50
  21
0
  31
0
  0
LINE
  5
181
  100
AcDbEntity
  8
4
  100
AcDbLine
  10
30.91
  20
0
  30
0
  11
50
  21
0
  31
0
  0
LINE
  5
182
  100
AcDbEntity
  8
SK4
  100
AcDbLine
  10
-1
  20
0
  30
0
  11
51
  21
0
  31
0
  0
LINE
  5
183
  100
AcDbEntity
  8
INFTOTAL
  100
AcDbLine
  10
-15.7
  20
23.583274
  30
0
  11
65.7
  21
23.583274
  31
0
  0
LINE
  5
184
  100
AcDbEntity
  8
INFTOTAL
  100
AcDbLine
  10
65.7
  20
23.583274
  30
0
  11
65.7
  21
-47.29485
  31
0
  0
LINE
  5
185
  100
AcDbEntity
  8
INFTOTAL
  100
AcDbLine
  10
65.7
  20
-47.29485
  30
0
  11
-15.7
  21
-47.29485
  31
0
  0
LINE
  5
186
  100
AcDbEntity
  8
INFTOTAL
  100
AcDbLine
  10
-15.7
  20
-47.29485
  30
0
  11
-15.7
  21
23.583274
  31
0
  0
ENDSEC
  0
SECTION
  2
OBJECTS
  0
DICTIONARY
  5
187
  330
0
100
AcDbDictionary
281
    1
  3
ACAD_GROUP
  350
188
  0
DICTIONARY
  5
188
102
{ACAD_REACTORS
  330
187
102
}
  330
187
100
AcDbDictionary
281
    1
  0
ENDSEC
  0
EOF
